osu file format v14

[General]
AudioFilename: audio.mp3
AudioLeadIn: 0
PreviewTime: 62290
Countdown: 0
SampleSet: Soft
StackLeniency: 0.8
Mode: 0
LetterboxInBreaks: 0
WidescreenStoryboard: 0

[Editor]
DistanceSpacing: 1.3
BeatDivisor: 4
GridSize: 8
TimelineZoom: 1

[Metadata]
Title:Friend Shitai (TV Size)
TitleUnicode:ふ・れ・ん・ど・し・た・い (TV Size)
Artist:Gakuen Seikatsu-bu
ArtistUnicode:学園生活部
Creator:Terton
Version:Hard
Source:がっこうぐらし!
Tags:gakkou gurashi gakkougurashi school live school-live 水瀬いのり minase inori 高橋李依 takahashi rie 小澤亜李 ozawa ari 市道真央 ichimichi mao m・a・o opening op tv size
BeatmapID:1633307
BeatmapSetID:777450

[Difficulty]
HPDrainRate:6
CircleSize:3.5
OverallDifficulty:7
ApproachRate:8
SliderMultiplier:1.4
SliderTickRate:1

[Events]
//Background and Video events
0,0,"school-live.jpg",0,0
//Break Periods
//Storyboard Layer 0 (Background)
//Storyboard Layer 1 (Fail)
//Storyboard Layer 2 (Pass)
//Storyboard Layer 3 (Foreground)
//Storyboard Sound Samples

[TimingPoints]
770,405.405405405405,4,1,0,60,1,0
8878,-100,4,1,0,60,0,1
21851,-100,4,3,0,60,0,0
33202,-100,4,1,0,60,0,0
34013,-100,4,3,0,60,0,0
47797,-100,4,2,0,60,0,0
62391,-100,4,1,0,60,0,1
73540,-100,4,1,0,60,0,0
75364,-100,4,1,0,60,0,1
87526,-100,4,1,0,60,0,0

[Colours]
Combo1 : 239,10,10
Combo2 : 0,204,102
Combo3 : 0,0,191
Combo4 : 130,255,255

[HitObjects]
112,240,770,6,0,L|88:192,4,35,8|0|0|0|0,0:0|0:0|0:0|0:0|0:0,0:0:0:0:
280,304,1580,6,0,L|296:256,4,35,2|0|0|0|0,0:0|0:0|0:0|0:0|0:0,0:0:0:0:
200,144,2391,6,0,L|176:104,4,35,8|0|0|0|0,0:0|0:0|0:0|0:0|0:0,0:0:0:0:
360,232,3202,6,0,L|384:192,4,35,2|0|0|0|0,0:0|0:0|0:0|0:0|0:0,0:0:0:0:
216,120,4013,5,8,0:0:0:0:
56,336,4824,1,2,0:0:0:0:
416,336,5634,5,8,0:0:0:0:
128,112,6445,1,2,0:0:0:0:
445,62,8472,6,0,L|485:147,1,70,0|0,0:0|0:0,0:0:0:0:
434,208,8878,6,0,L|417:292,1,70,8|0,0:0|0:0,0:0:0:0:
329,286,9283,2,0,L|306:208,1,70,0|0,0:0|0:0,0:0:0:0:
222,247,9688,2,0,L|206:152,1,70
128,136,10094,1,0,0:0:0:0:
153,48,10297,1,0,0:0:0:0:
243,41,10499,6,0,P|260:73|265:111,1,70,8|0,0:0|0:0,0:0:0:0:
350,140,10905,1,0,0:0:0:0:
321,226,11107,1,0,0:0:0:0:
321,226,11310,2,0,L|239:201,1,70,2|0,0:0|0:0,0:0:0:0:
181,262,11715,2,0,L|99:237,1,70,0|0,0:0|0:0,0:0:0:0:
64,168,12121,6,0,L|144:112,1,70,8|0,0:0|0:0,0:0:0:0:
197,177,12526,1,0,0:0:0:0:
232,96,12729,1,0,0:0:0:0:
232,96,12932,2,0,L|296:136,1,70,0|0,0:0|0:0,0:0:0:0:
328,216,13337,1,0,0:0:0:0:
406,170,13540,1,0,0:0:0:0:
440,256,13742,5,8,0:0:0:0:
400,336,13945,1,0,0:0:0:0:
312,304,14148,1,0,0:0:0:0:
222,320,14351,1,4,0:0:0:0:
87,215,14756,1,0,0:0:0:0:
87,215,14857,1,8,0:3:0:0:
87,215,14959,2,0,P|71:159|71:127,1,70,0|0,0:0|0:0,0:0:0:0:
83,58,15364,6,0,P|122:68|149:96,1,70,8|0,0:0|0:0,0:0:0:0:
192,168,15769,1,0,0:0:0:0:
261,109,15972,1,0,0:0:0:0:
261,109,16175,2,0,P|281:152|276:197,1,70,0|0,0:0|0:0,0:0:0:0:
315,258,16580,1,0,0:0:0:0:
252,324,16783,1,0,0:0:0:0:
192,248,16986,5,8,0:0:0:0:
144,325,17188,1,0,0:0:0:0:
63,284,17391,1,0,0:0:0:0:
65,192,17594,1,0,0:0:0:0:
125,123,17797,1,2,0:0:0:0:
191,179,17999,2,0,P|196:227|186:264,1,70
216,336,18405,1,0,0:0:0:0:
305,322,18607,6,0,P|330:293|353:242,1,70,8|0,0:0|0:0,0:0:0:0:
374,178,19013,1,0,0:0:0:0:
448,136,19215,2,0,P|456:88|440:48,1,70,4|0,0:0|0:0,0:0:0:0:
360,40,19621,1,0,0:0:0:0:
296,104,19824,1,0,0:0:0:0:
216,64,20026,1,0,0:0:0:0:
128,224,20432,5,0,0:0:0:0:
64,288,20634,1,0,0:0:0:0:
152,320,20837,1,0,0:0:0:0:
216,256,21039,1,4,0:0:0:0:
448,112,21851,6,0,B|464:144|472:208,1,70,8|0,0:0|0:0,0:0:0:0:
415,253,22256,1,0,0:0:0:0:
347,191,22459,2,0,L|301:122,1,70,0|2,0:0|0:0,0:0:0:0:
220,156,22864,1,0,0:0:0:0:
154,219,23067,2,0,P|194:243|250:243,1,70,0|0,0:0|0:0,0:0:0:0:
304,271,23472,5,8,0:0:0:0:
442,152,23878,2,0,P|426:112|402:80,1,70,0|0,0:0|0:0,0:0:0:0:
356,162,24283,2,0,P|380:210|388:298,1,140,2|0,0:0|0:0,0:0:0:0:
226,210,25094,6,0,P|202:178|194:130,1,70,8|0,0:0|0:0,0:0:0:0:
212,60,25499,1,0,0:0:0:0:
300,79,25702,2,0,P|348:111|372:135,1,70,0|2,0:0|0:0,0:0:0:0:
393,202,26107,1,0,0:0:0:0:
368,289,26310,2,0,P|325:282|290:288,1,70,0|0,0:0|0:0,0:0:0:0:
208,280,26715,6,0,P|168:228|156:141,1,140,8|0,0:0|0:0,0:0:0:0:
232,112,27324,1,0,0:0:0:0:
296,176,27526,1,2,0:0:0:0:
376,128,27729,1,0,0:0:0:0:
376,128,27830,1,8,0:3:0:0:
376,128,27932,2,0,P|400:160|408:208,1,70,0|0,0:0|0:0,0:0:0:0:
368,272,28337,6,0,P|328:232|288:224,1,70,8|0,0:0|0:0,0:0:0:0:
229,200,28742,1,0,0:0:0:0:
215,290,28945,2,0,L|218:380,1,70,0|2,0:0|0:0,0:0:0:0:
131,326,29351,1,0,0:0:0:0:
81,250,29553,2,0,P|73:210|89:162,1,70,0|0,0:0|0:0,0:0:0:0:
82,90,29959,5,8,0:0:0:0:
224,208,30364,1,0,0:0:0:0:
368,96,30769,1,2,0:0:0:0:
464,256,31175,1,0,0:0:0:0:
296,320,31580,6,0,P|288:272|296:224,1,70,8|0,0:0|0:0,0:0:0:0:
203,221,31986,1,0,0:0:0:0:
226,133,32188,2,0,P|218:85|226:37,1,70,0|2,0:0|0:0,0:0:0:0:
309,46,32594,1,0,0:0:0:0:
395,76,32797,1,0,0:0:0:0:
393,166,32999,1,0,0:0:0:0:
310,204,33202,5,8,0:0:0:0:
200,349,33607,1,0,0:0:0:0:
122,183,34013,1,4,0:1:0:0:
472,256,34824,6,0,P|456:288|424:320,1,70,8|0,0:0|0:0,0:0:0:0:
352,272,35229,2,0,P|328:304|288:328,1,70,0|0,0:0|0:0,0:0:0:0:
215,296,35634,1,2,0:0:0:0:
248,216,35837,1,0,0:0:0:0:
248,216,35938,1,8,0:3:0:0:
248,216,36040,2,0,P|240:168|240:120,1,70,0|0,0:0|0:0,0:0:0:0:
304,80,36445,6,0,L|384:144,1,70,8|0,0:0|0:0,0:0:0:0:
344,216,36851,2,0,L|424:280,1,70,0|0,0:0|0:0,0:0:0:0:
432,344,37256,1,2,0:0:0:0:
496,280,37459,1,0,0:0:0:0:
496,280,37560,1,8,0:0:0:0:
496,280,37661,2,0,P|496:216|488:184,1,70,0|0,0:0|0:0,0:0:0:0:
432,144,38067,6,0,P|408:112|368:72,1,70,8|0,0:0|0:0,0:0:0:0:
320,152,38472,2,0,P|296:120|256:80,1,70,0|0,0:0|0:0,0:0:0:0:
222,172,38878,2,0,P|195:187|141:179,1,70,2|0,0:0|0:0,0:0:0:0:
120,104,39283,1,0,0:0:0:0:
120,104,39486,1,0,0:0:0:0:
64,176,39688,6,0,P|24:224|24:240,1,70,8|0,0:0|0:0,0:0:0:0:
34,319,40094,1,4,0:0:0:0:
119,351,40297,1,0,0:0:0:0:
143,263,40499,1,2,0:0:0:0:
223,311,40702,2,0,P|255:326|290:328,1,70,0|0,0:0|0:0,0:0:0:0:
360,272,41107,1,0,0:0:0:0:
288,224,41310,5,8,0:0:0:0:
224,160,41513,2,0,P|240:112|256:80,1,70,0|0,0:0|0:0,0:0:0:0:
313,31,41918,1,0,0:0:0:0:
313,31,42019,1,8,0:0:0:0:
313,31,42121,2,0,P|353:63|369:95,1,70,2|0,0:0|0:0,0:0:0:0:
365,169,42526,2,0,P|357:217|325:257,1,70,0|0,0:0|0:0,0:0:0:0:
261,268,42932,6,0,P|253:220|237:188,1,70,8|0,0:0|0:0,0:0:0:0:
156,225,43337,1,0,0:0:0:0:
184,144,43540,1,0,0:0:0:0:
184,144,43641,1,8,0:3:0:0:
184,144,43742,2,0,P|192:88|200:48,1,70,2|0,0:0|0:0,0:0:0:0:
272,24,44148,1,0,0:0:0:0:
313,105,44351,6,0,L|264:111,2,35,0|8|8,0:0|0:0|0:0,0:0:0:0:
389,154,44756,2,0,P|389:194|381:226,1,70
320,280,45161,1,0,0:0:0:0:
248,224,45364,1,2,0:0:0:0:
176,280,45567,1,0,0:0:0:0:
96,328,45769,2,0,P|56:288|48:256,1,70,0|0,0:0|0:0,0:0:0:0:
56,184,46175,5,8,0:0:0:0:
104,104,46378,1,0,0:0:0:0:
176,48,46580,1,0,0:0:0:0:
216,129,46783,1,4,0:0:0:0:
480,256,47797,6,0,P|440:304|354:285,1,140,8|0,0:0|0:0,0:0:0:0:
320,224,48405,1,0,0:0:0:0:
320,224,48607,2,0,B|295:176|226:168|192:216,1,140,2|0,0:0|0:0,0:0:0:0:
64,328,49418,6,0,P|32:256|40:176,1,140,8|0,0:0|0:0,0:0:0:0:
80,112,50026,2,0,L|176:144,1,70,0|2,0:0|0:0,0:0:0:0:
176,224,50432,2,0,L|256:192,1,70,0|0,0:0|0:0,0:0:0:0:
392,96,51040,6,0,P|424:152|400:224,1,140,8|0,0:0|0:0,0:0:0:0:
336,283,51648,1,0,0:0:0:0:
336,283,51851,2,0,B|304:321|253:323|210:275,1,140,2|0,0:0|0:0,0:0:0:0:
80,152,52661,6,0,P|112:112|200:96,1,140,8|0,0:0|0:0,0:0:0:0:
274,141,53269,2,0,P|310:155|346:147,1,70,0|2,0:0|0:0,0:0:0:0:
469,278,53878,1,0,0:0:0:0:
252,267,54283,6,0,P|260:307|284:347,4,70,4|0|0|0|2,0:0|0:0|0:0|0:0|0:0,0:0:0:0:
416,192,55499,6,0,P|408:152|384:112,4,70,4|0|8|0|0,0:0|0:0|0:0|0:0|0:0,0:0:0:0:
264,296,56715,6,0,L|184:280,1,70,2|0,0:0|0:0,0:0:0:0:
144,208,57121,2,0,L|224:176,1,70,0|0,0:0|0:0,0:0:0:0:
296,168,57526,6,0,L|328:224,4,35,8|0|0|0|4,3:0|3:0|3:0|3:0|3:0,0:0:0:0:
456,256,58337,6,0,L|488:312,4,35,10|0|0|0|4,3:0|3:0|3:0|3:0|3:0,0:0:0:0:
280,296,59148,6,0,L|312:352,4,35,8|0|0|0|4,3:0|3:0|3:0|3:0|3:0,0:0:0:0:
392,152,59959,6,0,L|424:208,4,35,10|0|0|0|4,3:0|3:0|3:0|3:0|3:0,0:0:0:0:
152,280,60972,5,0,0:0:0:0:
88,216,61175,1,0,0:0:0:0:
56,128,61378,1,0,0:0:0:0:
56,40,61580,1,2,0:0:0:0:
208,144,61986,1,4,1:0:0:0:
296,304,62391,6,0,P|320:312|376:320,1,70,8|0,0:0|0:0,0:0:0:0:
416,248,62797,2,0,P|448:224|472:184,1,70,0|0,0:0|0:0,0:0:0:0:
491,112,63202,2,0,P|451:100|424:107,1,70,2|0,0:0|0:0,0:0:0:0:
359,170,63607,1,0,0:0:0:0:
359,170,63810,1,0,0:0:0:0:
266,164,64013,6,0,P|226:148|186:180,1,70,8|0,0:0|0:0,0:0:0:0:
115,184,64418,2,0,L|46:147,1,70,0|0,0:0|0:0,0:0:0:0:
56,59,64824,1,2,0:0:0:0:
146,48,65026,1,0,0:0:0:0:
185,130,65229,1,0,0:0:0:0:
263,83,65432,1,0,0:0:0:0:
312,160,65634,6,0,P|320:208|320:256,1,70,8|0,0:0|0:0,0:0:0:0:
240,264,66040,2,0,P|192:272|152:256,1,70,0|0,0:0|0:0,0:0:0:0:
112,200,66445,1,0,0:0:0:0:
64,128,66648,1,0,0:0:0:0:
104,48,66851,2,0,P|144:80|184:104,1,70,0|0,0:0|0:0,0:0:0:0:
184,176,67256,5,8,0:0:0:0:
264,224,67459,1,0,0:0:0:0:
264,312,67661,2,0,P|304:312|344:328,1,70,0|4,0:0|0:0,0:0:0:0:
448,184,68269,1,0,0:0:0:0:
448,184,68371,1,8,0:3:0:0:
448,184,68472,2,0,P|408:136|400:104,1,70,0|0,0:0|0:0,0:0:0:0:
312,144,68878,6,0,L|240:208,1,70,8|0,0:0|0:0,0:0:0:0:
168,192,69283,1,0,0:0:0:0:
184,280,69486,1,0,0:0:0:0:
184,280,69688,2,0,P|216:296|272:288,1,70,2|0,0:0|0:0,0:0:0:0:
304,224,70094,1,0,0:0:0:0:
392,256,70297,1,0,0:0:0:0:
464,200,70499,6,0,P|448:160|408:128,1,70,8|0,0:0|0:0,0:0:0:0:
344,112,70905,1,0,0:0:0:0:
264,152,71107,1,0,0:0:0:0:
184,112,71310,2,0,P|168:168|184:208,1,70,2|0,0:0|0:0,0:0:0:0:
84,211,71715,1,0,0:0:0:0:
84,211,71918,1,0,0:0:0:0:
120,294,72121,6,0,P|128:342|122:364,1,70,8|0,0:0|0:0,0:0:0:0:
40,321,72526,1,0,0:0:0:0:
62,232,72729,1,0,0:0:0:0:
148,210,72932,2,0,P|180:162|188:130,1,70,2|0,0:0|0:0,0:0:0:0:
117,88,73337,1,0,0:0:0:0:
179,21,73540,1,4,0:0:0:0:
304,168,73945,5,0,0:0:0:0:
304,168,74047,1,8,0:3:0:0:
304,168,74148,2,0,P|296:224|288:240,1,70,0|0,0:0|0:0,0:0:0:0:
216,296,74553,5,2,0:0:0:0:
197,285,74756,1,0,0:0:0:0:
181,270,74959,1,4,0:0:0:0:
149,91,75364,6,0,P|176:115|221:130,1,70,8|0,0:0|0:0,0:0:0:0:
296,168,75769,1,0,0:0:0:0:
352,240,75972,1,0,0:0:0:0:
440,208,76175,2,0,P|456:168|464:120,1,70,2|0,0:0|0:0,0:0:0:0:
375,170,76580,1,0,0:0:0:0:
375,170,76783,1,0,0:0:0:0:
327,92,76986,6,0,P|279:116|255:116,1,70,8|0,0:0|0:0,0:0:0:0:
176,88,77391,1,0,0:0:0:0:
86,103,77594,1,0,0:0:0:0:
64,192,77797,2,0,P|88:232|128:256,1,70,6|0,0:0|0:0,0:0:0:0:
136,328,78202,1,0,0:0:0:0:
208,272,78405,1,0,0:0:0:0:
272,336,78607,6,0,P|295:293|294:244,1,70,8|0,0:0|0:0,0:0:0:0:
377,316,79013,2,0,P|400:273|399:224,1,70,0|0,0:0|0:0,0:0:0:0:
464,192,79418,1,2,0:0:0:0:
400,128,79621,1,0,0:0:0:0:
320,176,79824,2,0,P|272:160|224:160,1,70,0|0,0:0|0:0,0:0:0:0:
184,216,80229,5,8,0:0:0:0:
128,288,80432,1,0,0:0:0:0:
48,240,80634,1,0,0:0:0:0:
48,152,80837,1,4,0:0:0:0:
200,56,81242,1,0,0:0:0:0:
200,56,81344,1,8,0:3:0:0:
200,56,81445,2,0,P|208:88|208:128,1,70,0|0,0:0|0:0,0:0:0:0:
152,200,81851,6,0,P|168:232|224:256,1,70,8|0,0:0|0:0,0:0:0:0:
288,264,82256,1,0,0:0:0:0:
360,208,82459,1,0,0:0:0:0:
360,120,82661,2,0,P|336:96|288:80,1,70,2|0,0:0|0:0,0:0:0:0:
224,128,83067,1,0,0:0:0:0:
136,104,83269,1,0,0:0:0:0:
56,144,83472,6,0,P|56:192|72:240,1,70,8|0,0:0|0:0,0:0:0:0:
136,272,83878,1,0,0:0:0:0:
136,272,84080,2,0,P|192:232|208:208,1,70,0|4,0:0|0:0,0:0:0:0:
160,144,84486,1,0,0:0:0:0:
184,56,84688,1,0,0:0:0:0:
256,112,84891,1,0,0:0:0:0:
296,192,85094,6,0,P|328:248|352:272,1,70,8|0,0:0|0:0,0:0:0:0:
408,296,85499,1,0,0:0:0:0:
448,216,85702,1,4,0:0:0:0:
304,104,86107,5,0,0:0:0:0:
216,120,86310,1,0,0:0:0:0:
272,192,86513,1,4,0:0:0:0:
408,312,86918,5,0,0:0:0:0:
464,240,87121,1,2,0:0:0:0:
432,160,87324,1,0,0:0:0:0:
376,232,87526,1,4,0:0:0:0:
