osu file format v14

[General]
AudioFilename: audio.mp3
AudioLeadIn: 0
PreviewTime: 62290
Countdown: 0
SampleSet: None
StackLeniency: 0.6
Mode: 0
LetterboxInBreaks: 0
WidescreenStoryboard: 0

[Editor]
DistanceSpacing: 1.9
BeatDivisor: 4
GridSize: 16
TimelineZoom: 1.4

[Metadata]
Title:Friend Shitai (TV Size)
TitleUnicode:ふ・れ・ん・ど・し・た・い (TV Size)
Artist:Gakuen Seikatsu-bu
ArtistUnicode:学園生活部
Creator:Terton
Version:Daisuki!
Source:がっこうぐらし!
Tags:gakkou gurashi gakkougurashi school live school-live 水瀬いのり minase inori 高橋李依 takahashi rie 小澤亜李 ozawa ari 市道真央 ichimichi mao m・a・o opening op tv size
BeatmapID:1633306
BeatmapSetID:777450

[Difficulty]
HPDrainRate:6
CircleSize:4
OverallDifficulty:8
ApproachRate:9
SliderMultiplier:1.4
SliderTickRate:1

[Events]
//Background and Video events
0,0,"school-live.jpg",0,0
//Break Periods
//Storyboard Layer 0 (Background)
//Storyboard Layer 1 (Fail)
//Storyboard Layer 2 (Pass)
//Storyboard Layer 3 (Foreground)
//Storyboard Sound Samples

[TimingPoints]
770,405.405405405405,4,1,0,60,1,0
4418,-80,4,1,0,60,0,0
7459,-80,4,2,0,60,0,0
8371,-80,4,1,0,60,0,0
8878,-100,4,1,0,60,0,1
21851,-100,4,3,0,60,0,0
33202,-100,4,1,0,60,0,0
34013,-100,4,3,0,60,0,0
47797,-133.333333333333,4,2,0,60,0,0
56715,-100,4,2,0,60,0,0
62391,-100,4,1,0,60,0,1
73540,-100,4,1,0,60,0,0
75364,-100,4,1,0,60,0,1
87526,-100,4,1,0,60,0,0

[Colours]
Combo1 : 239,10,10
Combo2 : 0,204,102
Combo3 : 0,0,191
Combo4 : 130,255,255

[HitObjects]
75,289,770,6,0,L|75:350,4,35,8|0|0|0|0,0:0|0:0|0:0|0:0|0:0,0:0:0:0:
297,232,1580,6,0,L|296:170,4,35,2|0|0|0|0,0:0|0:0|0:0|0:0|0:0,0:0:0:0:
68,139,2391,6,0,L|68:200,4,35,8|0|0|0|0,0:0|0:0|0:0|0:0|0:0,0:0:0:0:
297,73,3202,6,0,L|296:11,4,35,2|0|0|0|0,0:0|0:0|0:0|0:0|0:0,0:0:0:0:
75,291,4013,5,8,0:0:0:0:
90,321,4114,1,0,0:0:0:0:
118,342,4215,1,0,0:0:0:0:
152,349,4317,1,0,0:0:0:0:
187,353,4418,2,0,P|197:306|157:248,1,87.5,0|0,0:0|2:0,0:0:0:0:
512,196,4824,5,2,0:0:0:0:
492,232,4925,1,0,0:0:0:0:
456,259,5026,1,0,0:0:0:0:
414,267,5128,1,0,0:0:0:0:
372,265,5229,2,0,P|362:218|402:160,1,87.5,0|0,0:0|2:0,0:0:0:0:
13,94,5634,5,8,0:0:0:0:
37,140,5735,1,0,0:0:0:0:
81,173,5836,1,0,0:0:0:0:
134,184,5938,1,0,0:0:0:0:
186,190,6039,2,0,P|196:143|156:85,1,87.5,0|0,0:0|2:0,0:0:0:0:
512,7,6445,5,2,0:0:0:0:
482,61,6546,1,0,0:0:0:0:
430,100,6647,1,0,0:0:0:0:
369,113,6749,1,0,0:0:0:0:
308,110,6850,2,0,P|298:63|338:5,1,87.5,0|0,0:0|2:0,0:0:0:0:
136,272,7459,5,0,0:0:0:0:
328,208,7661,1,0,0:0:0:0:
88,112,7864,1,0,0:0:0:0:
248,120,8067,1,2,0:0:0:0:
246,127,8472,1,0,0:0:0:0:
304,272,8878,6,0,P|352:256|384:232,1,70,8|0,0:0|0:0,0:0:0:0:
400,128,9283,1,0,0:0:0:0:
280,160,9486,2,0,P|278:113|294:73,1,70
456,32,9891,1,0,0:0:0:0:
456,32,10094,1,0,0:0:0:0:
280,160,10297,1,0,0:0:0:0:
327,341,10499,5,8,0:0:0:0:
446,214,10702,1,0,0:0:0:0:
199,261,10905,2,0,P|183:221|191:165,1,70,0|0,0:0|0:0,0:0:0:0:
263,25,11310,2,0,P|287:97|279:161,1,140,2|0,0:0|0:0,0:0:0:0:
199,261,11918,1,0,0:0:0:0:
32,216,12121,5,8,0:0:0:0:
32,216,12324,1,0,0:0:0:0:
26,38,12526,1,0,0:0:0:0:
117,78,12729,2,0,P|151:104|175:143,1,70
264,63,13134,1,0,0:0:0:0:
144,280,13337,1,0,0:0:0:0:
144,280,13540,1,0,0:0:0:0:
32,216,13742,5,8,0:0:0:0:
276,284,13945,1,0,0:0:0:0:
207,361,14148,1,0,0:0:0:0:
181,194,14351,2,0,P|181:138|253:58,1,140,4|0,0:0|0:0,0:0:0:0:
280,40,14857,1,8,0:3:0:0:
280,40,14959,1,0,0:0:0:0:
344,144,15161,5,0,0:0:0:0:
344,144,15263,1,8,0:3:0:0:
344,144,15364,2,0,P|312:192|280:216,1,70,8|0,0:0|0:0,0:0:0:0:
280,288,15769,1,0,0:0:0:0:
144,248,15972,2,0,P|129:207|139:158,1,70
146,40,16378,1,0,0:0:0:0:
280,40,16581,1,0,0:0:0:0:
304,256,16783,1,0,0:0:0:0:
448,176,16986,5,8,0:0:0:0:
216,128,17188,1,0,0:0:0:0:
400,40,17391,1,0,0:0:0:0:
304,256,17594,1,0,0:0:0:0:
73,164,17797,1,2,0:0:0:0:
272,72,17999,1,0,0:0:0:0:
272,72,18101,1,0,0:0:0:0:
272,72,18202,1,0,0:0:0:0:
392,112,18405,1,0,0:0:0:0:
373,292,18607,6,0,L|379:385,1,70,8|0,0:0|0:0,0:0:0:0:
272,72,19013,1,0,0:0:0:0:
199,251,19215,1,4,0:0:0:0:
199,251,19621,1,0,0:0:0:0:
309,336,19824,1,0,0:0:0:0:
201,125,20026,1,0,0:0:0:0:
201,125,20432,5,0,0:0:0:0:
62,42,20634,1,0,0:0:0:0:
224,33,20837,1,0,0:0:0:0:
0,129,21040,1,4,0:0:0:0:
344,48,21851,6,0,P|368:96|368:128,1,70,8|0,0:0|0:0,0:0:0:0:
401,268,22256,1,0,0:0:0:0:
288,248,22459,2,0,P|264:208|264:176,1,70,0|2,0:0|0:0,0:0:0:0:
411,0,22864,1,0,0:0:0:0:
276,6,23067,1,0,0:0:0:0:
478,111,23269,1,0,0:0:0:0:
401,268,23472,5,8,0:0:0:0:
56,96,23878,1,0,0:0:0:0:
384,240,24283,2,0,P|288:208|248:168,1,140,2|0,0:0|0:0,0:0:0:0:
56,96,25094,5,8,0:0:0:0:
23,215,25297,1,0,0:0:0:0:
128,272,25499,1,0,0:0:0:0:
197,101,25702,2,0,P|204:66|208:31,1,70,0|2,0:0|0:0,0:0:0:0:
249,221,26107,1,0,0:0:0:0:
56,96,26310,1,0,0:0:0:0:
144,240,26513,1,0,0:0:0:0:
197,101,26715,6,0,P|240:148|239:252,1,140,8|0,0:0|0:0,0:0:0:0:
196,325,27324,1,0,0:0:0:0:
158,190,27526,1,2,0:0:0:0:
56,272,27729,1,0,0:0:0:0:
56,272,27830,1,8,0:3:0:0:
56,272,27932,2,0,P|24:224|24:184,1,70,0|0,0:0|0:0,0:0:0:0:
184,48,28337,5,8,0:0:0:0:
112,108,28540,1,0,0:0:0:0:
158,190,28742,1,0,0:0:0:0:
344,129,28945,2,0,P|368:102|383:52,1,70,0|2,0:0|0:0,0:0:0:0:
305,265,29351,1,0,0:0:0:0:
184,48,29553,1,0,0:0:0:0:
99,35,29756,1,0,0:0:0:0:
72,120,29959,6,0,P|104:160|152:176,1,70,8|0,0:0|0:0,0:0:0:0:
320,48,30364,1,0,0:0:0:0:
60,252,30769,1,2,0:0:0:0:
456,176,31175,1,0,0:0:0:0:
112,208,31580,6,0,P|62:249|52:283,2,70,8|0|0,0:0|0:0|0:0,0:0:0:0:
255,274,32188,2,0,L|256:364,1,70,0|2,0:0|0:0,0:0:0:0:
260,141,32594,1,0,0:0:0:0:
192,71,32797,1,0,0:0:0:0:
104,104,32999,1,0,0:0:0:0:
256,344,33202,5,8,0:0:0:0:
305,66,33607,1,0,0:0:0:0:
392,336,34013,1,4,0:1:0:0:
80,32,34824,6,0,L|96:112,1,70,8|0,0:0|0:0,0:0:0:0:
216,128,35229,2,0,L|208:208,1,70,0|0,0:0|0:0,0:0:0:0:
128,304,35634,1,2,0:0:0:0:
312,338,35837,1,0,0:0:0:0:
312,338,35938,1,8,0:3:0:0:
312,338,36040,2,0,L|358:261,1,70,0|0,0:0|0:0,0:0:0:0:
192,160,36445,6,0,P|168:104|176:64,1,70,8|0,0:0|0:0,0:0:0:0:
280,248,36851,2,0,P|296:208|288:168,1,70,0|0,0:0|0:0,0:0:0:0:
92,167,37256,1,2,0:0:0:0:
264,64,37459,1,0,0:0:0:0:
264,64,37560,1,8,0:0:0:0:
264,64,37661,2,0,P|280:112|272:136,1,70,0|0,0:0|0:0,0:0:0:0:
88,264,38067,6,0,P|128:304|160:304,1,70,8|0,0:0|0:0,0:0:0:0:
280,320,38472,1,0,0:0:0:0:
248,168,38675,1,0,0:0:0:0:
248,168,38776,1,8,0:0:0:0:
248,168,38878,2,0,P|216:136|176:128,1,70,2|0,0:0|0:0,0:0:0:0:
40,168,39283,2,0,L|64:248,1,70
130,324,39688,5,8,0:0:0:0:
210,235,39891,1,0,0:0:0:0:
130,170,40094,1,8,0:0:0:0:
210,81,40297,1,0,0:0:0:0:
210,235,40499,1,2,0:0:0:0:
352,81,40702,1,0,0:0:0:0:
352,235,40905,1,0,0:0:0:0:
210,81,41107,1,0,0:0:0:0:
352,81,41310,5,8,0:0:0:0:
512,147,41513,2,0,L|448:227,1,70,0|0,0:0|0:0,0:0:0:0:
227,239,41918,1,0,0:0:0:0:
227,239,42019,1,8,0:0:0:0:
227,239,42121,1,2,0:0:0:0:
440,264,42324,2,0,L|384:208,1,70,0|0,0:0|0:0,0:0:0:0:
330,71,42729,1,0,0:0:0:0:
216,328,42932,6,0,L|272:280,1,70,8|0,0:0|0:0,0:0:0:0:
392,216,43337,1,0,0:0:0:0:
248,168,43540,1,0,0:0:0:0:
248,168,43641,1,8,0:3:0:0:
248,168,43742,2,0,P|200:208|192:224,1,70,2|0,0:0|0:0,0:0:0:0:
158,352,44148,1,0,0:0:0:0:
360,256,44351,5,0,0:0:0:0:
371,253,44452,1,8,0:0:0:0:
384,249,44553,1,8,0:0:0:0:
479,221,44756,1,0,0:0:0:0:
361,133,44959,1,0,0:0:0:0:
300,301,45161,1,0,0:0:0:0:
479,221,45364,2,0,P|442:174|411:165,1,70,2|0,0:0|0:0,0:0:0:0:
247,102,45769,1,0,0:0:0:0:
132,273,45972,1,0,0:0:0:0:
348,202,46175,5,8,0:0:0:0:
159,149,46378,1,0,0:0:0:0:
196,318,46580,1,0,0:0:0:0:
256,71,46783,1,4,0:0:0:0:
47,258,47797,6,0,P|81:251|119:189,1,105.000004005432,8|0,0:0|0:0,0:0:0:0:
214,77,48405,1,0,0:0:0:0:
214,77,48607,2,0,P|257:82|301:144,1,105.000004005432,2|0,0:0|0:0,0:0:0:0:
159,233,49418,6,0,P|152:301|168:347,1,105.000004005432,8|0,0:0|0:0,0:0:0:0:
301,280,50026,1,0,0:0:0:0:
301,280,50229,2,0,P|339:236|350:169,1,105.000004005432,2|0,0:0|0:0,0:0:0:0:
454,338,51040,6,0,P|481:300|495:237,1,105.000004005432,8|0,0:0|0:0,0:0:0:0:
389,195,51648,1,0,0:0:0:0:
389,195,51851,2,0,P|371:146|381:72,1,105.000004005432,2|0,0:0|0:0,0:0:0:0:
211,64,52661,6,0,P|190:121|143:147,1,105.000004005432,8|0,0:0|0:0,0:0:0:0:
184,274,53269,1,0,0:0:0:0:
184,274,53472,2,0,L|243:297,1,52.5000020027161,2|0,0:0|0:0,0:0:0:0:
478,343,53878,1,0,0:0:0:0:
373,49,54283,5,4,0:0:0:0:
235,144,54486,1,0,0:0:0:0:
373,49,54688,1,0,0:0:0:0:
235,144,54891,1,0,0:0:0:0:
471,64,55094,1,2,0:0:0:0:
453,237,55499,5,4,0:0:0:0:
310,141,55702,1,0,0:0:0:0:
453,237,55905,1,8,0:0:0:0:
310,141,56107,1,0,0:0:0:0:
447,325,56310,1,0,0:0:0:0:
254,283,56715,6,0,L|162:272,1,70,2|0,0:0|0:0,0:0:0:0:
375,207,57121,2,0,P|319:198|276:196,1,70,0|0,0:0|0:0,0:0:0:0:
226,0,57526,5,8,3:0:0:0:
205,27,57627,1,0,3:0:0:0:
197,61,57729,1,0,3:0:0:0:
204,95,57830,1,0,3:0:0:0:
225,123,57931,1,4,3:0:0:0:
101,99,58337,5,10,3:0:0:0:
126,123,58438,1,0,3:0:0:0:
158,135,58539,1,0,3:0:0:0:
193,135,58641,1,0,3:0:0:0:
225,121,58742,1,4,3:0:0:0:
256,241,59148,5,8,3:0:0:0:
268,208,59249,1,0,3:0:0:0:
266,173,59350,1,0,3:0:0:0:
251,142,59452,1,0,3:0:0:0:
224,120,59553,1,4,3:0:0:0:
342,75,59959,5,10,3:0:0:0:
307,67,60060,1,0,3:0:0:0:
273,73,60161,1,0,3:0:0:0:
244,92,60263,1,0,3:0:0:0:
223,120,60364,1,4,3:0:0:0:
178,299,60972,5,0,0:0:0:0:
223,120,61175,1,0,0:0:0:0:
98,225,61378,1,0,0:0:0:0:
382,154,61580,1,2,0:0:0:0:
25,150,61986,1,4,1:0:0:0:
25,150,62391,6,0,P|29:213|46:246,1,70,8|0,0:0|0:0,0:0:0:0:
179,351,62797,1,0,0:0:0:0:
179,351,62999,2,0,P|187:281|185:254,1,70,0|2,0:0|0:0,0:0:0:0:
123,141,63405,1,0,0:0:0:0:
123,141,63607,2,0,P|111:93|115:45,1,70,0|0,0:0|0:0,0:0:0:0:
278,25,64013,5,0,0:0:0:0:
242,205,64215,1,0,0:0:0:0:
382,126,64418,1,0,0:0:0:0:
195,0,64621,1,0,0:0:0:0:
96,207,64824,2,0,L|68:295,1,70,2|0,0:0|0:0,0:0:0:0:
43,357,65229,1,0,0:0:0:0:
20,135,65432,1,0,0:0:0:0:
156,238,65634,6,0,P|120:229|94:204,1,70,8|0,0:0|0:0,0:0:0:0:
20,135,66040,1,0,0:0:0:0:
120,26,66242,2,0,P|136:66|140:112,1,70
211,46,66648,1,0,0:0:0:0:
101,262,66851,1,0,0:0:0:0:
20,135,67053,1,0,0:0:0:0:
208,92,67256,5,8,0:0:0:0:
261,205,67459,1,0,0:0:0:0:
81,74,67661,1,0,0:0:0:0:
270,0,67864,1,4,0:0:0:0:
321,328,68269,1,0,0:0:0:0:
321,328,68371,1,8,0:3:0:0:
321,328,68472,2,0,P|271:317|233:295,1,70,0|0,0:0|0:0,0:0:0:0:
91,205,68878,6,0,P|128:192|162:184,1,70,8|0,0:0|0:0,0:0:0:0:
333,209,69283,1,0,0:0:0:0:
270,0,69486,2,0,P|266:54|260:69,1,70,0|2,0:0|0:0,0:0:0:0:
88,274,69891,1,0,0:0:0:0:
233,191,70094,1,0,0:0:0:0:
181,333,70297,1,0,0:0:0:0:
111,112,70499,5,8,0:0:0:0:
315,32,70702,1,0,0:0:0:0:
393,164,70905,2,0,P|368:208|324:231,1,70,0|0,0:0|0:0,0:0:0:0:
222,28,71310,1,2,0:0:0:0:
423,73,71513,1,0,0:0:0:0:
423,73,71614,1,8,0:3:0:0:
423,73,71715,2,0,P|436:116|442:152,1,70,0|0,0:0|0:0,0:0:0:0:
278,360,72121,6,0,P|268:326|265:276,1,70,8|0,0:0|0:0,0:0:0:0:
408,301,72526,1,0,0:0:0:0:
350,146,72729,2,0,P|321:83|300:65,1,70,0|2,0:0|0:0,0:0:0:0:
222,28,73134,1,0,0:0:0:0:
186,184,73337,1,0,0:0:0:0:
0,60,73540,1,4,0:0:0:0:
311,243,73945,5,0,0:0:0:0:
317,192,74047,1,8,0:3:0:0:
322,145,74148,1,0,0:0:0:0:
255,43,74351,1,0,0:0:0:0:
156,100,74553,1,2,0:0:0:0:
307,287,74756,1,0,0:0:0:0:
414,88,74959,1,4,0:0:0:0:
191,40,75364,6,0,P|168:76|156:103,1,70,8|0,0:0|0:0,0:0:0:0:
110,210,75769,1,0,0:0:0:0:
205,364,75972,2,0,P|210:322|209:292,1,70,0|2,0:0|0:0,0:0:0:0:
256,178,76378,1,0,0:0:0:0:
59,296,76580,1,0,0:0:0:0:
205,364,76783,1,0,0:0:0:0:
0,228,76986,5,8,0:0:0:0:
65,74,77188,1,0,0:0:0:0:
208,92,77391,2,0,P|230:142|237:173,1,70,0|0,0:0|0:0,0:0:0:0:
157,326,77797,2,0,P|144:272|150:238,1,70,6|0,0:0|0:0,0:0:0:0:
238,366,78202,1,0,0:0:0:0:
208,92,78405,1,0,0:0:0:0:
103,226,78607,5,8,0:0:0:0:
373,273,78809,1,0,0:0:0:0:
157,326,79013,1,0,0:0:0:0:
318,205,79215,2,0,P|340:179|398:153,1,70
208,92,79621,1,0,0:0:0:0:
153,315,79824,1,0,0:0:0:0:
46,254,80026,1,0,0:0:0:0:
259,198,80229,5,8,0:0:0:0:
291,311,80432,1,0,0:0:0:0:
116,178,80634,1,0,0:0:0:0:
305,32,80837,1,4,0:0:0:0:
452,276,81242,1,0,0:0:0:0:
452,276,81344,1,8,0:3:0:0:
452,276,81445,2,0,P|496:245|514:214,1,70,0|0,0:0|0:0,0:0:0:0:
256,247,81851,5,8,0:0:0:0:
328,161,82053,1,0,0:0:0:0:
269,72,82256,1,0,0:0:0:0:
167,195,82459,2,0,P|149:259|153:275,1,70,0|2,0:0|0:0,0:0:0:0:
3,358,82864,1,0,0:0:0:0:
3,358,83067,2,0,P|35:326|49:288,1,70,0|0,0:0|0:0,0:0:0:0:
29,110,83472,5,8,0:0:0:0:
206,104,83675,1,0,0:0:0:0:
277,250,83878,1,0,0:0:0:0:
411,340,84080,1,0,0:0:0:0:
408,67,84283,1,4,0:0:0:0:
206,104,84486,2,0,P|160:164|153:184,1,70
191,263,84891,1,0,0:0:0:0:
368,339,85094,5,8,0:0:0:0:
451,161,85297,2,0,P|401:175|376:193,1,70,0|0,0:0|0:0,0:0:0:0:
279,303,85702,1,4,0:0:0:0:
299,13,86107,1,0,0:0:0:0:
376,106,86310,1,0,0:0:0:0:
162,152,86513,1,4,0:0:0:0:
379,21,86918,21,0,0:0:0:0:
317,211,87121,1,2,0:0:0:0:
236,110,87324,1,0,0:0:0:0:
510,257,87526,1,4,0:0:0:0:
