osu file format v14

[General]
AudioFilename: audio.mp3
AudioLeadIn: 0
PreviewTime: 62290
Countdown: 0
SampleSet: Normal
StackLeniency: 0.7
Mode: 0
LetterboxInBreaks: 0
WidescreenStoryboard: 0

[Editor]
DistanceSpacing: 1.5
BeatDivisor: 4
GridSize: 16
TimelineZoom: 1.4

[Metadata]
Title:Friend Shitai (TV Size)
TitleUnicode:ふ・れ・ん・ど・し・た・い (TV Size)
Artist:Gakuen Seikatsu-bu
ArtistUnicode:学園生活部
Creator:Terton
Version:Advanced
Source:がっこうぐらし!
Tags:gakkou gurashi gakkougurashi school live school-live 水瀬いのり minase inori 高橋李依 takahashi rie 小澤亜李 ozawa ari 市道真央 ichimichi mao m・a・o opening op tv size
BeatmapID:1849948
BeatmapSetID:777450

[Difficulty]
HPDrainRate:5
CircleSize:3
OverallDifficulty:5
ApproachRate:6
SliderMultiplier:1.4
SliderTickRate:1

[Events]
//Background and Video events
0,0,"school-live.jpg",0,0
//Break Periods
//Storyboard Layer 0 (Background)
//Storyboard Layer 1 (Fail)
//Storyboard Layer 2 (Pass)
//Storyboard Layer 3 (Foreground)
//Storyboard Sound Samples

[TimingPoints]
770,405.405405405405,4,1,0,60,1,0
4418,-100,4,1,0,60,0,0
7459,-100,4,2,0,60,0,0
8371,-100,4,1,0,60,0,0
8878,-100,4,1,0,60,0,1
21851,-100,4,3,0,60,0,0
33202,-100,4,1,0,60,0,0
34013,-100,4,3,0,60,0,0
47797,-100,4,2,0,60,0,0
56715,-100,4,2,0,60,0,0
62391,-100,4,1,0,60,0,1
73540,-100,4,1,0,60,0,0
75364,-100,4,1,0,60,0,1
87526,-100,4,1,0,60,0,0

[Colours]
Combo1 : 239,10,10
Combo2 : 0,204,102
Combo3 : 0,0,191
Combo4 : 130,255,255

[HitObjects]
56,91,770,6,0,L|140:95,1,70,8|0,0:0|0:0,0:0:0:0:
185,181,1175,1,0,0:0:0:0:
349,50,1580,2,0,P|271:50|220:91,1,140,2|0,0:0|0:0,0:0:0:0:
344,258,2391,2,0,L|251:269,1,70,8|0,0:0|0:0,0:0:0:0:
212,351,2797,1,0,0:0:0:0:
50,217,3202,2,0,P|128:217|179:258,1,140,2|0,0:0|0:0,0:0:0:0:
385,254,4013,6,0,P|428:214|431:135,1,140,8|0,0:0|0:0,0:0:0:0:
221,149,4824,2,0,P|178:109|175:30,1,140,2|0,0:0|0:0,0:0:0:0:
385,18,5634,2,0,P|428:58|431:137,1,140,8|0,0:0|0:0,0:0:0:0:
221,149,6445,2,0,P|178:189|175:268,1,140,2|0,0:0|0:0,0:0:0:0:
345,323,8472,5,0,0:0:0:0:
345,323,8878,2,0,L|437:309,1,70,8|0,0:0|0:0,0:0:0:0:
475,226,9283,1,0,0:0:0:0:
392,160,9486,1,0,0:0:0:0:
312,227,9688,2,0,P|290:177|320:84,1,140,0|0,0:0|0:0,0:0:0:0:
103,50,10499,2,0,L|14:44,2,70,8|0|0,0:0|0:0|0:0,0:0:0:0:
194,101,11107,1,0,0:0:0:0:
111,165,11310,2,0,P|54:179|28:273,1,140,2|0,0:0|0:0,0:0:0:0:
91,327,11918,1,0,0:0:0:0:
169,258,12121,6,0,L|256:258,1,70,8|0,0:0|0:0,0:0:0:0:
289,350,12526,1,0,0:0:0:0:
355,268,12729,2,0,P|356:212|290:149,1,140
198,134,13337,1,0,0:0:0:0:
124,209,13540,1,0,0:0:0:0:
64,123,13742,2,0,L|129:80,1,70,8|0,0:0|0:0,0:0:0:0:
209,24,14148,1,0,0:0:0:0:
314,24,14351,1,4,0:0:0:0:
443,189,14756,6,0,L|507:192,2,35,0|8|0,0:0|0:3|0:0,0:0:0:0:
355,246,15161,2,0,L|291:249,2,35,0|8|8,0:0|0:3|0:0,0:0:0:0:
437,311,15567,1,0,0:0:0:0:
342,356,15769,1,0,0:0:0:0:
242,321,15972,2,0,P|178:346|114:316,1,140
27,261,16580,1,0,0:0:0:0:
36,156,16783,1,0,0:0:0:0:
141,162,16986,6,0,P|167:136|206:114,1,70,8|0,0:0|0:0,0:0:0:0:
251,207,17391,1,0,0:0:0:0:
342,155,17594,1,0,0:0:0:0:
383,251,17797,2,0,P|445:226|486:158,1,140,2|0,0:0|0:0,0:0:0:0:
422,81,18405,1,0,0:0:0:0:
348,6,18607,6,0,L|262:11,1,70,8|0,0:0|0:0,0:0:0:0:
184,59,19013,1,0,0:0:0:0:
242,145,19215,2,0,P|278:145|324:140,1,70,4|0,0:0|0:0,0:0:0:0:
385,218,19621,1,0,0:0:0:0:
326,305,19824,1,0,0:0:0:0:
247,236,20026,1,0,0:0:0:0:
41,315,20432,2,0,L|128:319,1,70,0|0,0:0|0:0,0:0:0:0:
86,215,20837,1,0,0:0:0:0:
169,150,21040,1,4,0:0:0:0:
487,224,21851,6,0,L|394:227,1,70,8|0,0:0|0:0,0:0:0:0:
343,151,22256,1,0,0:0:0:0:
308,250,22459,1,0,0:0:0:0:
154,106,22864,2,0,L|247:109,1,70,0|0,0:0|0:0,0:0:0:0:
298,34,23269,1,0,0:0:0:0:
333,132,23472,1,8,0:0:0:0:
171,266,23878,2,0,P|237:321|297:302,1,140,0|2,0:0|0:0,0:0:0:0:
389,316,24486,1,0,0:0:0:0:
335,226,24688,1,0,0:0:0:0:
128,184,25094,6,0,L|41:187,1,70,8|0,0:0|0:0,0:0:0:0:
10,92,25499,1,0,0:0:0:0:
88,22,25702,2,0,L|186:19,1,70,0|2,0:0|0:0,0:0:0:0:
242,82,26107,2,0,L|332:90,2,70,0|0|0,0:0|0:0|0:0,0:0:0:0:
196,176,26715,1,8,0:0:0:0:
492,283,27324,2,0,L|410:319,1,70,0|2,0:0|0:0,0:0:0:0:
330,271,27729,2,0,L|279:272,2,35,0|8|0,0:0|0:3|0:0,0:0:0:0:
493,139,28337,6,0,P|499:103|485:62,1,70,8|0,0:0|0:0,0:0:0:0:
391,108,28742,1,0,0:0:0:0:
317,32,28945,2,0,P|271:33|225:32,1,70,0|2,0:0|0:0,0:0:0:0:
173,108,29351,1,0,0:0:0:0:
68,108,29553,2,0,L|86:197,1,70,0|0,0:0|0:0,0:0:0:0:
107,279,29959,1,8,0:0:0:0:
313,242,30364,2,0,P|349:297|360:374,1,140,0|2,0:0|0:0,0:0:0:0:
256,354,30972,1,0,0:0:0:0:
197,266,31175,1,0,0:0:0:0:
307,87,31580,6,0,L|387:88,1,70,8|0,0:0|0:0,0:0:0:0:
441,171,31986,1,0,0:0:0:0:
496,82,32188,1,0,0:0:0:0:
285,88,32594,2,0,L|195:89,2,70,0|0|0,0:0|0:0|0:0,0:0:0:0:
347,172,33202,1,8,0:0:0:0:
224,342,33607,1,0,0:0:0:0:
90,182,34013,1,4,0:1:0:0:
489,50,34824,6,0,L|398:54,1,70,8|0,0:0|0:0,0:0:0:0:
360,140,35229,2,0,P|313:108|234:128,2,140,0|2|0,0:0|0:0|0:0,0:0:0:0:
445,201,36242,1,0,0:0:0:0:
468,303,36445,2,0,P|453:336|404:363,1,70,8|0,0:0|0:0,0:0:0:0:
327,321,36851,2,0,P|266:340|206:290,2,140,0|2|0,0:0|0:0|0:0,0:0:0:0:
405,251,37864,1,0,0:0:0:0:
445,154,38067,6,0,L|448:75,1,70,8|0,0:0|0:0,0:0:0:0:
356,32,38472,2,0,L|213:28,2,140,0|2|0,0:0|0:0|0:0,0:0:0:0:
236,205,39688,2,0,L|150:203,1,70,8|0,0:0|0:0,0:0:0:0:
70,145,40094,1,4,0:0:0:0:
158,88,40297,1,0,0:0:0:0:
257,120,40499,2,0,L|347:122,1,70,2|0,0:0|0:0,0:0:0:0:
384,209,40905,1,0,0:0:0:0:
311,284,41107,1,0,0:0:0:0:
215,239,41310,6,0,P|217:281|202:325,1,70,8|0,0:0|0:0,0:0:0:0:
107,284,41715,2,0,P|89:204|37:151,2,140,0|2|0,0:0|0:0|0:0,0:0:0:0:
154,378,42729,1,0,0:0:0:0:
252,342,42932,2,0,P|270:262|322:209,2,140,8|0|2,0:0|0:0|0:0,0:0:0:0:
154,378,43945,1,0,0:0:0:0:
48,379,44148,1,0,0:0:0:0:
10,280,44351,1,0,0:0:0:0:
69,193,44553,6,0,L|208:192,1,140,8|0,0:0|0:0,0:0:0:0:
259,99,45161,1,0,0:0:0:0:
305,193,45364,2,0,P|340:165|356:65,1,140,2|0,0:0|0:0,0:0:0:0:
272,16,45972,1,0,0:0:0:0:
177,61,46175,1,8,0:0:0:0:
404,279,46783,1,4,0:0:0:0:
475,41,47797,6,0,P|401:35|332:68,1,140,8|0,0:0|0:0,0:0:0:0:
267,134,48405,1,0,0:0:0:0:
195,210,48607,2,0,P|269:204|338:237,1,140,2|0,0:0|0:0,0:0:0:0:
496,355,49418,2,0,P|500:267|486:211,1,140,8|0,0:0|0:0,0:0:0:0:
456,116,50026,1,0,0:0:0:0:
370,54,50229,2,0,P|366:142|380:198,1,140,2|0,0:0|0:0,0:0:0:0:
230,342,51040,6,0,P|159:352|91:334,1,140,8|0,0:0|0:0,0:0:0:0:
116,232,51648,1,0,0:0:0:0:
142,130,51851,2,0,P|231:85|271:31,1,140,2|0,0:0|0:0,0:0:0:0:
367,233,52661,2,0,P|417:281|481:307,1,140,8|0,0:0|0:0,0:0:0:0:
488,202,53269,1,0,0:0:0:0:
413,127,53472,2,0,P|362:78|298:52,1,140,2|0,0:0|0:0,0:0:0:0:
121,165,54283,6,0,L|120:261,1,70,4|0,0:0|0:0,0:0:0:0:
219,268,54688,2,0,L|218:364,1,70,0|0,0:0|0:0,0:0:0:0:
317,374,55094,1,2,0:0:0:0:
503,278,55499,2,0,L|504:182,1,70,4|0,0:0|0:0,0:0:0:0:
405,175,55904,2,0,L|406:79,1,70,8|0,0:0|0:0,0:0:0:0:
307,69,56310,1,0,0:0:0:0:
97,81,56715,2,0,P|77:153|95:217,1,140,2|0,0:0|0:0,0:0:0:0:
303,205,57526,6,0,P|323:277|305:341,1,140,8|4,3:0|3:0,0:0:0:0:
97,347,58337,2,0,P|77:275|95:211,1,140,10|4,3:0|3:0,0:0:0:0:
303,205,59148,2,0,P|323:133|305:69,1,140,8|4,3:0|3:0,0:0:0:0:
97,81,59959,2,0,P|80:148|100:214,1,140,10|4,3:0|3:0,0:0:0:0:
369,352,61986,5,0,0:0:0:0:
369,352,62391,2,0,L|452:353,1,70,8|0,0:0|0:0,0:0:0:0:
488,259,62797,1,0,0:0:0:0:
414,185,62999,2,0,P|450:135|429:55,1,140
332,84,63607,1,0,0:0:0:0:
299,184,63810,1,0,0:0:0:0:
236,99,64013,6,0,L|150:98,1,70,8|0,0:0|0:0,0:0:0:0:
92,173,64418,1,0,0:0:0:0:
159,253,64621,1,0,0:0:0:0:
264,248,64824,2,0,P|254:302|188:356,1,140,2|0,0:0|0:0,0:0:0:0:
92,318,65432,1,0,0:0:0:0:
10,252,65634,6,0,L|11:157,1,70,8|0,0:0|0:0,0:0:0:0:
48,83,66040,1,0,0:0:0:0:
137,29,66242,2,0,P|181:68|266:80,1,140
354,126,66851,1,0,0:0:0:0:
453,92,67053,1,0,0:0:0:0:
453,197,67256,2,0,L|452:291,1,70,8|0,0:0|0:0,0:0:0:0:
390,352,67661,1,0,0:0:0:0:
330,265,67864,2,0,P|322:202|247:142,1,140,4|0,0:0|0:0,0:0:0:0:
195,224,68472,2,0,L|124:214,1,70,0|0,0:0|0:0,0:0:0:0:
72,123,68878,6,0,L|141:131,1,70,8|0,0:0|0:0,0:0:0:0:
210,52,69283,1,0,0:0:0:0:
315,52,69486,2,0,P|391:53|441:92,1,140
428,195,70094,1,0,0:0:0:0:
494,277,70297,1,0,0:0:0:0:
428,358,70499,2,0,L|338:355,1,70,8|0,0:0|0:0,0:0:0:0:
252,352,70905,1,0,0:0:0:0:
147,352,71107,1,0,0:0:0:0:
41,352,71310,2,0,P|54:296|150:246,1,140,2|0,0:0|0:0,0:0:0:0:
222,247,71918,1,0,0:0:0:0:
327,247,72121,6,0,L|401:247,1,70,8|0,0:0|0:0,0:0:0:0:
481,184,72526,1,0,0:0:0:0:
408,107,72729,2,0,P|360:57|287:51,1,140
187,58,73337,1,0,0:0:0:0:
141,153,73540,1,4,0:0:0:0:
31,331,73945,2,0,L|114:338,1,70,0|0,0:0|0:0,0:0:0:0:
222,165,74553,1,2,0:0:0:0:
222,270,74756,1,0,0:0:0:0:
222,375,74959,1,4,0:0:0:0:
403,270,75364,6,0,L|492:271,1,70,8|0,0:0|0:0,0:0:0:0:
503,170,75769,1,0,0:0:0:0:
481,67,75972,2,0,P|431:27|347:30,1,140
263,71,76580,1,0,0:0:0:0:
176,12,76783,1,0,0:0:0:0:
92,76,76986,2,0,L|92:160,1,70,8|0,0:0|0:0,0:0:0:0:
156,228,77391,1,0,0:0:0:0:
156,333,77594,1,0,0:0:0:0:
261,333,77797,2,0,P|293:300|308:198,1,140,6|0,0:0|0:0,0:0:0:0:
308,105,78405,1,0,0:0:0:0:
401,57,78607,6,0,P|447:108|457:179,1,140,8|0,0:0|0:0,0:0:0:0:
404,267,79215,1,0,0:0:0:0:
310,210,79418,2,0,L|220:210,1,70,2|0,0:0|0:0,0:0:0:0:
155,273,79824,2,0,P|128:270|93:224,1,70,0|0,0:0|0:0,0:0:0:0:
74,139,80229,1,8,0:0:0:0:
175,111,80432,1,0,0:0:0:0:
276,139,80634,1,0,0:0:0:0:
377,111,80837,1,4,0:0:0:0:
414,317,81242,2,0,P|451:324|489:359,2,70,0|0|0,0:0|0:0|0:0,0:0:0:0:
310,335,81851,6,0,P|237:353|169:325,1,140,8|0,0:0|0:0,0:0:0:0:
73,316,82459,1,0,0:0:0:0:
140,235,82661,2,0,L|156:139,1,70,2|0,0:0|0:0,0:0:0:0:
90,79,83067,2,0,P|103:58|143:35,1,70,0|0,0:0|0:0,0:0:0:0:
240,70,83472,2,0,P|282:45|370:50,1,140,8|0,0:0|0:0,0:0:0:0:
463,99,84080,1,0,0:0:0:0:
376,158,84283,2,0,L|378:249,1,70,4|0,0:0|0:0,0:0:0:0:
477,260,84688,2,0,P|467:309|445:335,1,70,0|0,0:0|0:0,0:0:0:0:
352,345,85094,6,0,P|301:319|259:235,1,140,8|0,0:0|0:0,0:0:0:0:
224,150,85702,2,0,P|185:101|83:101,1,140,4|0,0:0|0:0,0:0:0:0:
36,162,86310,1,0,0:0:0:0:
36,267,86513,1,4,0:0:0:0:
225,357,86918,2,0,P|244:348|285:305,1,70,0|2,0:0|0:0,0:0:0:0:
310,213,87324,1,0,0:0:0:0:
227,148,87526,1,4,0:0:0:0:
