osu file format v14

[General]
AudioFilename: friend shitai.mp3
AudioLeadIn: 0
PreviewTime: 62083
Countdown: 0
SampleSet: Soft
StackLeniency: 0.7
Mode: 0
LetterboxInBreaks: 0
WidescreenStoryboard: 0

[Editor]
DistanceSpacing: 1.1
BeatDivisor: 4
GridSize: 4
TimelineZoom: 1.3

[Metadata]
Title:Friend Shitai
TitleUnicode:ふ・れ・ん・ど・し・た・い
Artist:Gakuen Seikatsu-bu
ArtistUnicode:学園生活部
Creator:Doormat
Version:Normal
Source:がっこうぐらし!
Tags:CloudSplash16 Little gakkou gurashi school live school-live op opening full size living club takeya yuki 丈槍由紀 minase inori 水瀬いのり ebisuzawa kurumi 恵飛須沢胡桃 ozawa ari 小澤亜李 wakasa yuuri 若狭悠里 ichimichi mao M·A·O 市道真央 naoki miki 直樹美紀 takahashi rie 高橋李依
BeatmapID:808028
BeatmapSetID:368566

[Difficulty]
HPDrainRate:4
CircleSize:3.2
OverallDifficulty:4
ApproachRate:5
SliderMultiplier:1.1
SliderTickRate:1

[Events]
//Background and Video events
0,0,"gakkou_background2.jpg",0,0
//Break Periods
2,154516,159802
//Storyboard Layer 0 (Background)
//Storyboard Layer 1 (Fail)
//Storyboard Layer 2 (Pass)
//Storyboard Layer 3 (Foreground)
//Storyboard Sound Samples

[TimingPoints]
462,405.405405405405,4,2,1,50,1,0
1272,-100,4,2,1,55,0,0
2083,-100,4,2,1,60,0,0
2894,-100,4,2,1,65,0,0
3705,-100,4,2,1,70,0,0
4516,-100,4,2,1,75,0,0
5326,-100,4,2,1,80,0,0
6137,-100,4,2,1,85,0,0
8570,-100,4,2,1,80,0,1
21543,-100,4,2,1,70,0,0
34516,-100,4,2,2,65,0,0
39380,-100,4,2,1,70,0,0
41002,-100,4,2,2,65,0,0
47489,-100,4,2,1,70,0,0
58029,-100,4,2,1,75,0,0
58840,-100,4,2,1,80,0,0
59651,-100,4,2,1,85,0,0
62083,-100,4,2,1,80,0,1
74245,-100,4,2,1,85,0,0
75056,-100,4,2,1,80,0,1
88029,-100,4,2,1,70,0,0
101002,-100,4,2,2,65,0,0
105867,-100,4,2,1,70,0,0
107489,-100,4,2,2,65,0,0
113975,-100,4,2,1,70,0,0
124516,-100,4,2,1,75,0,0
125326,-100,4,2,1,80,0,0
126137,-100,4,2,1,85,0,0
128570,-100,4,2,1,80,0,1
140732,-100,4,2,1,85,0,0
141543,-100,4,2,1,80,0,1
154516,-100,4,2,1,60,0,0
161002,-100,4,2,1,70,0,0
167489,-100,4,2,1,75,0,0
180461,-100,4,2,1,80,0,0
183705,-100,4,2,1,85,0,1
192624,-100,4,2,1,90,0,0
193434,-100,4,2,1,85,0,1
206407,-100,4,2,1,75,0,0
209651,-100,4,2,1,90,0,0
210461,-100,4,2,1,80,0,0
211272,-100,4,2,1,60,0,0
212083,-100,4,2,1,30,0,0
212894,-100,4,2,1,10,0,0

[Colours]
Combo1 : 134,133,76
Combo2 : 231,172,168
Combo3 : 135,106,154
Combo4 : 157,104,98

[HitObjects]
408,120,462,5,2,0:0:0:0:
220,274,1272,1,2,0:0:0:0:
282,40,2083,1,2,0:0:0:0:
370,267,2894,1,2,0:0:0:0:
165,136,3705,6,0,L|177:23,1,110,6|8,0:0|0:0,0:0:0:0:
297,5,4516,2,0,P|345:25|417:13,1,110,6|8,0:0|0:0,0:0:0:0:
461,125,5326,2,0,L|448:247,1,110,6|8,0:0|0:0,0:0:0:0:
329,256,6137,2,0,P|281:236|209:248,1,110,6|8,0:0|0:0,0:0:0:0:
224,241,8164,5,4,0:1:0:0:
125,173,8570,6,0,L|133:57,1,110,6|8,0:0|0:0,0:0:0:0:
172,16,9178,2,0,P|225:4|278:18,1,110,0|0,0:0|3:0,0:0:0:0:
328,52,9786,1,8,0:0:0:0:
408,144,10191,2,0,L|412:204,1,55,2|0,0:0|0:0,0:0:0:0:
456,240,10597,2,0,L|460:300,1,55,8|0,0:0|0:0,0:0:0:0:
436,352,11002,2,0,P|397:340|329:352,1,110,2|8,0:0|0:0,0:0:0:0:
213,325,11813,6,0,P|221:281|213:209,1,110,2|8,0:0|0:0,0:0:0:0:
169,177,12421,2,0,P|162:123|171:69,1,110,0|0,0:0|3:0,0:0:0:0:
200,16,13029,1,8,0:0:0:0:
308,68,13434,2,0,P|312:104|308:128,2,55,6|0|8,0:0|0:0|0:0,0:0:0:0:
340,16,14043,2,0,B|396:6|396:6|446:22,1,110,6|2,0:0|0:0,0:0:0:0:
488,68,14651,1,8,0:0:0:0:
448,184,15056,6,0,P|392:200|332:180,1,110,2|12,0:0|0:0,0:0:0:0:
332,128,15664,2,0,P|276:112|216:132,1,110,0|0,0:0|3:0,0:0:0:0:
184,168,16272,1,8,0:0:0:0:
72,216,16678,2,0,L|80:272,1,55,2|0,0:0|0:0,0:0:0:0:
136,296,17083,2,0,L|144:352,1,55,8|0,0:0|0:0,0:0:0:0:
200,376,17489,2,0,P|252:362|305:374,1,110,2|8,0:0|0:0,0:0:0:0:
408,308,18299,6,0,P|407:260|419:233,2,55,6|0|8,0:0|0:0|0:0,0:0:0:0:
448,352,18907,1,6,0:0:0:0:
512,248,19313,2,0,P|515:220|510:193,1,55,2|8,3:2|0:0,0:0:0:0:
464,156,19718,2,0,L|353:180,1,110,6|0,0:0|3:0,0:0:0:0:
320,228,20326,2,0,P|316:260|324:292,2,55,0|0|4,3:0|3:0|0:1,0:0:0:0:
172,36,21543,6,0,L|296:16,1,110,6|8,0:0|0:0,0:0:0:0:
336,44,22151,2,0,P|367:88|363:142,1,110,0|0,3:0|3:0,0:0:0:0:
332,192,22759,1,8,0:0:0:0:
220,240,23164,1,2,0:0:0:0:
122,167,23570,1,8,0:0:0:0:
239,120,23975,2,0,P|249:66|239:12,1,110,2|8,0:0|0:0,0:0:0:0:
360,44,24786,6,0,P|349:97|359:151,1,110,2|8,0:0|0:0,0:0:0:0:
408,188,25394,2,0,P|418:241|408:295,1,110,0|0,3:0|3:0,0:0:0:0:
364,336,26002,1,8,0:0:0:0:
288,240,26407,2,0,L|156:256,1,110,6|8,0:0|0:0,0:0:0:0:
140,208,27016,1,0,3:0:0:0:
164,152,27218,2,0,L|273:138,1,110,6|8,0:0|0:0,0:0:0:0:
368,64,28029,6,0,P|396:112|388:176,1,110,6|8,0:0|0:0,0:0:0:0:
356,212,28637,2,0,P|353:266|380:312,1,110,0|0,3:0|3:0,0:0:0:0:
440,328,29245,1,8,0:0:0:0:
480,216,29651,1,2,0:0:0:0:
403,125,30056,1,8,0:0:0:0:
447,7,30461,2,0,P|392:2|340:16,1,110,2|8,0:0|0:0,0:0:0:0:
260,104,31272,6,0,P|205:109|153:94,1,110,6|8,0:0|0:0,0:0:0:0:
96,72,31880,2,0,L|88:200,1,110,6|2,0:0|0:0,0:0:0:0:
84,240,32489,1,8,0:0:0:0:
176,160,32894,1,6,0:0:0:0:
256,252,33299,1,12,0:0:0:0:
164,332,33705,1,4,0:0:0:0:
164,332,34516,6,0,P|210:317|274:329,1,110,4|8,0:0|0:0,0:0:0:0:
326,350,35124,1,0,0:0:0:0:
378,318,35326,2,0,L|370:198,1,110,8|0,0:0|0:0,0:0:0:0:
412,96,36137,2,0,P|355:83|306:104,1,110,2|8,0:0|0:0,0:0:0:0:
268,148,36745,1,0,0:0:0:0:
227,192,36948,2,0,P|170:204|121:183,1,110,8|0,0:0|0:0,0:0:0:0:
12,232,37759,6,0,L|23:350,1,110,2|8,0:0|0:0,0:0:0:0:
72,376,38367,1,0,0:0:0:0:
124,344,38570,2,0,P|160:342|195:352,1,55,8|2,0:0|0:0,0:0:0:0:
232,376,38975,2,0,P|268:377|303:367,1,55,0|2,0:0|0:0,0:0:0:0:
336,340,39380,1,8,0:0:0:0:
252,252,39786,1,8,0:0:0:0:
339,167,40191,2,0,P|392:180|448:167,1,110,8|4,0:0|0:3,0:0:0:0:
392,60,41002,5,6,0:0:0:0:
280,12,41407,2,0,L|208:20,1,55,4|0,0:1|0:0,0:0:0:0:
192,68,41813,2,0,P|200:123|198:178,1,110,8|0,0:0|0:0,0:0:0:0:
180,296,42624,1,2,0:0:0:0:
61,315,43029,1,8,0:0:0:0:
5,208,43434,1,8,0:0:0:0:
89,122,43840,1,0,0:0:0:0:
198,177,44245,6,0,P|250:189|302:173,1,110,6|8,0:0|0:0,0:0:0:0:
424,200,45056,2,0,L|416:264,1,55,6|0,0:0|0:0,0:0:0:0:
364,284,45461,2,0,L|356:348,1,55,8|0,0:0|0:0,0:0:0:0:
304,368,45867,2,0,P|246:384|182:360,1,110,6|2,0:0|0:0,0:0:0:0:
152,332,46475,1,4,0:0:0:0:
160,32,47489,6,0,L|276:48,1,110,6|2,0:0|0:0,0:0:0:0:
300,100,48097,1,0,0:0:0:0:
260,144,48299,2,0,L|151:128,1,110,2|8,0:0|0:0,0:0:0:0:
32,148,49110,2,0,P|23:193|46:263,1,110,2|0,0:0|3:0,0:0:0:0:
100,260,49718,1,2,0:0:0:0:
160,264,49921,2,0,P|176:315|167:369,1,110,2|8,0:0|0:0,0:0:0:0:
288,368,50732,6,0,P|279:314|295:262,1,110,2|0,0:0|3:0,0:0:0:0:
355,258,51340,1,2,0:0:0:0:
415,251,51543,2,0,P|431:199|422:145,1,110,2|8,0:0|0:0,0:0:0:0:
340,56,52353,2,0,L|224:64,1,110,2|0,0:0|3:0,0:0:0:0:
196,112,52961,1,2,0:0:0:0:
161,160,53164,2,0,L|45:168,1,110,2|8,0:0|0:0,0:0:0:0:
60,288,53975,6,0,L|169:280,1,110,6|0,0:0|0:0,0:0:0:0:
228,272,54583,1,0,0:0:0:0:
272,312,54786,1,8,0:0:0:0:
384,356,55191,2,0,P|392:304|373:242,1,110,6|0,0:0|0:0,0:0:0:0:
320,232,55799,1,0,0:0:0:0:
262,214,56002,2,0,L|255:150,1,55,8|0,0:0|0:0,0:0:0:0:
264,100,56407,2,0,P|315:115|368:101,1,110,6|0,0:0|0:0,0:0:0:0:
464,176,57218,6,0,L|448:288,1,110,6|8,0:0|0:0,0:0:0:0:
332,324,58029,2,0,L|316:216,1,110,6|8,0:0|0:0,0:0:0:0:
204,164,58840,2,0,L|188:276,1,110,6|8,0:0|0:0,0:0:0:0:
72,312,59651,2,0,L|56:204,1,110,6|8,0:0|0:0,0:0:0:0:
55,203,61678,5,4,0:1:0:0:
3,93,62083,6,0,P|62:81|113:96,1,110,6|8,0:0|0:0,0:0:0:0:
148,140,62691,2,0,P|207:152|258:137,1,110,0|0,3:0|3:0,0:0:0:0:
296,96,63299,1,8,0:0:0:0:
408,140,63705,2,0,L|416:212,1,55,2|0,0:0|0:0,0:0:0:0:
460,236,64110,2,0,L|468:308,1,55,8|0,0:0|3:0,0:0:0:0:
424,336,64516,2,0,P|370:346|316:337,1,110,2|8,0:0|0:0,0:0:0:0:
220,264,65326,6,0,P|165:255|112:266,1,110,2|8,0:0|0:0,0:0:0:0:
56,292,65934,2,0,L|44:180,1,110,0|0,3:0|3:0,0:0:0:0:
76,132,66543,1,8,0:0:0:0:
180,68,66948,2,0,P|178:31|169:4,2,55,6|0|8,0:0|3:0|0:0,0:0:0:0:
212,120,67556,2,0,P|267:132|318:116,1,110,6|0,0:0|3:0,0:0:0:0:
364,80,68164,1,8,0:0:0:0:
472,136,68570,6,0,L|464:264,1,110,2|12,0:0|0:0,0:0:0:0:
416,280,69178,2,0,P|360:267|309:283,1,110,0|0,3:0|3:0,0:0:0:0:
268,324,69786,1,8,0:0:0:0:
160,272,70191,2,0,P|156:240|164:216,1,55,2|0,0:0|0:0,0:0:0:0:
200,172,70597,2,0,P|208:145|203:118,1,55,8|0,0:0|3:0,0:0:0:0:
188,60,71002,2,0,L|316:72,1,110,2|8,0:0|0:0,0:0:0:0:
412,112,71813,6,0,P|420:68|416:44,2,55,2|0|8,0:0|0:0|0:0,0:0:0:0:
384,164,72421,1,0,3:0:0:0:
288,240,72826,2,0,P|287:267|295:293,1,55,0|8,3:0|0:0,0:0:0:0:
316,352,73232,2,0,L|196:336,1,110,6|0,0:0|3:0,0:0:0:0:
148,324,73840,1,8,0:0:0:0:
204,216,74245,2,0,L|204:156,2,55,6|2|4,0:0|0:0|0:0,0:0:0:0:
116,132,75056,6,0,P|88:120|4:140,1,110,6|8,0:0|0:0,0:0:0:0:
0,192,75664,2,0,L|12:312,1,110,0|0,3:0|3:0,0:0:0:0:
48,348,76272,1,8,0:0:0:0:
140,272,76678,2,0,P|176:268|200:272,1,55,2|0,0:0|0:0,0:0:0:0:
224,324,77083,2,0,P|260:328|284:324,1,55,8|0,0:0|3:0,0:0:0:0:
336,304,77489,2,0,L|316:172,1,110,2|8,0:0|0:0,0:0:0:0:
440,180,78299,6,0,L|456:288,1,110,2|8,0:0|0:0,0:0:0:0:
440,348,78907,2,0,B|392:372|392:372|335:366,1,110,0|0,3:0|3:0,0:0:0:0:
280,344,79516,1,8,0:0:0:0:
168,304,79921,2,0,P|164:268|168:240,2,55,6|0|8,0:0|3:0|0:0,0:0:0:0:
180,364,80529,2,0,L|60:372,1,110,6|0,0:0|3:0,0:0:0:0:
24,332,81137,1,8,0:0:0:0:
88,228,81543,6,0,P|96:192|84:116,1,110,2|12,0:0|0:0,0:0:0:0:
56,68,82151,2,0,P|94:30|147:32,1,110,0|0,3:0|3:0,0:0:0:0:
200,64,82759,1,8,0:0:0:0:
320,40,83164,2,0,P|324:72|312:112,1,55,2|0,0:0|0:0,0:0:0:0:
284,144,83570,2,0,P|280:172|284:199,1,55,8|0,0:0|3:0,0:0:0:0:
312,252,83975,2,0,L|436:232,1,110,2|8,0:0|0:0,0:0:0:0:
448,352,84786,6,0,L|379:365,2,55,6|0|8,0:0|0:0|0:0,0:0:0:0:
492,308,85394,1,6,0:0:0:0:
416,212,85799,2,0,P|412:176|416:148,1,55,2|8,3:2|0:0,0:0:0:0:
432,100,86205,2,0,L|320:116,1,110,6|0,0:0|3:0,0:0:0:0:
276,152,86813,2,0,P|280:188|276:216,2,55,0|0|4,3:0|3:0|0:1,0:0:0:0:
60,48,88029,6,0,B|40:100|40:100|52:152,1,110,6|8,0:0|0:0,0:0:0:0:
84,204,88637,2,0,P|136:218|188:202,1,110,0|0,3:0|3:0,0:0:0:0:
232,160,89245,1,8,0:0:0:0:
188,48,89651,1,2,0:0:0:0:
306,65,90056,1,8,0:0:0:0:
350,177,90461,2,0,P|364:216|352:304,1,110,2|8,0:0|0:0,0:0:0:0:
240,296,91272,6,0,P|226:257|238:169,1,110,2|8,0:0|0:0,0:0:0:0:
276,152,91880,2,0,P|281:97|265:45,1,110,0|0,3:0|3:0,0:0:0:0:
208,28,92489,1,8,0:0:0:0:
96,72,92894,2,0,B|76:124|76:124|89:176,1,110,6|8,0:0|0:0,0:0:0:0:
140,208,93502,1,0,3:0:0:0:
190,239,93705,2,0,B|203:291|203:291|183:343,1,110,6|8,0:0|0:0,0:0:0:0:
64,352,94516,6,0,L|52:236,1,110,6|8,0:0|0:0,0:0:0:0:
12,196,95124,2,0,L|0:80,1,110,0|0,3:0|3:0,0:0:0:0:
36,36,95732,1,8,0:0:0:0:
144,88,96137,1,2,0:0:0:0:
243,20,96543,1,8,0:0:0:0:
351,72,96948,2,0,P|384:80|472:68,1,110,2|8,0:0|0:0,0:0:0:0:
464,192,97759,6,0,P|431:184|343:196,1,110,6|8,0:0|0:0,0:0:0:0:
328,244,98367,2,0,P|295:252|207:240,1,110,6|2,0:0|0:0,0:0:0:0:
172,208,98975,1,8,0:0:0:0:
272,140,99380,1,6,0:0:0:0:
204,40,99786,1,12,0:0:0:0:
104,108,100191,1,4,0:0:0:0:
104,108,101002,6,0,P|90:171|110:231,1,110,4|8,0:0|0:0,0:0:0:0:
150,247,101610,1,0,0:0:0:0:
198,211,101813,2,0,P|246:226|278:267,2,82.5,8|0|8,0:0|0:0|0:0,0:0:0:0:
164,162,102624,1,2,0:0:0:0:
224,56,103029,2,0,L|290:61,1,55,8|0,0:0|0:0,0:0:0:0:
328,96,103434,2,0,P|336:144|328:200,2,82.5,8|0|8,0:0|0:0|0:0,0:0:0:0:
372,56,104245,5,2,0:0:0:0:
472,120,104651,1,8,0:0:0:0:
419,229,105056,2,0,P|416:268|424:308,1,55,8|2,0:0|0:0,0:0:0:0:
472,308,105461,2,0,P|475:347|467:387,1,55,0|2,0:0|0:0,0:0:0:0:
416,384,105867,1,8,0:0:0:0:
320,312,106272,1,8,0:0:0:0:
212,368,106678,2,0,P|184:370|157:365,1,55,8|8,0:0|0:3,0:0:0:0:
141,307,107083,2,0,P|113:305|86:310,1,55,4|0,0:3|0:0,0:0:0:0:
28,344,107489,5,6,0:0:0:0:
16,224,107894,2,0,P|20:188|16:164,1,55,4|0,0:1|0:0,0:0:0:0:
4,112,108299,2,0,P|48:116|124:108,1,110,2|8,0:0|0:0,0:0:0:0:
220,56,109110,1,2,0:0:0:0:
304,140,109515,1,8,0:0:0:0:
249,246,109921,1,2,0:0:0:0:
131,226,110326,1,8,0:0:0:0:
113,107,110732,6,0,P|72:92|-4:116,1,110,6|8,0:0|0:0,0:0:0:0:
4,228,111543,2,0,L|12:288,1,55,6|0,0:0|0:0,0:0:0:0:
68,304,111948,2,0,L|76:364,1,55,8|0,0:0|0:0,0:0:0:0:
136,364,112353,2,0,P|190:369|244:360,1,110,6|2,0:0|0:0,0:0:0:0:
292,324,112961,1,4,0:0:0:0:
464,76,113975,6,0,P|476:132|464:184,1,110,6|2,0:0|0:0,0:0:0:0:
408,204,114583,1,0,0:0:0:0:
360,168,114786,2,0,P|306:157|253:171,1,110,2|8,0:0|0:0,0:0:0:0:
224,288,115597,2,0,P|170:299|117:285,1,110,2|0,0:0|3:0,0:0:0:0:
72,244,116205,1,2,0:0:0:0:
104,192,116407,2,0,P|112:156|104:80,1,110,2|8,0:0|0:0,0:0:0:0:
228,80,117218,6,0,P|220:134|229:188,1,110,2|0,0:0|3:0,0:0:0:0:
284,216,117826,1,2,0:0:0:0:
338,243,118029,2,0,L|456:232,1,110,2|8,0:0|0:0,0:0:0:0:
460,352,118840,2,0,L|342:363,1,110,2|0,0:0|3:0,0:0:0:0:
292,368,119448,1,2,0:0:0:0:
240,340,119651,2,0,P|230:286|241:232,1,110,2|8,0:0|0:0,0:0:0:0:
356,192,120461,6,0,P|366:138|356:84,1,110,6|0,0:0|0:0,0:0:0:0:
312,44,121070,1,0,0:0:0:0:
260,76,121273,1,8,0:0:0:0:
152,19,121678,2,0,P|142:73|151:127,1,110,6|0,0:0|0:0,0:0:0:0:
192,172,122287,1,0,0:0:0:0:
232,216,122489,2,0,L|294:208,1,55,8|0,0:0|0:0,0:0:0:0:
348,200,122894,2,0,L|352:332,1,110,6|0,0:0|0:0,0:0:0:0:
236,352,123705,6,0,P|181:364|126:351,1,110,6|8,0:0|0:0,0:0:0:0:
128,232,124516,2,0,P|181:219|234:231,1,110,6|8,0:0|0:0,0:0:0:0:
340,292,125326,2,0,P|393:304|446:291,1,110,6|8,0:0|0:0,0:0:0:0:
445,171,126137,2,0,P|391:159|338:171,1,110,6|8,0:0|0:0,0:0:0:0:
338,171,128164,5,12,0:0:0:0:
229,230,128570,6,0,P|217:161|232:110,1,110,6|8,0:0|0:0,0:0:0:0:
248,68,129178,2,0,P|195:55|141:65,1,110,0|0,3:0|3:0,0:0:0:0:
92,100,129786,1,8,0:0:0:0:
4,176,130191,2,0,P|0:212|4:244,1,55,2|0,0:0|0:0,0:0:0:0:
52,264,130597,2,0,P|56:300|52:332,1,55,8|0,0:0|3:0,0:0:0:0:
96,364,131002,2,0,L|220:344,1,110,2|8,0:0|0:0,0:0:0:0:
324,368,131813,6,0,L|448:348,1,110,2|8,0:0|0:0,0:0:0:0:
488,328,132421,2,0,P|500:275|487:222,1,110,0|0,3:0|3:0,0:0:0:0:
444,180,133029,1,8,0:0:0:0:
324,156,133434,2,0,P|320:181|324:213,2,55,6|0|8,0:0|3:0|0:0,0:0:0:0:
332,96,134043,2,0,L|197:105,1,110,6|0,0:0|3:0,0:0:0:0:
164,112,134651,1,8,0:0:0:0:
76,188,135056,6,0,B|60:232|60:232|72:308,1,110,2|12,0:0|0:0,0:0:0:0:
96,348,135664,2,0,P|149:358|215:335,1,110,0|0,3:0|3:0,0:0:0:0:
252,312,136272,1,8,0:0:0:0:
344,232,136678,2,0,P|388:228|408:232,1,55,2|0,0:0|0:0,0:0:0:0:
420,288,137083,2,0,P|464:292|484:288,1,55,8|0,0:0|3:0,0:0:0:0:
512,244,137489,2,0,L|496:132,1,110,2|8,0:0|0:0,0:0:0:0:
384,96,138299,6,0,L|391:41,2,55,2|0|8,0:0|0:0|0:0,0:0:0:0:
336,132,138907,1,0,3:0:0:0:
220,96,139313,2,0,L|212:41,1,55,0|8,3:0|0:0,0:0:0:0:
160,12,139718,2,0,P|124:4|52:20,1,110,6|0,0:0|3:0,0:0:0:0:
20,68,140326,1,8,0:0:0:0:
116,144,140732,2,0,L|116:200,2,55,6|2|4,0:0|0:0|0:0,0:0:0:0:
216,76,141543,6,0,P|270:63|322:77,1,110,6|8,0:0|0:0,0:0:0:0:
344,132,142151,2,0,P|397:144|449:130,1,110,0|0,3:0|3:0,0:0:0:0:
492,88,142759,1,8,0:0:0:0:
512,208,143164,2,0,L|504:262,1,55,2|0,0:0|0:0,0:0:0:0:
448,284,143570,2,0,L|440:338,1,55,8|0,0:0|3:0,0:0:0:0:
384,360,143975,2,0,P|329:368|275:359,1,110,2|8,0:0|0:0,0:0:0:0:
248,244,144786,6,0,P|193:235|139:244,1,110,2|8,0:0|0:0,0:0:0:0:
96,288,145394,2,0,P|42:284|7:243,1,110,0|0,3:0|3:0,0:0:0:0:
16,184,146002,1,8,0:0:0:0:
112,108,146407,2,0,P|116:68|112:36,2,55,6|0|8,0:0|3:0|0:0,0:0:0:0:
148,156,147016,2,0,B|204:172|204:172|253:157,1,110,6|0,0:0|3:0,0:0:0:0:
304,124,147624,1,8,0:0:0:0:
412,68,148029,6,0,P|422:121|412:175,1,110,2|12,0:0|0:0,0:0:0:0:
368,216,148637,2,0,B|356:268|356:268|370:322,1,110,0|0,3:0|3:0,0:0:0:0:
408,368,149245,1,8,0:0:0:0:
512,308,149651,2,0,P|516:280|508:244,1,55,2|0,0:0|0:0,0:0:0:0:
480,204,150056,2,0,P|475:177|479:150,1,55,8|0,0:0|3:0,0:0:0:0:
492,92,150461,2,0,P|440:76|380:96,1,110,2|8,0:0|0:0,0:0:0:0:
268,72,151272,6,0,L|276:4,2,55,6|0|8,0:0|0:0|0:0,0:0:0:0:
260,132,151880,1,6,0:0:0:0:
288,252,152286,2,0,P|248:256|224:252,1,55,2|8,3:2|0:0,0:0:0:0:
180,224,152691,2,0,P|152:212|60:232,1,110,6|0,0:0|3:0,0:0:0:0:
28,260,153299,2,0,L|34:314,2,55,0|0|4,3:0|3:0|0:1,0:0:0:0:
384,336,161002,6,0,L|404:232,2,82.5,6|0|0,0:0|0:0|0:0,0:0:0:0:
328,360,161813,2,0,L|272:348,1,55,2|0,0:0|0:0,0:0:0:0:
216,368,162218,1,8,0:0:0:0:
164,260,162624,2,0,P|217:250|271:262,1,110,2|8,0:0|0:0,0:0:0:0:
328,284,163232,1,0,0:0:0:0:
376,248,163434,2,0,L|392:130,1,110,2|8,0:0|0:0,0:0:0:0:
280,88,164245,6,0,B|227:71|227:71|174:86,1,110,2|8,0:0|0:0,0:0:0:0:
167,207,165056,2,0,B|220:224|220:224|273:209,1,110,2|8,0:0|0:0,0:0:0:0:
381,154,165867,1,2,0:0:0:0:
381,154,166070,2,0,L|392:64,1,82.5,0|0,0:0|0:0,0:0:0:0:
304,100,166678,2,0,L|293:190,2,82.5,2|0|0,0:0|0:0|3:0,0:0:0:0:
272,48,167489,6,0,P|233:37|193:41,2,82.5,6|0|0,0:0|0:0|0:0,0:0:0:0:
320,16,168299,2,0,L|380:0,1,55,2|0,0:0|0:0,0:0:0:0:
424,36,168705,1,8,0:0:0:0:
480,144,169110,2,0,L|460:260,1,110,2|8,0:0|0:0,0:0:0:0:
416,292,169718,1,0,0:0:0:0:
360,268,169921,2,0,P|325:254|249:262,1,110,2|8,0:0|0:0,0:0:0:0:
153,329,170732,6,0,B|100:340|100:340|45:326,1,110,2|8,0:0|0:0,0:0:0:0:
48,204,171542,2,0,B|101:193|101:193|155:206,1,110,2|8,0:0|0:0,0:0:0:0:
252,276,172353,1,2,0:0:0:0:
252,276,172556,2,0,L|267:380,1,82.5,0|0,0:0|0:0,0:0:0:0:
337,305,173164,2,0,L|325:224,2,82.5,2|0|0,0:0|0:0|3:0,0:0:0:0:
384,341,173975,6,0,P|437:354|489:339,1,110,6|0,0:0|3:0,0:0:0:0:
512,284,174583,1,0,0:0:0:0:
512,284,174786,1,8,0:0:0:0:
488,164,175191,2,0,P|435:151|383:166,1,110,6|0,0:0|3:0,0:0:0:0:
360,221,175799,1,0,0:0:0:0:
360,221,176002,1,8,0:0:0:0:
296,324,176407,2,0,L|186:315,1,110,6|0,0:0|3:0,0:0:0:0:
152,264,177016,5,6,0:0:0:0:
256,192,177218,12,2,179651,0:0:0:0:
96,356,180461,6,0,L|77:248,1,110,6|0,0:0|3:0,0:0:0:0:
118,201,181070,2,0,P|173:208|227:198,1,110,6|6,0:0|0:0,0:0:0:0:
284,180,181678,1,0,0:0:0:0:
356,84,182083,2,0,P|400:80|416:84,1,55,6|0,0:0|0:0,0:0:0:0:
461,117,182489,2,0,P|486:154|491:169,1,55,0|0,0:0|0:0,0:0:0:0:
509,221,182894,2,0,P|495:254|495:338,1,110,0|4,0:0|0:1,0:0:0:0:
373,301,183705,6,0,P|391:250|389:195,1,110,6|8,0:0|0:0,0:0:0:0:
337,165,184313,2,0,P|334:111|352:59,1,110,0|0,3:0|3:0,0:0:0:0:
400,22,184921,1,8,0:0:0:0:
504,64,185326,2,0,P|511:35|507:-5,2,55,6|0|8,0:0|3:0|0:0,0:0:0:0:
468,112,185934,2,0,B|457:148|457:148|470:219,1,110,6|0,0:0|3:0,0:0:0:0:
460,280,186543,1,8,0:0:0:0:
338,291,186948,6,0,P|284:304|231:293,1,110,2|12,0:0|0:0,0:0:0:0:
182,260,187556,2,0,L|178:150,1,110,0|0,3:0|3:0,0:0:0:0:
208,96,188164,1,8,0:0:0:0:
291,188,188570,2,0,L|293:243,1,55,2|0,0:0|0:0,0:0:0:0:
345,275,188975,2,0,L|398:290,1,55,8|0,0:0|3:0,0:0:0:0:
452,263,189380,2,0,L|447:154,1,110,2|8,0:0|0:0,0:0:0:0:
332,112,190191,6,0,L|335:179,2,55,2|0|8,0:0|0:0|0:0,0:0:0:0:
280,84,190799,1,0,3:0:0:0:
200,176,191205,2,0,L|203:243,1,55,0|8,3:0|0:0,0:0:0:0:
180,288,191610,2,0,P|128:304|64:292,1,110,6|0,0:0|3:0,0:0:0:0:
24,264,192218,1,8,0:0:0:0:
8,144,192624,2,0,P|4:108|8:72,2,55,6|2|4,0:0|0:0|0:0,0:0:0:0:
124,108,193434,6,0,P|179:102|231:119,1,110,6|2,0:0|0:0,0:0:0:0:
248,176,194043,2,0,P|302:181|354:164,1,110,8|8,0:0|0:0,0:0:0:0:
396,120,194651,1,2,0:0:0:0:
512,152,195056,2,0,P|516:183|511:206,1,55,2|8,0:0|0:0,0:0:0:0:
456,232,195461,2,0,P|451:259|455:286,1,55,2|8,0:0|0:0,0:0:0:0:
500,328,195867,2,0,L|492:404,2,55,2|8|2,0:0|0:0|0:0,0:0:0:0:
380,316,196678,6,0,L|373:370,2,55,2|8|2,0:0|0:0|0:0,0:0:0:0:
344,268,197286,2,0,P|291:253|239:269,1,110,8|8,0:0|0:0,0:0:0:0:
187,299,197894,1,2,0:0:0:0:
92,224,198299,2,0,L|104:160,1,55,6|8,0:0|0:0,0:0:0:0:
148,128,198705,1,8,0:3:0:0:
200,160,198907,2,0,B|254:172|254:172|306:155,1,110,12|8,0:0|0:0,0:0:0:0:
352,116,199516,1,2,3:2:0:0:
456,52,199921,6,0,B|472:104|472:104|459:159,1,110,2|6,0:0|0:0,0:0:0:0:
408,192,200529,2,0,P|397:245|413:297,1,110,8|8,0:0|0:0,0:0:0:0:
460,336,201137,1,2,0:0:0:0:
344,372,201543,2,0,P|294:374|267:363,1,55,2|8,0:0|0:0,0:0:0:0:
232,356,201948,2,0,P|206:353|179:357,1,55,2|8,0:0|0:0,0:0:0:0:
120,376,202353,2,0,P|92:379|65:374,2,55,2|8|2,0:0|0:0|0:0,0:0:0:0:
120,256,203164,6,0,P|102:252|64:258,2,55,6|2|8,0:0|0:0|0:0,0:0:0:0:
180,256,203772,2,0,L|299:247,1,110,6|2,0:0|3:2,0:0:0:0:
340,216,204380,1,8,0:0:0:0:
380,172,204583,2,0,P|390:132|362:55,1,110,6|0,0:0|3:0,0:0:0:0:
311,55,205191,2,0,L|249:70,1,55,0|0,3:0|3:0,0:0:0:0:
208,102,205597,1,4,0:1:0:0:
288,196,206002,1,0,0:0:0:0:
402,148,206407,6,0,B|420:199|420:199|403:309,1,165,6|6,0:0|0:0,0:0:0:0:
220,308,207624,2,0,B|202:198|202:198|221:146,1,165,6|6,0:0|0:0,0:0:0:0:
372,44,208840,1,6,0:0:0:0:
474,109,209245,1,8,0:0:0:0:
395,202,209651,5,6,0:0:0:0:
256,192,209853,12,0,212894,0:0:0:0:
