osu file format v14

[General]
AudioFilename: friend shitai.mp3
AudioLeadIn: 0
PreviewTime: 62083
Countdown: 0
SampleSet: Soft
StackLeniency: 0.7
Mode: 0
LetterboxInBreaks: 0
WidescreenStoryboard: 0

[Editor]
DistanceSpacing: 1.3
BeatDivisor: 4
GridSize: 4
TimelineZoom: 1.3

[Metadata]
Title:Friend Shitai
TitleUnicode:ふ・れ・ん・ど・し・た・い
Artist:Gakuen Seikatsu-bu
ArtistUnicode:学園生活部
Creator:Doormat
Version:Hard
Source:がっこうぐらし!
Tags:CloudSplash16 Little gakkou gurashi school live school-live op opening full size living club takeya yuki 丈槍由紀 minase inori 水瀬いのり ebisuzawa kurumi 恵飛須沢胡桃 ozawa ari 小澤亜李 wakasa yuuri 若狭悠里 ichimichi mao M·A·O 市道真央 naoki miki 直樹美紀 takahashi rie 高橋李依
BeatmapID:808068
BeatmapSetID:368566

[Difficulty]
HPDrainRate:5
CircleSize:4
OverallDifficulty:6
ApproachRate:7
SliderMultiplier:1.4
SliderTickRate:1

[Events]
//Background and Video events
0,0,"gakkou_background3.jpg",0,0
//Break Periods
//Storyboard Layer 0 (Background)
//Storyboard Layer 1 (Fail)
//Storyboard Layer 2 (Pass)
//Storyboard Layer 3 (Foreground)
//Storyboard Sound Samples

[TimingPoints]
462,405.405405405405,4,2,1,50,1,0
1272,-100,4,2,1,55,0,0
2083,-100,4,2,1,60,0,0
2894,-100,4,2,1,65,0,0
3705,-100,4,2,1,70,0,0
4516,-100,4,2,1,75,0,0
5326,-100,4,2,1,80,0,0
6137,-100,4,2,1,85,0,0
8570,-90.9090909090909,4,2,1,80,0,1
21543,-100,4,2,1,70,0,0
34516,-100,4,2,2,65,0,0
39380,-100,4,2,1,70,0,0
41002,-100,4,2,2,65,0,0
47489,-111.111111111111,4,2,1,70,0,0
58029,-111.111111111111,4,2,1,75,0,0
58840,-111.111111111111,4,2,1,80,0,0
59651,-111.111111111111,4,2,1,85,0,0
62083,-90.9090909090909,4,2,1,80,0,1
74245,-90.9090909090909,4,2,1,85,0,0
75056,-90.9090909090909,4,2,1,80,0,1
88029,-100,4,2,1,70,0,0
101002,-100,4,2,2,65,0,0
105867,-100,4,2,1,70,0,0
107489,-100,4,2,2,65,0,0
113975,-111.111111111111,4,2,1,70,0,0
124516,-111.111111111111,4,2,1,75,0,0
125326,-111.111111111111,4,2,1,80,0,0
126137,-111.111111111111,4,2,1,85,0,0
128570,-90.9090909090909,4,2,1,80,0,1
140732,-90.9090909090909,4,2,1,85,0,0
141543,-90.9090909090909,4,2,1,80,0,1
154516,-100,4,2,1,60,0,0
161002,-100,4,2,1,70,0,0
167489,-100,4,2,1,75,0,0
173975,-111.111111111111,4,2,1,75,0,0
180461,-100,4,2,1,80,0,0
183705,-90.9090909090909,4,2,1,85,0,1
192624,-90.9090909090909,4,2,1,90,0,0
193434,-90.9090909090909,4,2,1,85,0,1
206407,-111.111111111111,4,2,1,75,0,0
209651,-100,4,2,1,90,0,0
210461,-100,4,2,1,80,0,0
211272,-100,4,2,1,60,0,0
212083,-100,4,2,1,30,0,0
212894,-100,4,2,1,10,0,0

[Colours]
Combo1 : 134,133,76
Combo2 : 231,172,168
Combo3 : 135,106,154
Combo4 : 157,104,98

[HitObjects]
360,264,462,6,0,P|380:200|356:128,1,140,2|8,0:0|0:0,0:0:0:0:
152,120,1272,2,0,P|132:184|156:256,1,140,2|8,0:0|0:0,0:0:0:0:
375,234,2083,2,0,P|377:167|336:104,1,140,2|8,0:0|0:0,0:0:0:0:
136,149,2894,2,0,P|134:216|175:279,1,140,2|8,0:0|0:0,0:0:0:0:
375,234,3705,6,0,L|368:192,4,35,6|0|0|0|8,0:0|0:0|0:0|0:0|0:0,0:0:0:0:
128,181,4516,2,0,L|136:224,4,35,6|0|0|0|8,0:0|0:0|0:0|0:0|0:0,0:0:0:0:
382,202,5326,2,0,L|364:163,4,35,6|0|0|0|8,0:0|0:0|0:0|0:0|0:0,0:0:0:0:
130,214,6137,2,0,L|148:253,4,35,6|0|0|0|8,0:0|0:0|0:0|0:0|0:0,0:0:0:0:
390,132,8164,6,0,L|382:202,1,70,4|0,0:1|0:0,0:0:0:0:
328,68,8570,6,0,P|284:60|232:72,1,77.0000023498536,6|0,0:0|0:0,0:0:0:0:
192,144,8975,1,8,0:0:0:0:
103,97,9178,2,0,P|31:118|-3:184,1,154.000004699707,0|0,0:0|3:0,0:0:0:0:
97,264,9786,2,0,L|88:188,1,77.0000023498536,8|0,0:0|0:0,0:0:0:0:
180,144,10191,6,0,L|189:220,1,77.0000023498536,2|0,0:0|0:0,0:0:0:0:
284,256,10597,2,0,L|275:180,1,77.0000023498536,8|0,0:0|0:0,0:0:0:0:
368,144,11002,2,0,P|438:171|508:144,1,154.000004699707,2|8,0:0|0:0,0:0:0:0:
504,44,11610,1,0,0:0:0:0:
412,8,11813,6,0,B|373:1|373:1|301:13,1,77.0000023498536,2|0,0:0|0:0,0:0:0:0:
292,96,12218,1,8,0:0:0:0:
196,72,12421,2,0,P|156:64|108:72,1,77.0000023498536,0|2,0:0|0:0,0:0:0:0:
44,136,12826,1,0,3:0:0:0:
44,136,13029,2,0,L|49:217,1,77.0000023498536,8|0,0:0|0:0,0:0:0:0:
156,224,13434,6,0,L|151:143,2,77.0000023498536,6|0|8,0:0|0:0|0:0,0:0:0:0:
198,310,14043,2,0,P|273:308|326:255,1,154.000004699707,6|2,0:0|0:0,0:0:0:0:
326,255,14651,1,8,0:0:0:0:
360,87,14853,1,2,3:2:0:0:
360,87,14955,1,0,3:0:0:0:
360,87,15056,6,0,L|368:164,1,77.0000023498536,2|0,0:0|0:0,0:0:0:0:
272,196,15461,1,12,0:0:0:0:
175,165,15664,2,0,P|105:195|70:262,1,154.000004699707,0|0,0:0|3:0,0:0:0:0:
48,360,16272,1,8,0:0:0:0:
143,330,16475,1,0,0:0:0:0:
238,359,16678,6,0,P|288:368|324:360,1,77.0000023498536,2|0,0:0|0:0,0:0:0:0:
353,253,17083,2,0,P|318:266|280:268,1,77.0000023498536,8|0,0:0|0:0,0:0:0:0:
297,169,17489,2,0,P|332:156|370:154,1,77.0000023498536,2|0,0:0|3:0,0:0:0:0:
464,192,17894,1,8,0:0:0:0:
449,291,18097,1,0,0:0:0:0:
368,354,18299,6,0,L|208:320,1,154.000004699707,6|8,0:0|0:0,0:0:0:0:
216,220,18907,1,6,0:0:0:0:
368,354,19313,1,2,3:2:0:0:
448,376,19516,1,8,0:0:0:0:
493,306,19718,6,0,B|508:256|508:256|480:152,1,154.000004699707,6|0,0:0|3:0,0:0:0:0:
362,138,20326,1,0,3:0:0:0:
412,205,20529,1,0,3:0:0:0:
430,89,20731,1,4,0:1:0:0:
65,150,21543,6,0,P|60:200|52:224,2,70,6|0|8,0:0|0:0|0:0,0:0:0:0:
108,76,22151,2,0,L|256:104,1,140,0|0,3:0|3:0,0:0:0:0:
220,184,22759,2,0,L|151:196,1,70,8|0,0:0|0:0,0:0:0:0:
96,260,23164,6,0,L|88:336,1,70,2|0,0:0|3:0,0:0:0:0:
168,296,23570,2,0,L|160:372,1,70,8|0,0:0|3:0,0:0:0:0:
240,332,23975,2,0,B|328:352|328:352|376:328,1,140,2|8,0:0|0:0,0:0:0:0:
457,165,24786,6,0,P|462:115|470:91,2,70,2|0|8,0:0|0:0|0:0,0:0:0:0:
414,239,25394,2,0,L|266:211,1,140,0|0,3:0|3:0,0:0:0:0:
302,131,26002,2,0,L|371:119,1,70,8|0,0:0|0:0,0:0:0:0:
448,156,26407,6,0,P|499:206|497:274,1,140,6|8,0:0|0:0,0:0:0:0:
416,312,27016,1,0,3:0:0:0:
416,312,27218,2,0,P|365:262|367:194,1,140,6|8,0:0|0:0,0:0:0:0:
244,120,28029,6,0,L|171:132,1,70,6|0,0:0|0:0,0:0:0:0:
101,80,28434,1,8,0:0:0:0:
92,170,28637,2,0,B|112:240|73:240|92:309,1,140,0|0,3:0|3:0,0:0:0:0:
168,360,29245,2,0,P|202:364|237:360,1,70,8|0,0:0|0:0,0:0:0:0:
320,320,29651,6,0,L|332:248,1,70,2|0,0:0|3:0,0:0:0:0:
244,276,30056,2,0,L|256:204,1,70,8|0,0:0|3:0,0:0:0:0:
167,232,30461,2,0,B|132:224|132:224|60:240|60:240|20:232,1,140,2|8,0:0|0:0,0:0:0:0:
140,84,31272,6,0,L|225:114,1,70,6|0,0:0|0:0,0:0:0:0:
292,140,31677,1,8,0:0:0:0:
363,81,31880,2,0,P|416:72|508:108,1,140,6|2,0:0|0:0,0:0:0:0:
512,188,32489,2,0,L|504:260,1,70,8|2,0:0|0:0,0:0:0:0:
428,308,32894,5,6,0:0:0:0:
428,308,33299,1,12,0:0:0:0:
428,308,33705,1,4,0:0:0:0:
84,76,34516,6,0,L|76:152,1,70,4|0,0:0|0:0,0:0:0:0:
180,124,34921,2,0,L|188:200,1,70,8|0,0:0|0:0,0:0:0:0:
88,228,35326,2,0,L|80:304,1,70,8|2,0:0|0:0,0:0:0:0:
88,316,35630,2,0,P|138:328|189:318,1,105,0|2,0:0|0:0,0:0:0:0:
284,272,36137,6,0,P|340:264|368:272,1,70,2|0,0:0|0:0,0:0:0:0:
392,364,36543,2,0,P|448:372|476:364,1,70,8|0,0:0|0:0,0:0:0:0:
432,268,36948,2,0,P|488:260|516:268,1,70,8|2,0:0|0:0,0:0:0:0:
508,244,37252,2,0,L|492:132,1,105,0|2,0:0|0:0,0:0:0:0:
388,128,37759,6,0,L|398:199,1,70,2|0,0:0|0:0,0:0:0:0:
304,152,38164,2,0,L|295:224,1,70,8|0,0:0|0:0,0:0:0:0:
216,153,38570,2,0,L|189:220,1,70,8|2,0:0|0:0,0:0:0:0:
130,131,38975,2,0,L|86:188,1,70,0|2,0:0|0:0,0:0:0:0:
52,87,39380,5,8,0:0:0:0:
8,184,39583,1,0,0:0:0:0:
70,270,39786,2,0,L|144:280,1,70,8|0,0:0|3:0,0:0:0:0:
183,182,40191,1,8,0:0:0:0:
290,172,40394,1,8,0:3:0:0:
353,259,40597,2,0,L|323:327,1,70,4|0,0:3|0:0,0:0:0:0:
212,356,41002,5,6,0:0:0:0:
212,356,41407,2,0,P|172:360|128:352,1,70,4|0,0:1|0:0,0:0:0:0:
64,284,41813,2,0,P|104:280|148:288,1,70,8|2,0:0|0:0,0:0:0:0:
152,276,42117,2,0,L|168:168,1,105,0|2,0:0|0:0,0:0:0:0:
272,152,42624,6,0,L|260:227,1,70,2|0,0:0|0:0,0:0:0:0:
352,172,43029,2,0,L|359:241,1,70,8|0,0:0|0:0,0:0:0:0:
434,170,43434,2,0,L|461:240,1,70,8|2,0:0|0:0,0:0:0:0:
448,251,43739,2,0,P|440:303|452:354,1,105,0|2,0:0|0:0,0:0:0:0:
348,368,44245,6,0,P|360:299|348:230,1,140,6|8,0:0|0:0,0:0:0:0:
272,280,44853,1,0,0:0:0:0:
191,238,45056,2,0,L|180:168,1,70,6|0,0:0|0:0,0:0:0:0:
267,188,45461,2,0,L|256:118,1,70,8|0,0:0|0:0,0:0:0:0:
354,68,45867,6,0,L|343:138,2,70,6|0|2,0:0|0:0|0:0,0:0:0:0:
261,8,46475,1,4,0:0:0:0:
20,52,47489,6,0,P|12:108|40:176,1,125.999996154785,6|2,0:0|0:0,0:0:0:0:
116,204,48097,1,0,0:0:0:0:
195,236,48299,2,0,P|218:293|211:355,1,125.999996154785,2|8,0:0|0:0,0:0:0:0:
128,380,48907,1,0,0:0:0:0:
46,356,49110,6,0,L|56:224,1,125.999996154785,2|0,0:0|3:0,0:0:0:0:
144,172,49718,1,2,0:0:0:0:
144,172,49921,2,0,L|153:297,1,125.999996154785,2|8,0:0|0:0,0:0:0:0:
352,372,50732,6,0,B|436:380|436:380|472:360,1,125.999996154785,2|0,0:0|3:0,0:0:0:0:
496,280,51340,1,2,0:0:0:0:
438,219,51543,2,0,L|368:232,1,62.9999980773926,2|0,0:0|0:0,0:0:0:0:
388,148,51948,2,0,L|318:161,1,62.9999980773926,8|0,0:0|0:0,0:0:0:0:
338,77,52353,6,0,B|256:92|256:92|224:128,1,125.999996154785,2|0,0:0|3:0,0:0:0:0:
260,200,52961,1,2,0:0:0:0:
260,200,53164,2,0,B|342:185|342:185|374:149,1,125.999996154785,2|8,0:0|0:0,0:0:0:0:
456,296,53975,6,0,L|464:364,2,62.9999980773926,6|0|0,0:0|0:0|0:0,0:0:0:0:
380,240,54583,1,0,0:0:0:0:
304,295,54785,1,8,0:0:0:0:
304,295,55191,6,0,L|312:363,2,62.9999980773926,6|0|0,0:0|0:0|0:0,0:0:0:0:
228,239,55799,1,0,0:0:0:0:
152,294,56002,2,0,P|112:300|72:288,1,62.9999980773926,8|0,0:0|0:0,0:0:0:0:
24,228,56407,2,0,B|4:164|44:164|26:103,1,125.999996154785,6|0,0:0|0:0,0:0:0:0:
80,24,57016,1,0,0:0:0:0:
172,48,57218,6,0,L|176:96,4,31.4999990386963,6|0|0|0|8,0:0|0:0|0:0|0:0|0:0,0:0:0:0:
348,208,58029,2,0,L|344:160,4,31.4999990386963,6|0|0|0|8,0:0|0:0|0:0|0:0|0:0,0:0:0:0:
212,31,58840,2,0,L|203:78,4,31.4999990386963,6|0|0|0|8,0:0|0:0|0:0|0:0|0:0,0:0:0:0:
307,224,59651,2,0,L|315:176,4,31.4999990386963,6|0|0|0|8,0:0|0:0|0:0|0:0|0:0,0:0:0:0:
168,336,61678,6,0,P|208:340|248:328,1,62.9999980773926,4|0,0:1|0:0,0:0:0:0:
295,191,62083,6,0,L|287:267,1,77.0000023498536,6|0,0:0|0:0,0:0:0:0:
372,324,62489,1,8,0:0:0:0:
444,256,62691,2,0,L|427:83,1,154.000004699707,0|0,3:0|3:0,0:0:0:0:
352,36,63299,2,0,P|312:32|276:40,1,77.0000023498536,8|0,0:0|3:0,0:0:0:0:
240,136,63705,6,0,P|202:143|164:139,1,77.0000023498536,2|0,0:0|0:0,0:0:0:0:
76,88,64110,1,8,0:0:0:0:
0,156,64312,1,0,3:0:0:0:
41,249,64516,2,0,P|111:275|182:250,1,154.000004699707,2|8,0:0|0:0,0:0:0:0:
236,164,65124,1,0,3:0:0:0:
280,252,65326,6,0,P|317:260|354:252,1,77.0000023498536,2|0,0:0|0:0,0:0:0:0:
440,200,65732,1,8,0:0:0:0:
349,166,65934,2,0,B|336:128|336:128|348:56|348:56|337:16,1,154.000004699707,0|0,3:0|3:0,0:0:0:0:
236,0,66543,2,0,L|160:16,1,77.0000023498536,8|0,0:0|3:0,0:0:0:0:
100,96,66948,5,6,0:0:0:0:
157,178,67150,1,0,3:0:0:0:
253,148,67353,1,8,0:0:0:0:
310,230,67556,2,0,P|384:239|446:195,1,154.000004699707,6|0,0:0|3:0,0:0:0:0:
445,195,68164,1,8,0:0:0:0:
368,60,68367,1,0,3:0:0:0:
368,60,68468,1,0,3:0:0:0:
368,60,68570,6,0,L|358:136,1,77.0000023498536,2|0,0:0|0:0,0:0:0:0:
280,200,68975,1,12,0:0:0:0:
200,140,69178,2,0,B|100:122|100:122|52:142,1,154.000004699707,0|0,3:0|3:0,0:0:0:0:
8,232,69786,2,0,P|0:269|7:306,1,77.0000023498536,8|0,0:0|3:0,0:0:0:0:
92,360,70191,6,0,L|168:320,1,77.0000023498536,2|0,0:0|0:0,0:0:0:0:
248,376,70597,2,0,L|289:310,1,77.0000023498536,8|0,0:0|3:0,0:0:0:0:
388,323,71002,2,0,P|371:250|308:210,1,154.000004699707,2|8,0:0|0:0,0:0:0:0:
220,256,71610,1,0,3:0:0:0:
136,204,71813,6,0,P|131:158|143:122,1,77.0000023498536,2|0,0:0|0:0,0:0:0:0:
196,48,72218,1,8,0:0:0:0:
284,92,72421,2,0,B|327:118|395:74|435:95,1,154.000004699707,0|0,3:0|3:0,0:0:0:0:
504,168,73029,1,8,0:0:0:0:
445,245,73232,6,0,B|404:266|336:222|293:248,1,154.000004699707,6|0,0:0|3:0,0:0:0:0:
294,247,73739,1,0,3:0:0:0:
294,247,73840,1,8,0:0:0:0:
224,320,74043,1,0,3:0:0:0:
151,250,74245,1,6,0:0:0:0:
221,177,74448,1,2,0:0:0:0:
151,250,74651,1,4,0:0:0:0:
367,135,75056,6,0,L|380:220,1,77.0000023498536,6|0,0:0|0:0,0:0:0:0:
312,288,75461,1,8,0:0:0:0:
229,232,75664,2,0,B|188:212|188:212|72:236,1,154.000004699707,0|0,3:0|3:0,0:0:0:0:
116,328,76272,2,0,L|191:313,1,77.0000023498536,8|0,0:0|3:0,0:0:0:0:
292,332,76678,6,0,P|300:284|292:244,1,77.0000023498536,2|0,0:0|0:0,0:0:0:0:
392,228,77083,2,0,P|364:202|329:187,1,77.0000023498536,8|0,0:0|3:0,0:0:0:0:
360,92,77489,2,0,P|318:114|210:94,1,154.000004699707,2|8,0:0|0:0,0:0:0:0:
132,44,78097,1,0,3:0:0:0:
44,92,78299,6,0,P|39:145|51:189,1,77.0000023498536,2|0,0:0|0:0,0:0:0:0:
120,236,78705,1,8,0:0:0:0:
188,163,78907,2,0,B|232:152|232:152|292:172|292:172|336:160,1,154.000004699707,0|0,3:0|3:0,0:0:0:0:
428,119,79516,2,0,P|465:111|502:119,1,77.0000023498536,8|0,0:0|3:0,0:0:0:0:
466,212,79921,5,6,0:0:0:0:
366,205,80123,1,0,3:0:0:0:
341,108,80326,1,8,0:0:0:0:
240,100,80529,2,0,P|164:111|120:173,1,154.000004699707,6|0,0:0|3:0,0:0:0:0:
120,170,81036,1,0,3:0:0:0:
120,170,81137,1,8,0:0:0:0:
222,268,81340,1,0,3:0:0:0:
222,268,81441,1,0,3:0:0:0:
222,268,81543,6,0,L|212:192,1,77.0000023498536,2|0,0:0|0:0,0:0:0:0:
232,92,81948,1,12,0:0:0:0:
333,77,82151,2,0,P|409:74|478:106,1,154.000004699707,0|0,3:0|3:0,0:0:0:0:
496,204,82759,2,0,L|488:284,1,77.0000023498536,8|0,0:0|3:0,0:0:0:0:
396,244,83164,6,0,L|388:167,1,77.0000023498536,2|0,0:0|0:0,0:0:0:0:
296,208,83570,2,0,L|304:285,1,77.0000023498536,8|0,0:0|3:0,0:0:0:0:
216,336,83975,2,0,L|208:259,1,77.0000023498536,2|0,0:0|3:0,0:0:0:0:
112,228,84380,1,8,0:0:0:0:
100,128,84583,1,0,3:0:0:0:
195,92,84786,6,0,L|368:116,1,154.000004699707,6|8,0:0|0:0,0:0:0:0:
355,215,85394,1,6,0:0:0:0:
195,92,85799,1,2,3:2:0:0:
118,28,86002,1,8,0:0:0:0:
53,105,86205,6,0,P|21:173|54:239,1,154.000004699707,6|0,0:0|3:0,0:0:0:0:
169,221,86813,1,0,3:0:0:0:
104,172,87016,1,0,3:0:0:0:
119,288,87219,1,4,0:1:0:0:
393,96,88029,6,0,L|404:176,2,70,6|0|8,0:0|0:0|0:0,0:0:0:0:
316,52,88637,2,0,P|232:80|176:72,1,140,0|0,3:0|3:0,0:0:0:0:
104,32,89245,1,8,0:0:0:0:
64,108,89448,1,0,0:0:0:0:
87,195,89651,6,0,L|108:276,1,70,2|0,0:0|3:0,0:0:0:0:
168,200,90056,2,0,L|240:242,1,70,8|0,0:0|3:0,0:0:0:0:
227,146,90461,2,0,P|296:135|365:146,1,140,2|8,0:0|0:0,0:0:0:0:
460,300,91272,6,0,L|471:220,2,70,2|0|8,0:0|0:0|0:0,0:0:0:0:
383,344,91880,2,0,P|299:316|243:324,1,140,0|0,3:0|3:0,0:0:0:0:
171,364,92488,1,8,0:0:0:0:
131,288,92691,1,0,0:0:0:0:
156,205,92894,6,0,B|244:192|244:192|304:204,1,140,6|8,0:0|0:0,0:0:0:0:
368,252,93502,1,0,3:0:0:0:
368,252,93705,2,0,B|418:262|418:262|506:249,1,140,6|8,0:0|0:0,0:0:0:0:
492,72,94516,6,0,L|413:82,1,70,6|0,0:0|0:0,0:0:0:0:
340,48,94921,1,8,0:0:0:0:
282,116,95124,2,0,P|244:132|148:112,1,140,0|0,3:0|3:0,0:0:0:0:
76,64,95732,1,8,0:0:0:0:
6,119,95935,1,0,0:0:0:0:
36,202,96137,6,0,P|40:240|36:276,1,70,2|0,0:0|3:0,0:0:0:0:
129,252,96543,2,0,P|123:287|112:320,1,70,8|0,0:0|3:0,0:0:0:0:
205,324,96948,2,0,B|244:348|304:308|342:324,1,140,2|8,0:0|0:0,0:0:0:0:
480,208,97759,6,0,L|468:132,1,70,6|0,0:0|0:0,0:0:0:0:
392,92,98164,1,8,0:0:0:0:
323,150,98367,2,0,B|284:166|224:126|185:150,1,140,6|2,0:0|0:0,0:0:0:0:
124,216,98975,1,8,0:0:0:0:
189,277,99177,1,2,0:0:0:0:
127,342,99380,5,6,0:0:0:0:
127,342,99786,1,12,0:0:0:0:
127,342,100191,1,4,0:0:0:0:
385,42,101002,6,0,L|392:120,1,70,4|0,0:0|0:0,0:0:0:0:
308,184,101407,2,0,L|301:106,1,70,8|0,0:0|0:0,0:0:0:0:
200,72,101813,2,0,P|164:68|96:92,2,105,8|0|8,0:0|0:0|0:0,0:0:0:0:
204,76,102522,1,0,0:0:0:0:
208,80,102624,6,0,L|201:149,1,70,2|0,0:0|0:0,0:0:0:0:
296,104,103029,2,0,L|300:173,1,70,8|0,0:0|0:0,0:0:0:0:
386,113,103434,2,0,L|401:181,1,70,8|2,0:0|0:0,0:0:0:0:
420,187,103739,2,0,P|470:175|521:185,1,105,0|8,0:0|0:0,0:0:0:0:
472,288,104245,6,0,L|400:308,1,70,2|0,0:0|0:0,0:0:0:0:
320,368,104651,2,0,L|252:349,1,70,8|0,0:0|0:0,0:0:0:0:
276,248,105056,2,0,L|204:268,1,70,8|2,0:0|0:0,0:0:0:0:
124,328,105462,2,0,L|56:309,1,70,0|2,0:0|0:0,0:0:0:0:
12,216,105867,6,0,P|4:176|8:136,1,70,8|0,0:0|0:0,0:0:0:0:
112,84,106272,2,0,P|120:124|116:164,1,70,8|0,0:0|3:0,0:0:0:0:
104,248,106678,1,8,0:0:0:0:
189,290,106881,1,8,0:3:0:0:
255,221,107083,2,0,P|290:215|324:221,1,70,4|0,0:3|0:0,0:0:0:0:
396,288,107489,5,6,0:0:0:0:
396,288,107894,2,0,L|384:368,1,70,4|0,0:1|0:0,0:0:0:0:
488,328,108299,2,0,L|477:258,1,70,2|2,0:0|0:0,0:0:0:0:
463,243,108603,2,0,P|423:212|371:211,1,105,0|2,0:0|0:0,0:0:0:0:
276,264,109110,6,0,P|220:272|184:260,1,70,2|0,0:0|0:0,0:0:0:0:
232,180,109516,2,0,P|179:158|154:130,1,70,8|0,0:0|0:0,0:0:0:0:
235,85,109921,2,0,P|200:40|192:3,1,70,2|2,0:0|0:0,0:0:0:0:
180,16,110225,2,0,L|72:36,1,105,0|2,0:0|0:0,0:0:0:0:
32,125,110732,6,0,L|169:150,1,140,6|8,0:0|0:0,0:0:0:0:
264,120,111340,1,0,0:0:0:0:
322,200,111543,2,0,P|328:244|320:280,1,70,6|0,0:0|0:0,0:0:0:0:
412,224,111948,2,0,P|406:180|414:144,1,70,8|0,0:0|0:0,0:0:0:0:
492,100,112353,5,6,0:0:0:0:
365,1,112556,1,0,0:0:0:0:
464,5,112758,1,2,0:0:0:0:
331,93,112961,1,4,0:0:0:0:
39,343,113975,6,0,P|101:356|162:344,1,125.999996154785,6|2,0:0|0:0,0:0:0:0:
232,296,114583,1,0,0:0:0:0:
301,247,114786,2,0,P|362:234|423:247,1,125.999996154785,2|8,0:0|0:0,0:0:0:0:
488,300,115394,1,0,0:0:0:0:
501,217,115597,6,0,B|504:180|504:180|492:132|492:132|499:93,1,125.999996154785,2|0,0:0|3:0,0:0:0:0:
444,32,116205,1,2,0:0:0:0:
382,86,116407,2,0,B|344:100|344:100|259:90,1,125.999996154785,2|8,0:0|0:0,0:0:0:0:
288,220,117218,6,0,B|326:206|326:206|410:215,1,125.999996154785,2|0,0:0|3:0,0:0:0:0:
456,284,117826,1,2,0:0:0:0:
387,329,118029,2,0,P|352:336|312:328,1,62.9999980773926,2|0,0:0|0:0,0:0:0:0:
248,304,118434,2,0,P|216:300|186:307,1,62.9999980773926,8|0,0:0|0:0,0:0:0:0:
112,344,118840,5,2,0:0:0:0:
53,284,119042,1,0,0:0:0:0:
91,210,119245,2,0,P|96:176|88:136,1,62.9999980773926,0|2,3:0|0:0,0:0:0:0:
144,84,119651,2,0,B|180:90|180:90|229:83|229:83|267:94,1,125.999996154785,2|8,0:0|0:0,0:0:0:0:
420,176,120461,5,6,0:0:0:0:
484,236,120664,1,0,0:0:0:0:
424,300,120867,1,0,0:0:0:0:
360,240,121070,2,0,L|296:232,1,62.9999980773926,0|8,0:0|0:0,0:0:0:0:
297,232,121678,5,6,0:0:0:0:
237,296,121881,1,0,0:0:0:0:
173,236,122084,1,0,0:0:0:0:
233,172,122287,2,0,L|241:108,1,62.9999980773926,0|8,0:0|0:0,0:0:0:0:
308,52,122691,1,0,0:0:0:0:
382,97,122894,2,0,P|402:156|384:216,1,125.999996154785,6|0,0:0|0:0,0:0:0:0:
328,284,123502,1,0,0:0:0:0:
260,227,123705,6,0,P|242:224|222:225,4,31.4999990386963,6|0|0|0|8,0:0|0:0|0:0|0:0|0:0,0:0:0:0:
372,68,124516,2,0,P|389:70|409:69,4,31.4999990386963,6|0|0|0|8,0:0|0:0|0:0|0:0|0:0,0:0:0:0:
268,224,125326,2,0,P|251:226|232:233,4,31.4999990386963,6|0|0|0|8,0:0|0:0|0:0|0:0|0:0,0:0:0:0:
363,70,126137,2,0,P|380:68|399:61,4,31.4999990386963,6|0|0|0|8,0:0|0:0|0:0|0:0|0:0,0:0:0:0:
181,266,128164,6,0,L|168:192,1,62.9999980773926,12|0,0:0|0:0,0:0:0:0:
252,72,128570,6,0,L|237:153,1,77.0000023498536,6|0,0:0|0:0,0:0:0:0:
307,204,128975,1,8,0:0:0:0:
375,147,129178,2,0,P|394:218|349:282,1,154.000004699707,0|0,3:0|3:0,0:0:0:0:
260,284,129786,2,0,L|184:264,1,77.0000023498536,8|0,0:0|3:0,0:0:0:0:
163,128,130191,6,0,L|237:147,1,77.0000023498536,2|0,0:0|0:0,0:0:0:0:
316,104,130597,2,0,L|390:123,1,77.0000023498536,8|0,0:0|3:0,0:0:0:0:
469,80,131002,2,0,B|496:152|440:196|440:196|428:248,1,154.000004699707,2|8,0:0|0:0,0:0:0:0:
420,308,131610,1,0,3:0:0:0:
336,332,131813,6,0,P|334:294|347:258,1,77.0000023498536,2|0,0:0|0:0,0:0:0:0:
384,176,132218,1,8,0:0:0:0:
320,116,132421,2,0,L|160:130,1,154.000004699707,0|0,3:0|3:0,0:0:0:0:
156,216,133029,2,0,L|233:223,1,77.0000023498536,8|0,0:0|3:0,0:0:0:0:
284,296,133434,5,6,0:0:0:0:
360,252,133637,1,0,3:0:0:0:
316,176,133840,1,8,0:0:0:0:
384,120,134043,2,0,P|427:112|499:184,1,154.000004699707,6|0,0:0|3:0,0:0:0:0:
498,183,134651,1,8,0:0:0:0:
463,331,134853,1,0,3:0:0:0:
463,331,134955,1,0,3:0:0:0:
463,331,135056,6,0,L|448:256,1,77.0000023498536,2|0,0:0|0:0,0:0:0:0:
364,224,135461,1,12,0:0:0:0:
308,292,135664,2,0,B|274:317|194:277|157:298,1,154.000004699707,0|0,3:0|3:0,0:0:0:0:
76,332,136272,1,8,0:0:0:0:
84,244,136475,1,0,3:0:0:0:
168,216,136678,6,0,L|170:139,1,77.0000023498536,2|0,0:0|0:0,0:0:0:0:
251,201,137083,2,0,L|249:277,1,77.0000023498536,8|0,0:0|3:0,0:0:0:0:
330,341,137489,2,0,B|331:231|331:231|351:191,1,154.000004699707,2|8,0:0|0:0,0:0:0:0:
424,140,138097,1,0,3:0:0:0:
368,72,138299,6,0,P|319:67|283:79,1,77.0000023498536,2|0,0:0|0:0,0:0:0:0:
212,112,138705,1,8,0:0:0:0:
212,200,138907,2,0,B|248:221|328:181|363:205,1,154.000004699707,0|0,3:0|3:0,0:0:0:0:
440,248,139516,1,8,0:0:0:0:
496,180,139718,6,0,L|463:24,1,154.000004699707,6|0,0:0|3:0,0:0:0:0:
464,29,140225,1,0,3:0:0:0:
464,29,140326,1,8,0:0:0:0:
371,0,140529,1,0,3:0:0:0:
341,93,140732,1,6,0:0:0:0:
434,122,140934,1,2,0:0:0:0:
341,93,141137,1,4,0:0:0:0:
162,291,141543,6,0,P|116:300|76:292,1,77.0000023498536,6|0,0:0|0:0,0:0:0:0:
28,228,141948,1,8,0:0:0:0:
72,152,142151,2,0,B|126:135|126:135|238:155,1,154.000004699707,0|0,3:0|3:0,0:0:0:0:
248,236,142759,2,0,L|172:221,1,77.0000023498536,8|0,0:0|3:0,0:0:0:0:
88,248,143164,5,2,0:0:0:0:
116,332,143367,1,0,0:0:0:0:
195,371,143570,2,0,P|240:376|270:357,1,77.0000023498536,8|0,0:0|3:0,0:0:0:0:
344,304,143975,2,0,P|272:260|200:312,1,154.000004699707,2|8,0:0|0:0,0:0:0:0:
128,304,144583,1,0,3:0:0:0:
83,226,144785,6,0,L|74:144,2,77.0000023498536,2|0|8,0:0|0:0|0:0,0:0:0:0:
172,216,145394,2,0,L|189:54,1,154.000004699707,0|0,3:0|3:0,0:0:0:0:
256,4,146002,1,8,0:0:0:0:
320,64,146204,1,0,3:0:0:0:
292,148,146407,6,0,P|284:185|292:229,1,77.0000023498536,6|0,0:0|3:0,0:0:0:0:
364,276,146813,1,8,0:0:0:0:
440,232,147016,2,0,P|451:157|435:82,1,154.000004699707,6|0,0:0|3:0,0:0:0:0:
434,81,147522,1,0,3:0:0:0:
434,81,147624,1,8,0:0:0:0:
360,21,147826,1,0,3:0:0:0:
360,21,147928,1,0,3:0:0:0:
360,21,148029,6,0,L|284:36,1,77.0000023498536,2|0,0:0|0:0,0:0:0:0:
248,116,148434,1,12,0:0:0:0:
308,180,148637,2,0,L|474:146,1,154.000004699707,0|0,3:0|3:0,0:0:0:0:
412,72,149245,2,0,L|336:87,1,77.0000023498536,8|0,0:0|3:0,0:0:0:0:
228,64,149650,6,0,P|189:56|151:65,1,77.0000023498536,2|0,0:0|0:0,0:0:0:0:
152,151,150056,2,0,P|119:174|99:207,1,77.0000023498536,8|0,0:0|3:0,0:0:0:0:
184,236,150461,2,0,P|236:240|275:232,1,77.0000023498536,2|0,0:0|3:0,0:0:0:0:
340,196,150867,1,8,0:0:0:0:
388,272,151069,1,0,3:0:0:0:
457,215,151272,6,0,L|472:56,1,154.000004699707,6|8,0:0|0:0,0:0:0:0:
372,30,151880,1,6,0:0:0:0:
457,215,152286,1,2,3:2:0:0:
388,272,152489,1,8,0:0:0:0:
319,215,152691,6,0,B|224:192|224:192|164:212,1,154.000004699707,6|0,0:0|3:0,0:0:0:0:
147,335,153299,1,0,3:0:0:0:
222,282,153502,1,0,3:0:0:0:
95,261,153705,1,4,0:1:0:0:
330,46,154516,6,0,L|348:193,1,140,2|8,0:0|0:0,0:0:0:0:
347,184,155022,1,0,0:0:0:0:
347,184,155124,1,0,0:0:0:0:
272,244,155326,2,0,P|238:252|203:247,1,70,2|0,0:0|0:0,0:0:0:0:
204,152,155732,2,0,P|238:146|272:155,1,70,8|0,0:0|0:0,0:0:0:0:
347,184,156137,6,0,B|443:196|443:196|484:181,1,140,2|8,0:0|0:0,0:0:0:0:
508,104,156745,1,0,0:0:0:0:
424,68,156948,1,2,0:0:0:0:
412,76,157353,1,8,0:0:0:0:
400,84,157759,6,0,P|332:101|265:84,1,140,6|8,0:0|0:0,0:0:0:0:
265,84,158266,1,0,0:0:0:0:
265,84,158367,1,0,0:0:0:0:
167,47,158570,2,0,P|124:40|84:56,1,70,2|0,0:0|0:0,0:0:0:0:
20,116,158975,2,0,L|24:152,2,35,8|0|0,0:0|0:0|0:0,0:0:0:0:
68,28,159380,5,2,0:0:0:0:
167,47,159583,2,0,P|200:56|244:48,1,70,0|8,0:0|0:0,0:0:0:0:
252,40,159887,2,0,P|286:35|320:44,1,70,0|0,0:0|0:0,0:0:0:0:
336,56,160191,2,0,L|324:160,2,105,2|0|0,0:0|0:0|0:0,0:0:0:0:
444,88,161002,6,0,L|455:192,1,105,6|0,0:0|0:0,0:0:0:0:
384,280,161509,2,0,L|376:227,1,35,0|0,0:0|0:0,0:0:0:0:
287,228,161813,2,0,L|212:244,1,70,2|0,0:0|0:0,0:0:0:0:
236,152,162218,2,0,L|159:148,1,70,8|0,0:0|0:0,0:0:0:0:
205,65,162624,6,0,P|275:69|323:123,1,140,2|8,0:0|0:0,0:0:0:0:
392,176,163232,1,0,0:0:0:0:
468,128,163435,1,2,0:0:0:0:
476,140,163840,1,8,0:0:0:0:
484,152,164245,6,0,P|492:200|488:232,1,70,2|0,0:0|0:0,0:0:0:0:
412,296,164651,2,0,P|404:248|408:216,1,70,8|0,0:0|0:0,0:0:0:0:
312,172,165056,2,0,P|320:220|316:252,1,70,2|0,0:0|0:0,0:0:0:0:
240,316,165462,2,0,P|232:268|236:236,1,70,8|0,0:0|0:0,0:0:0:0:
140,192,165867,5,2,0:0:0:0:
139,191,166070,2,0,L|36:211,1,105,0|0,0:0|0:0,0:0:0:0:
120,96,166678,2,0,L|228:116,1,105,2|0,0:0|0:0,0:0:0:0:
232,132,167083,1,8,0:0:0:0:
311,191,167286,1,0,3:0:0:0:
311,191,167387,1,0,3:0:0:0:
311,191,167489,6,0,P|363:198|415:190,1,105,6|0,0:0|0:0,0:0:0:0:
465,93,167995,2,0,L|472:128,1,35,0|0,0:0|0:0,0:0:0:0:
498,208,168299,2,0,L|512:280,1,70,2|0,0:0|0:0,0:0:0:0:
428,264,168705,2,0,L|422:337,1,70,8|0,0:0|0:0,0:0:0:0:
345,299,169110,6,0,P|308:316|208:300,1,140,2|8,0:0|0:0,0:0:0:0:
148,248,169718,1,0,0:0:0:0:
84,304,169921,1,2,0:0:0:0:
72,312,170326,1,8,0:0:0:0:
60,320,170732,6,0,L|40:232,1,70,2|0,0:0|0:0,0:0:0:0:
152,200,171137,2,0,L|136:268,1,70,8|0,0:0|0:0,0:0:0:0:
248,312,171543,2,0,L|228:224,1,70,2|0,0:0|0:0,0:0:0:0:
340,192,171948,2,0,L|324:260,1,70,8|0,0:0|0:0,0:0:0:0:
436,304,172353,5,2,0:0:0:0:
436,304,172556,2,0,L|458:201,1,105,0|0,0:0|0:0,0:0:0:0:
316,224,173164,2,0,L|338:326,1,105,2|0,0:0|0:0,0:0:0:0:
324,340,173570,1,8,0:0:0:0:
240,372,173772,1,0,3:0:0:0:
183,313,173975,6,0,P|176:276|180:244,1,62.9999980773926,6|0,0:0|0:0,0:0:0:0:
240,176,174380,1,0,3:0:0:0:
335,191,174583,1,0,0:0:0:0:
369,281,174785,1,8,0:0:0:0:
369,281,175191,6,0,P|340:305|310:318,1,62.9999980773926,6|0,0:0|0:0,0:0:0:0:
221,300,175596,1,0,3:0:0:0:
187,210,175799,1,0,0:0:0:0:
248,135,176001,1,8,0:0:0:0:
248,135,176407,2,0,L|376:144,1,125.999996154785,6|0,0:0|3:0,0:0:0:0:
328,240,177016,6,0,L|200:231,1,125.999996154785,6|0,0:0|0:0,0:0:0:0:
120,272,177624,1,8,0:0:0:0:
133,362,177827,1,0,0:0:0:0:
223,377,178029,2,0,P|268:380|304:372,2,62.9999980773926,2|0|8,0:0|0:0|0:0,0:0:0:0:
133,362,178637,6,0,L|144:234,1,125.999996154785,0|0,0:0|3:0,0:0:0:0:
197,161,179245,1,8,0:0:0:0:
284,188,179448,1,0,3:0:0:0:
285,279,179651,2,0,P|284:320|292:356,1,62.9999980773926,2|8,0:0|0:3,0:0:0:0:
376,320,180056,2,0,P|377:279|369:243,1,62.9999980773926,4|0,0:3|3:0,0:0:0:0:
309,190,180461,6,0,P|304:156|306:121,2,70,6|0|0,0:0|0:0|3:0,0:0:0:0:
260,260,181070,2,0,P|196:285|132:258,1,140,6|6,0:0|0:0,0:0:0:0:
68,196,181678,1,0,0:0:0:0:
68,196,181880,1,2,0:0:0:0:
64,104,182083,6,0,L|56:24,1,70,6|0,0:0|0:0,0:0:0:0:
148,76,182489,2,0,L|160:-3,1,70,0|0,0:0|0:0,0:0:0:0:
236,70,182894,1,0,0:0:0:0:
236,70,183299,2,0,L|223:149,1,70,4|0,0:1|0:0,0:0:0:0:
308,268,183705,6,0,L|297:192,1,77.0000023498536,6|0,0:0|0:0,0:0:0:0:
372,124,184110,1,8,0:0:0:0:
468,148,184313,2,0,L|441:317,1,154.000004699707,0|0,3:0|3:0,0:0:0:0:
364,360,184921,2,0,P|320:368|288:360,1,77.0000023498536,8|0,0:0|3:0,0:0:0:0:
204,308,185326,5,6,0:0:0:0:
118,360,185529,2,0,P|80:367|43:359,1,77.0000023498536,0|8,3:0|0:0,0:0:0:0:
4,268,185934,2,0,B|-8:160|-8:160|7:117,1,154.000004699707,6|0,0:0|3:0,0:0:0:0:
7,117,186543,1,8,0:0:0:0:
184,24,186948,6,0,P|221:16|259:21,1,77.0000023498536,2|0,0:0|0:0,0:0:0:0:
336,84,187353,1,12,0:0:0:0:
273,160,187556,2,0,L|260:316,1,154.000004699707,0|0,3:0|3:0,0:0:0:0:
176,260,188164,2,0,L|169:183,1,77.0000023498536,8|0,0:0|3:0,0:0:0:0:
88,124,188570,5,2,0:0:0:0:
28,205,188773,1,0,0:0:0:0:
100,274,188975,2,0,L|175:259,1,77.0000023498536,8|0,0:0|3:0,0:0:0:0:
220,348,189380,2,0,L|295:363,1,77.0000023498536,2|0,0:0|3:0,0:0:0:0:
388,320,189786,1,8,0:0:0:0:
375,218,189989,1,0,3:0:0:0:
274,198,190191,6,0,P|216:192|164:204,2,77.0000023498536,2|0|8,0:0|0:0|0:0,0:0:0:0:
308,292,190799,2,0,B|413:321|413:321|473:301,1,154.000004699707,0|0,3:0|3:0,0:0:0:0:
512,224,191407,1,8,0:0:0:0:
464,136,191610,6,0,B|359:107|359:107|299:127,1,154.000004699707,6|0,0:0|3:0,0:0:0:0:
316,121,192117,1,0,3:0:0:0:
316,121,192218,1,8,0:0:0:0:
244,188,192421,1,0,3:0:0:0:
177,115,192624,1,6,0:0:0:0:
249,48,192826,1,2,0:0:0:0:
177,115,193029,1,4,0:0:0:0:
373,243,193434,6,0,L|384:332,1,77.0000023498536,6|8,0:0|0:0,0:0:0:0:
316,372,193840,1,2,0:0:0:0:
237,340,194043,2,0,P|200:332|144:344,1,77.0000023498536,8|2,0:0|0:0,0:0:0:0:
80,364,194448,2,0,P|41:368|4:360,1,77.0000023498536,8|2,0:0|0:0,0:0:0:0:
44,284,194853,1,8,0:0:0:0:
83,207,195056,6,0,L|164:220,1,77.0000023498536,2|8,0:0|0:0,0:0:0:0:
180,136,195461,2,0,L|261:149,1,77.0000023498536,2|8,0:0|0:0,0:0:0:0:
276,232,195867,1,2,0:0:0:0:
358,256,196070,2,0,L|409:192,1,77.0000023498536,8|2,0:0|0:0,0:0:0:0:
386,112,196475,1,8,0:0:0:0:
303,87,196678,6,0,P|256:80|208:92,1,77.0000023498536,2|8,0:0|0:0,0:0:0:0:
148,136,197083,1,2,0:0:0:0:
172,227,197286,2,0,P|180:272|172:312,1,77.0000023498536,8|2,0:0|0:0,0:0:0:0:
264,272,197691,2,0,P|256:227|264:187,1,77.0000023498536,8|2,0:0|0:0,0:0:0:0:
344,152,198097,1,8,0:0:0:0:
427,196,198300,5,6,0:0:0:0:
430,289,198502,1,8,0:0:0:0:
347,244,198705,1,8,0:3:0:0:
350,337,198907,2,0,P|312:352|268:348,1,77.0000023498536,12|2,0:0|0:0,0:0:0:0:
196,304,199313,1,8,0:0:0:0:
196,304,199516,2,0,P|157:302|122:317,1,77.0000023498536,2|8,3:2|0:0,0:0:0:0:
28,284,199921,6,0,L|16:188,1,77.0000023498536,2|8,0:0|0:0,0:0:0:0:
68,120,200326,1,6,0:0:0:0:
166,140,200529,2,0,P|224:148|264:136,1,77.0000023498536,8|2,0:0|0:0,0:0:0:0:
324,88,200934,2,0,P|362:84|399:92,1,77.0000023498536,8|2,0:0|0:0,0:0:0:0:
476,160,201340,1,8,0:0:0:0:
379,192,201543,6,0,L|296:176,1,77.0000023498536,2|8,0:0|0:0,0:0:0:0:
240,256,201948,2,0,L|323:272,1,77.0000023498536,2|8,0:0|0:0,0:0:0:0:
253,350,202353,1,2,0:0:0:0:
158,362,202556,2,0,L|75:346,1,77.0000023498536,8|2,0:0|0:0,0:0:0:0:
32,260,202961,1,8,0:0:0:0:
99,185,203164,5,6,0:0:0:0:
188,248,203367,1,2,0:0:0:0:
287,202,203570,1,8,0:0:0:0:
376,265,203772,2,0,P|452:280|520:240,1,154.000004699707,6|2,0:0|3:2,0:0:0:0:
496,140,204380,1,8,0:0:0:0:
496,140,204583,6,0,P|420:125|352:165,1,154.000004699707,6|0,0:0|3:0,0:0:0:0:
331,311,205192,1,0,3:0:0:0:
418,247,205394,1,0,3:0:0:0:
268,224,205597,1,4,0:1:0:0:
136,356,206002,1,0,0:0:0:0:
106,361,206103,1,0,0:0:0:0:
78,359,206204,1,0,0:0:0:0:
50,350,206306,1,0,0:0:0:0:
26,335,206407,6,0,L|16:192,1,125.999996154785,6|8,0:0|0:0,0:0:0:0:
100,116,207016,2,0,L|110:259,1,125.999996154785,6|8,0:0|0:0,0:0:0:0:
208,316,207624,2,0,L|198:173,1,125.999996154785,6|8,0:0|0:0,0:0:0:0:
282,97,208233,2,0,L|290:222,1,125.999996154785,6|0,0:0|0:0,0:0:0:0:
367,321,208840,1,6,0:0:0:0:
465,244,209042,1,0,3:0:0:0:
388,145,209245,1,8,0:0:0:0:
367,321,209651,5,6,0:0:0:0:
256,192,209752,12,0,212894,0:0:0:0:
