osu file format v14

[General]
AudioFilename: friend shitai.mp3
AudioLeadIn: 0
PreviewTime: 62083
Countdown: 0
SampleSet: Soft
StackLeniency: 0.7
Mode: 0
LetterboxInBreaks: 0
WidescreenStoryboard: 0

[Editor]
DistanceSpacing: 0.9
BeatDivisor: 4
GridSize: 4
TimelineZoom: 1

[Metadata]
Title:Friend Shitai
TitleUnicode:ふ・れ・ん・ど・し・た・い
Artist:Gakuen Seikatsu-bu
ArtistUnicode:学園生活部
Creator:Doormat
Version:Easy
Source:がっこうぐらし!
Tags:CloudSplash16 Little gakkou gurashi school live school-live op opening full size living club takeya yuki 丈槍由紀 minase inori 水瀬いのり ebisuzawa kurumi 恵飛須沢胡桃 ozawa ari 小澤亜李 wakasa yuuri 若狭悠里 ichimichi mao M·A·O 市道真央 naoki miki 直樹美紀 takahashi rie 高橋李依
BeatmapID:808027
BeatmapSetID:368566

[Difficulty]
HPDrainRate:2
CircleSize:3
OverallDifficulty:2
ApproachRate:3
SliderMultiplier:1
SliderTickRate:1

[Events]
//Background and Video events
0,0,"gakkou_background1.jpg",0,0
//Break Periods
2,154516,159562
2,180661,182264
//Storyboard Layer 0 (Background)
//Storyboard Layer 1 (Fail)
//Storyboard Layer 2 (Pass)
//Storyboard Layer 3 (Foreground)
//Storyboard Sound Samples

[TimingPoints]
462,405.405405405405,4,2,1,50,1,0
1272,-100,4,2,1,55,0,0
2083,-100,4,2,1,60,0,0
2894,-100,4,2,1,65,0,0
3705,-100,4,2,1,70,0,0
4516,-100,4,2,1,75,0,0
5326,-100,4,2,1,80,0,0
6137,-100,4,2,1,85,0,0
8570,-100,4,2,1,80,0,1
21543,-100,4,2,1,70,0,0
34516,-100,4,2,2,65,0,0
39380,-100,4,2,1,70,0,0
41002,-100,4,2,2,65,0,0
47489,-100,4,2,1,70,0,0
58029,-100,4,2,1,75,0,0
58840,-100,4,2,1,80,0,0
59651,-100,4,2,1,85,0,0
62083,-100,4,2,1,80,0,1
74245,-100,4,2,1,85,0,0
75056,-100,4,2,1,80,0,1
88029,-100,4,2,1,70,0,0
101002,-100,4,2,2,65,0,0
105867,-100,4,2,1,70,0,0
107489,-100,4,2,2,65,0,0
113975,-100,4,2,1,70,0,0
124516,-100,4,2,1,75,0,0
125326,-100,4,2,1,80,0,0
126137,-100,4,2,1,85,0,0
128570,-100,4,2,1,80,0,1
140732,-100,4,2,1,85,0,0
141543,-100,4,2,1,80,0,1
154516,-100,4,2,1,60,0,0
161002,-100,4,2,1,70,0,0
167489,-100,4,2,1,75,0,0
180461,-100,4,2,1,80,0,0
183705,-100,4,2,1,85,0,1
192624,-100,4,2,1,90,0,0
193434,-100,4,2,1,85,0,1
206407,-100,4,2,1,75,0,0
209651,-100,4,2,1,90,0,0
210461,-100,4,2,1,80,0,0
211272,-100,4,2,1,60,0,0
212083,-100,4,2,1,30,0,0
212894,-100,4,2,1,10,0,0

[Colours]
Combo1 : 134,133,76
Combo2 : 231,172,168
Combo3 : 135,106,154
Combo4 : 157,104,98

[HitObjects]
124,264,462,5,2,0:0:0:0:
168,88,1272,1,2,0:0:0:0:
348,75,2083,1,2,0:0:0:0:
415,243,2894,1,2,0:0:0:0:
274,359,3705,6,0,P|180:353|146:265,1,200,6|6,0:0|0:0,0:0:0:0:
244,116,5326,2,0,P|338:121|372:209,1,200,6|6,0:0|0:0,0:0:0:0:
124,304,8164,5,4,0:1:0:0:
44,264,8570,6,0,B|52:156|52:156|96:112,2,150,6|0|8,0:0|0:0|0:0,0:0:0:0:
124,304,10191,2,0,L|132:200,1,100,2|8,0:0|0:0,0:0:0:0:
208,152,11002,2,0,P|254:168|301:153,1,100,2|8,0:0|0:0,0:0:0:0:
372,100,11813,6,0,P|436:76|512:96,2,150,2|0|8,0:0|0:0|0:0,0:0:0:0:
301,152,13434,2,0,L|313:308,1,150,6|6,0:0|0:0,0:0:0:0:
228,268,14448,2,0,L|224:206,1,50,2|8,0:0|0:0,0:0:0:0:
168,148,15056,6,0,P|101:179|31:149,2,150,2|0|8,0:0|0:0|0:0,0:0:0:0:
232,88,16678,1,2,0:0:0:0:
251,173,17083,2,0,L|256:272,2,100,8|2|8,0:0|0:0|0:0,0:0:0:0:
315,112,18299,6,0,P|382:81|452:111,1,150,6|6,0:0|0:0,0:0:0:0:
384,172,19313,2,0,L|383:225,2,50,2|8|6,3:2|0:0|0:0,0:0:0:0:
124,156,21543,6,0,B|127:305,2,150,6|0|8,0:0|3:0|0:0,0:0:0:0:
187,92,23164,2,0,P|236:73|284:82,2,100,2|8|2,0:0|0:0|0:0,0:0:0:0:
244,164,24380,1,8,0:0:0:0:
316,218,24786,6,0,P|254:254|184:232,2,150,2|0|8,0:0|3:0|0:0,0:0:0:0:
364,144,26407,2,0,L|356:36,1,100,6|8,0:0|0:0,0:0:0:0:
444,72,27218,2,0,L|451:171,1,100,6|8,0:0|0:0,0:0:0:0:
382,231,28029,6,0,P|457:262|518:234,2,150,6|0|8,0:0|3:0|0:0,0:0:0:0:
308,180,29651,2,0,P|259:160|211:170,2,100,2|8|2,0:0|0:0|0:0,0:0:0:0:
251,251,30867,1,8,0:0:0:0:
179,306,31273,6,0,P|241:342|310:319,2,150,6|0|8,0:0|0:0|0:0,0:0:0:0:
112,248,32894,2,0,L|124:144,2,100,6|12|4,0:0|0:0|0:0,0:0:0:0:
268,156,34515,6,0,P|359:181|424:111,2,200,4|8|2,0:0|0:0|0:0,0:0:0:0:
211,87,36543,1,8,0:0:0:0:
129,119,36948,2,0,L|120:240,1,100,8|0,0:0|0:0,0:0:0:0:
36,244,37759,6,0,L|29:144,2,100,2|8|8,0:0|0:0|0:0,0:0:0:0:
100,305,38974,1,0,0:0:0:0:
163,244,39380,2,0,P|213:236|260:249,1,100,8|8,0:0|0:0,0:0:0:0:
323,311,40191,2,0,P|371:325|420:317,1,100,8|4,0:0|0:3,0:0:0:0:
500,272,41002,6,0,L|494:168,1,100,6|4,0:0|0:1,0:0:0:0:
416,224,41813,2,0,L|410:124,2,100,8|0|2,0:0|0:0|0:0,0:0:0:0:
420,317,43029,1,8,0:0:0:0:
340,270,43434,2,0,P|291:262|244:280,1,100,8|0,0:0|0:0,0:0:0:0:
160,312,44245,6,0,P|113:329|61:321,2,100,6|8|6,0:0|0:0|0:0,0:0:0:0:
104,244,45461,1,8,0:0:0:0:
34,185,45867,2,0,P|99:153|168:179,2,150,6|4|0,0:0|0:0|0:0,0:0:0:0:
104,244,47489,6,0,P|170:311|264:290,1,200,6|2,0:0|0:0,0:0:0:0:
352,264,48705,1,8,0:0:0:0:
429,306,49110,2,0,P|479:294|510:258,2,100,2|0|2,0:0|3:0|0:0,0:0:0:0:
352,264,50326,1,8,0:0:0:0:
427,214,50732,6,0,P|345:173|267:236,1,200,2|2,0:0|0:0,0:0:0:0:
240,320,51948,1,8,0:0:0:0:
166,267,52353,2,0,P|116:279|85:315,2,100,2|0|2,0:0|3:0|0:0,0:0:0:0:
240,320,53570,1,8,0:0:0:0:
314,373,53975,6,0,P|409:360|450:274,1,200,6|8,0:0|0:0,0:0:0:0:
400,200,55191,2,0,P|304:212|263:298,1,200,6|8,0:0|0:0,0:0:0:0:
183,344,56407,2,0,P|134:352|85:343,1,100,6|0,0:0|0:0,0:0:0:0:
20,284,57218,6,0,L|4:84,1,200,6|6,0:0|0:0,0:0:0:0:
172,156,58840,2,0,L|156:356,1,200,6|6,0:0|0:0,0:0:0:0:
364,28,61678,5,4,0:1:0:0:
436,80,62083,6,0,L|448:240,2,150,6|0|8,0:0|3:0|0:0,0:0:0:0:
364,28,63705,1,2,0:0:0:0:
292,80,64110,2,0,P|256:96|180:80,1,100,8|2,0:0|0:0,0:0:0:0:
124,36,64921,1,8,0:0:0:0:
113,125,65326,6,0,L|101:285,2,150,2|0|8,0:0|3:0|0:0,0:0:0:0:
196,89,66948,2,0,P|269:79|326:124,1,150,6|6,0:0|0:0,0:0:0:0:
356,208,67961,2,0,L|360:272,1,50,0|8,3:0|0:0,0:0:0:0:
312,335,68570,6,0,P|242:360|173:336,2,150,2|0|8,0:0|3:0|0:0,0:0:0:0:
384,280,70191,2,0,L|392:180,1,100,2|8,0:0|0:0,0:0:0:0:
308,144,71002,2,0,L|300:244,1,100,2|8,0:0|0:0,0:0:0:0:
216,208,71813,6,0,B|225:99|225:99|261:51,1,150,2|0,0:0|3:0,0:0:0:0:
324,20,72826,2,0,L|388:16,2,50,0|8|6,3:0|0:0|0:0,0:0:0:0:
374,240,74245,2,0,L|324:236,2,50,6|2|4,0:0|0:0|0:0,0:0:0:0:
432,307,75056,6,0,P|464:252|432:170,2,150,6|0|8,0:0|3:0|0:0,0:0:0:0:
364,364,76678,1,2,0:0:0:0:
280,333,77083,2,0,P|257:324|169:342,1,100,8|2,0:0|0:0,0:0:0:0:
104,372,77894,1,8,0:0:0:0:
33,316,78299,6,0,L|24:164,2,150,2|0|8,0:0|3:0|0:0,0:0:0:0:
116,286,79921,2,0,P|183:256|249:285,1,150,6|6,0:0|0:0,0:0:0:0:
303,359,80934,2,0,P|328:362|353:358,1,50,0|8,3:0|0:0,0:0:0:0:
436,324,81543,6,0,L|445:172,2,150,2|0|8,0:0|3:0|0:0,0:0:0:0:
352,358,83164,2,0,P|305:373|258:357,1,100,2|8,0:0|0:0,0:0:0:0:
187,303,83975,2,0,P|141:288|94:303,1,100,2|8,0:0|0:0,0:0:0:0:
31,367,84786,6,0,P|5:293|39:232,1,150,6|6,0:0|0:0,0:0:0:0:
120,200,85799,2,0,L|180:196,2,50,2|8|6,3:2|0:0|0:0,0:0:0:0:
340,196,88029,6,0,P|396:172|492:208,2,150,6|0|8,0:0|3:0|0:0,0:0:0:0:
268,248,89651,1,2,0:0:0:0:
196,195,90056,1,8,0:0:0:0:
124,246,90461,2,0,P|75:256|27:243,1,100,2|8,0:0|0:0,0:0:0:0:
0,156,91272,6,0,B|4:54|4:54|30:13,2,150,2|0|8,0:0|3:0|0:0,0:0:0:0:
82,191,92894,2,0,L|85:85,1,100,6|8,0:0|0:0,0:0:0:0:
171,116,93705,2,0,L|167:215,1,100,6|8,0:0|0:0,0:0:0:0:
235,277,94516,6,0,P|168:306|101:276,2,150,6|0|8,0:0|3:0|0:0,0:0:0:0:
308,224,96137,1,2,0:0:0:0:
344,308,96543,1,8,0:0:0:0:
426,268,96948,2,0,P|436:219|423:172,1,100,2|8,0:0|0:0,0:0:0:0:
356,112,97759,6,0,P|337:44|395:3,2,150,6|6|8,0:0|0:0|0:0,0:0:0:0:
412,180,99380,2,0,L|513:168,2,100,6|12|4,0:0|0:0|0:0,0:0:0:0:
276,296,101002,6,0,P|185:321|120:251,2,200,4|8|2,0:0|0:0|0:0,0:0:0:0:
345,240,103029,1,8,0:0:0:0:
313,157,103434,2,0,P|303:108|316:60,1,100,8|0,0:0|0:0,0:0:0:0:
381,0,104245,6,0,L|485:16,2,100,2|8|8,0:0|0:0|0:0,0:0:0:0:
316,60,105461,1,0,0:0:0:0:
250,120,105867,2,0,P|200:122|156:101,1,100,8|8,0:0|0:0,0:0:0:0:
93,40,106678,2,0,P|45:18|-5:23,1,100,8|4,0:0|0:3,0:0:0:0:
29,108,107489,6,0,L|37:212,1,100,6|4,0:0|0:1,0:0:0:0:
116,164,108299,2,0,L|124:268,2,100,2|8|2,0:0|0:0|0:0,0:0:0:0:
152,80,109516,1,8,0:0:0:0:
206,153,109921,2,0,P|256:164|300:144,1,100,2|8,0:0|0:0,0:0:0:0:
364,84,110732,6,0,P|409:64|457:75,2,100,6|8|6,0:0|0:0|0:0,0:0:0:0:
299,144,111948,1,8,0:0:0:0:
336,223,112353,2,0,P|263:223|215:168,2,150,6|4|0,0:0|0:0|0:0,0:0:0:0:
389,148,113975,6,0,P|426:234|345:315,1,200,6|2,0:0|0:0,0:0:0:0:
280,336,115191,1,8,0:0:0:0:
200,296,115597,2,0,P|146:291|90:323,2,100,2|0|2,0:0|3:0|0:0,0:0:0:0:
280,336,116813,1,8,0:0:0:0:
361,374,117218,6,0,P|453:350|470:248,1,200,2|2,0:0|0:0,0:0:0:0:
387,287,118434,1,8,0:0:0:0:
332,214,118840,2,0,P|314:163|324:119,2,100,2|0|2,0:0|3:0|0:0,0:0:0:0:
404,160,120056,1,8,0:0:0:0:
440,80,120461,6,0,P|491:160|437:242,1,200,6|8,0:0|0:0,0:0:0:0:
363,284,121678,2,0,P|267:305|169:284,1,200,6|8,0:0|0:0,0:0:0:0:
100,232,122894,2,0,L|92:128,1,100,6|0,0:0|0:0,0:0:0:0:
176,68,123705,6,0,B|256:76|256:76|296:60|296:60|376:68,1,200,6|6,0:0|0:0,0:0:0:0:
380,248,125326,2,0,B|300:256|300:256|260:240|260:240|180:248,1,200,6|6,0:0|0:0,0:0:0:0:
148,28,128164,5,12,0:0:0:0:
76,80,128570,6,0,B|48:152|104:160|76:229,2,150,6|0|8,0:0|3:0|0:0,0:0:0:0:
148,28,130191,2,0,L|256:36,1,100,2|8,0:0|0:0,0:0:0:0:
320,88,131002,2,0,L|419:95,1,100,2|8,0:0|0:0,0:0:0:0:
463,172,131813,6,0,P|505:111|486:39,2,150,2|0|8,0:0|3:0|0:0,0:0:0:0:
384,132,133435,2,0,P|316:103|249:132,1,150,6|6,0:0|0:0,0:0:0:0:
188,200,134448,2,0,L|192:264,1,50,0|8,3:0|0:0,0:0:0:0:
256,312,135056,6,0,P|323:340|390:311,2,150,2|0|8,0:0|3:0|0:0,0:0:0:0:
191,249,136678,1,2,0:0:0:0:
229,168,137083,2,0,P|234:118|215:73,1,100,8|2,0:0|0:0,0:0:0:0:
132,44,137894,1,8,0:0:0:0:
48,72,138300,6,0,B|32:109|32:109|52:217,1,150,2|0,0:0|0:0,0:0:0:0:
132,176,139313,2,0,L|120:111,2,50,0|8|6,3:0|0:0|0:0,0:0:0:0:
304,320,140731,2,0,L|292:385,2,50,6|2|4,0:0|0:0|0:0,0:0:0:0:
368,256,141543,6,0,P|300:228|232:264,2,150,6|0|8,0:0|3:0|0:0,0:0:0:0:
432,320,143164,1,2,0:0:0:0:
496,256,143570,2,0,L|476:152,1,100,8|2,0:0|0:0,0:0:0:0:
392,124,144380,1,8,0:0:0:0:
322,178,144786,6,0,B|250:202|242:154|172:178,2,150,2|0|8,0:0|3:0|0:0,0:0:0:0:
408,204,146408,2,0,P|437:270|407:337,1,150,6|6,0:0|0:0,0:0:0:0:
320,360,147421,2,0,L|260:356,1,50,0|8,3:0|0:0,0:0:0:0:
208,292,148029,6,0,B|246:261|246:261|346:268,2,150,2|0|8,0:0|3:0|0:0,0:0:0:0:
144,356,149651,2,0,P|97:371|50:356,1,100,2|8,0:0|0:0,0:0:0:0:
0,284,150461,2,0,L|16:180,1,100,2|8,0:0|0:0,0:0:0:0:
80,120,151272,6,0,B|128:112|128:112|184:128|184:128|230:120,1,150,6|6,0:0|0:0,0:0:0:0:
300,68,152286,2,0,P|302:35|294:8,2,50,2|8|6,3:2|0:0|0:0,0:0:0:0:
175,128,161002,6,0,P|255:78|337:126,1,200,6|2,0:0|0:0,0:0:0:0:
256,168,162218,1,8,0:0:0:0:
174,211,162624,2,0,P|256:259|337:208,1,200,2|2,0:0|0:0,0:0:0:0:
420,176,163840,1,8,0:0:0:0:
489,232,164245,6,0,L|472:352,1,100,2|8,0:0|0:0,0:0:0:0:
392,368,165056,1,2,0:0:0:0:
318,315,165461,1,8,0:0:0:0:
234,353,165867,2,0,P|180:364|128:348,2,100,2|8|2,0:0|0:0|0:0,0:0:0:0:
318,315,167083,1,8,0:0:0:0:
244,262,167489,6,0,P|333:225|405:287,1,200,6|2,0:0|0:0,0:0:0:0:
428,372,168705,1,8,0:0:0:0:
491,309,169110,2,0,L|500:192,1,100,2|8,0:0|0:0,0:0:0:0:
416,176,169921,2,0,L|408:276,1,100,2|8,0:0|0:0,0:0:0:0:
324,308,170732,6,0,L|316:208,1,100,2|8,0:0|0:0,0:0:0:0:
244,152,171543,1,2,0:0:0:0:
159,186,171948,1,8,0:0:0:0:
85,129,172353,2,0,P|52:121|-11:144,2,100,2|8|2,0:0|0:0|0:0,0:0:0:0:
159,186,173570,1,8,0:0:0:0:
232,243,173975,6,0,P|319:284|408:243,1,200,6|8,0:0|0:0,0:0:0:0:
408,152,175191,2,0,P|320:110|231:151,1,200,6|8,0:0|0:0,0:0:0:0:
172,220,176407,5,6,0:0:0:0:
256,192,177016,12,6,180461,0:0:0:0:
400,296,183704,6,0,L|377:131,2,150,6|0|8,0:0|3:0|0:0,0:0:0:0:
323,347,185326,2,0,P|253:368|181:347,1,150,6|6,0:0|0:0,0:0:0:0:
104,300,186340,2,0,L|112:244,1,50,0|8,3:0|0:0,0:0:0:0:
32,204,186948,6,0,L|8:368,2,150,2|0|8,0:0|3:0|0:0,0:0:0:0:
96,144,188570,2,0,P|148:132|200:144,1,100,2|8,0:0|0:0,0:0:0:0:
263,195,189380,2,0,P|313:203|361:191,1,100,2|8,0:0|0:0,0:0:0:0:
444,152,190191,6,0,B|456:260|456:260|437:296,1,150,2|0,0:0|3:0,0:0:0:0:
348,304,191205,2,0,L|342:254,2,50,0|8|6,3:0|0:0|0:0,0:0:0:0:
148,188,192624,2,0,L|142:237,2,50,6|2|4,0:0|0:0|0:0,0:0:0:0:
216,128,193434,6,0,P|287:108|359:125,2,150,6|8|2,0:0|0:0|0:0,0:0:0:0:
148,188,195056,1,2,0:0:0:0:
69,141,195461,1,2,0:0:0:0:
1,201,195867,2,0,L|12:304,1,100,2|2,0:0|0:0,0:0:0:0:
96,336,196678,6,0,B|88:258|88:258|131:201,2,150,2|8|2,0:0|0:0|0:0,0:0:0:0:
179,364,198299,2,0,P|251:343|322:362,1,150,6|12,0:0|0:0,0:0:0:0:
408,332,199313,2,0,L|413:282,1,50,8|2,0:0|3:2,0:0:0:0:
363,211,199921,6,0,P|435:197|490:244,2,150,2|8|2,0:0|0:0|0:0,0:0:0:0:
288,264,201543,1,2,0:0:0:0:
214,209,201948,1,2,0:0:0:0:
139,261,202353,2,0,P|91:276|43:264,1,100,2|2,0:0|0:0,0:0:0:0:
8,180,203164,6,0,L|0:24,1,150,6|6,0:0|0:0,0:0:0:0:
84,68,204178,2,0,L|86:117,2,50,2|8|6,3:2|0:0|0:0,0:0:0:0:
188,328,206407,6,0,P|254:361|319:330,1,150,6|6,0:0|0:0,0:0:0:0:
317,197,207624,2,0,P|251:164|186:195,1,150,6|6,0:0|0:0,0:0:0:0:
96,296,208840,1,6,0:0:0:0:
164,356,209245,1,8,0:0:0:0:
249,327,209651,5,6,0:0:0:0:
256,192,209853,12,0,212894,0:0:0:0:
