osu file format v14

[General]
AudioFilename: ok.mp3
AudioLeadIn: 0
PreviewTime: 62042
Countdown: 0
SampleSet: Soft
StackLeniency: 0.7
Mode: 3
LetterboxInBreaks: 0
SpecialStyle: 0
WidescreenStoryboard: 0

[Editor]
DistanceSpacing: 0.9
BeatDivisor: 4
GridSize: 4
TimelineZoom: 1

[Metadata]
Title:Friend Shitai
TitleUnicode:ふ・れ・ん・ど・し・た・い
Artist:Gakuen Seikatsu Bu
ArtistUnicode:学園生活部
Creator:guineaQ
Version:HD
Source:がっこうぐらし!
Tags:Gakkou Gurashi! School-Live! TV Size opening 水瀬いのり Minase Inori 小澤亜李 Ozawa Ari M・A・O 市道真央 Ichimichi Mao 高橋李依 Takahashi Rie Neoskylove VTC VocaloidTacu Curi [C u r i]
BeatmapID:827445
BeatmapSetID:377981

[Difficulty]
HPDrainRate:7
CircleSize:4
OverallDifficulty:8
ApproachRate:8.2
SliderMultiplier:1.6
SliderTickRate:1

[Events]
//Background and Video events
0,0,"bg.jpg",0,0
//Break Periods
//Storyboard Layer 0 (Background)
//Storyboard Layer 1 (Fail)
//Storyboard Layer 2 (Pass)
//Storyboard Layer 3 (Foreground)
//Storyboard Sound Samples

[TimingPoints]
518,405.405405405405,4,2,1,60,1,0
8626,-100,4,2,1,80,0,1
20788,-100,4,2,1,60,0,0
34572,-100,4,2,1,50,0,0
62139,-100,4,2,1,80,0,1
87274,-100,4,2,1,70,0,0

[HitObjects]
448,192,518,128,2,923:0:0:0:0:
192,192,518,128,0,923:0:0:0:0:
64,192,923,128,0,1328:0:0:0:0:
192,192,1328,128,0,1734:0:0:0:0:
320,192,1328,128,2,1734:0:0:0:0:
448,192,1734,128,0,2139:0:0:0:0:
64,192,2139,128,0,2545:0:0:0:0:
320,192,2139,128,2,2545:0:0:0:0:
192,192,2545,128,0,2950:0:0:0:0:
448,192,2950,128,0,3355:0:0:0:0:
64,192,2950,128,2,3355:0:0:0:0:
320,192,3355,128,0,3761:0:0:0:0:
192,192,3761,1,2,0:0:0:0:
64,192,3862,1,0,0:0:0:0:
320,192,3963,1,0,0:0:0:0:
448,192,4065,1,0,0:0:0:0:
192,192,4166,128,0,4572:0:0:0:0:
320,192,4572,1,2,0:0:0:0:
448,192,4673,1,0,0:0:0:0:
192,192,4774,1,0,0:0:0:0:
64,192,4876,1,0,0:0:0:0:
320,192,4977,128,0,5382:0:0:0:0:
64,192,5382,1,2,0:0:0:0:
192,192,5484,1,0,0:0:0:0:
320,192,5585,1,0,0:0:0:0:
448,192,5686,1,0,0:0:0:0:
64,192,5788,128,0,6193:0:0:0:0:
448,192,6193,1,2,0:0:0:0:
320,192,6295,1,0,0:0:0:0:
192,192,6396,1,0,0:0:0:0:
64,192,6497,1,0,0:0:0:0:
448,192,6599,128,0,7004:0:0:0:0:
192,192,7207,1,0,0:0:0:0:
192,192,7409,1,0,0:0:0:0:
64,192,7612,1,0,0:0:0:0:
448,192,7815,1,0,0:0:0:0:
192,192,8220,1,8,0:0:0:0:
64,192,8220,1,4,0:0:0:0:
448,192,8626,1,4,0:0:0:0:
320,192,8626,1,2,0:0:0:0:
64,192,8626,1,0,0:0:0:0:
64,192,8828,1,0,0:0:0:0:
192,192,9031,1,8,0:0:0:0:
448,192,9031,1,0,0:0:0:0:
320,192,9234,1,0,0:0:0:0:
192,192,9335,1,0,0:0:0:0:
64,192,9436,1,2,0:0:0:0:
448,192,9436,1,0,0:0:0:0:
192,192,9639,1,0,0:0:0:0:
320,192,9842,1,8,0:0:0:0:
448,192,9842,1,0,0:0:0:0:
64,192,10045,1,0,0:0:0:0:
192,192,10247,1,2,0:0:0:0:
448,192,10247,1,0,0:0:0:0:
320,192,10247,1,0,0:0:0:0:
448,192,10450,1,0,0:0:0:0:
64,192,10653,1,0,0:0:0:0:
320,192,10653,1,8,0:0:0:0:
448,192,10855,1,0,0:0:0:0:
192,192,11058,1,2,0:0:0:0:
64,192,11058,1,0,0:0:0:0:
448,192,11261,1,0,0:0:0:0:
320,192,11463,1,8,0:0:0:0:
64,192,11463,1,0,0:0:0:0:
192,192,11666,1,0,0:0:0:0:
320,192,11869,1,2,0:0:0:0:
448,192,11869,1,0,0:0:0:0:
64,192,11869,1,0,0:0:0:0:
64,192,12072,1,0,0:0:0:0:
192,192,12274,1,8,0:0:0:0:
320,192,12274,1,0,0:0:0:0:
64,192,12477,1,0,0:0:0:0:
192,192,12578,1,0,0:0:0:0:
320,192,12680,1,2,0:0:0:0:
448,192,12680,1,0,0:0:0:0:
192,192,12882,1,0,0:0:0:0:
320,192,13085,1,0,0:0:0:0:
64,192,13085,1,8,0:0:0:0:
448,192,13288,1,0,0:0:0:0:
192,192,13490,1,4,0:0:0:0:
320,192,13490,1,2,0:0:0:0:
64,192,13490,1,0,0:0:0:0:
320,192,13693,1,0,0:0:0:0:
192,192,13896,1,8,0:0:0:0:
448,192,13896,1,0,0:0:0:0:
64,192,14099,128,2,14504:0:0:0:0:
320,192,14099,1,4,0:0:0:0:
192,192,14504,1,2,0:0:0:0:
320,192,14605,1,2,0:0:0:0:
448,192,14707,1,8,0:0:0:0:
64,192,14707,1,0,0:0:0:0:
320,192,14909,1,2,0:0:0:0:
192,192,15011,1,2,0:0:0:0:
64,192,15112,1,2,0:0:0:0:
320,192,15112,1,4,0:0:0:0:
448,192,15112,1,0,0:0:0:0:
64,192,15315,1,0,0:0:0:0:
192,192,15517,1,8,0:0:0:0:
448,192,15517,1,0,0:0:0:0:
320,192,15720,1,0,0:0:0:0:
64,192,15923,1,0,0:0:0:0:
192,192,15923,1,2,0:0:0:0:
320,192,16126,1,0,0:0:0:0:
192,192,16328,1,8,0:0:0:0:
448,192,16328,1,0,0:0:0:0:
64,192,16531,1,0,0:0:0:0:
192,192,16734,1,2,0:0:0:0:
320,192,16734,1,0,0:0:0:0:
448,192,16734,1,0,0:0:0:0:
320,192,16936,1,0,0:0:0:0:
192,192,17139,1,8,0:0:0:0:
64,192,17139,1,0,0:0:0:0:
320,192,17342,1,0,0:0:0:0:
448,192,17443,1,0,0:0:0:0:
192,192,17545,1,0,0:0:0:0:
320,192,17545,1,2,0:0:0:0:
64,192,17747,1,0,0:0:0:0:
192,192,17950,1,8,0:0:0:0:
448,192,17950,1,0,0:0:0:0:
320,192,18153,1,0,0:0:0:0:
192,192,18355,1,2,0:0:0:0:
64,192,18355,1,4,0:0:0:0:
448,192,18355,1,0,0:0:0:0:
320,192,18558,1,0,0:0:0:0:
192,192,18761,1,8,0:0:0:0:
448,192,18761,1,0,0:0:0:0:
320,192,18963,128,2,19369:0:0:0:0:
64,192,18963,1,4,0:0:0:0:
192,192,19369,1,0,0:0:0:0:
64,192,19572,1,0,0:0:0:0:
448,192,19572,1,8,0:0:0:0:
320,192,19774,128,4,20180:0:0:0:0:
192,192,19774,128,2,20180:0:0:0:0:
64,192,20180,1,8,0:0:0:0:
448,192,20180,1,0,0:0:0:0:
192,192,20382,1,8,0:0:0:0:
320,192,20382,1,0,0:0:0:0:
64,192,20585,1,8,0:0:0:0:
448,192,20585,1,0,0:0:0:0:
448,192,20788,1,0,0:0:0:0:
64,192,20788,1,0,0:0:0:0:
192,192,20788,1,8,0:0:0:0:
320,192,20788,1,4,0:0:0:0:
448,192,21193,128,0,21599:0:0:0:0:
64,192,21599,1,4,0:0:0:0:
192,192,21599,1,2,0:0:0:0:
320,192,21801,1,0,0:0:0:0:
192,192,22004,1,8,0:0:0:0:
448,192,22004,1,0,0:0:0:0:
64,192,22207,1,0,0:0:0:0:
192,192,22409,1,2,0:0:0:0:
320,192,22409,1,0,0:0:0:0:
448,192,22612,1,0,0:0:0:0:
192,192,22815,1,8,0:0:0:0:
64,192,22815,1,0,0:0:0:0:
320,192,23017,1,0,0:0:0:0:
192,192,23220,1,2,0:0:0:0:
448,192,23220,1,0,0:0:0:0:
64,192,23423,1,0,0:0:0:0:
192,192,23626,1,8,0:0:0:0:
448,192,23626,1,0,0:0:0:0:
320,192,23828,1,0,0:0:0:0:
192,192,24031,1,2,0:0:0:0:
64,192,24031,1,0,0:0:0:0:
448,192,24234,1,0,0:0:0:0:
320,192,24436,1,8,0:0:0:0:
192,192,24436,1,0,0:0:0:0:
64,192,24639,1,0,0:0:0:0:
192,192,24842,1,2,0:0:0:0:
448,192,24842,1,0,0:0:0:0:
320,192,25045,1,0,0:0:0:0:
64,192,25247,1,0,0:0:0:0:
192,192,25247,1,8,0:0:0:0:
448,192,25450,1,0,0:0:0:0:
320,192,25653,1,2,0:0:0:0:
192,192,25653,1,0,0:0:0:0:
64,192,25855,1,0,0:0:0:0:
320,192,26058,1,8,0:0:0:0:
448,192,26058,1,0,0:0:0:0:
192,192,26261,1,0,0:0:0:0:
64,192,26463,1,4,0:0:0:0:
320,192,26463,1,2,0:0:0:0:
448,192,26666,1,0,0:0:0:0:
64,192,26869,1,0,0:0:0:0:
320,192,26869,1,8,0:0:0:0:
192,192,27072,1,0,0:0:0:0:
320,192,27274,1,2,0:0:0:0:
448,192,27274,1,4,0:0:0:0:
192,192,27477,1,0,0:0:0:0:
64,192,27578,1,0,0:0:0:0:
192,192,27680,1,8,0:0:0:0:
320,192,27680,1,0,0:0:0:0:
448,192,27882,1,0,0:0:0:0:
64,192,28085,1,4,0:0:0:0:
192,192,28085,1,2,0:0:0:0:
320,192,28288,1,0,0:0:0:0:
192,192,28490,1,8,0:0:0:0:
448,192,28490,1,0,0:0:0:0:
64,192,28693,1,0,0:0:0:0:
192,192,28896,1,2,0:0:0:0:
320,192,28896,1,0,0:0:0:0:
64,192,29099,1,0,0:0:0:0:
192,192,29301,1,8,0:0:0:0:
448,192,29301,1,0,0:0:0:0:
320,192,29504,1,0,0:0:0:0:
192,192,29707,1,2,0:0:0:0:
64,192,29707,1,0,0:0:0:0:
320,192,29909,1,0,0:0:0:0:
192,192,30112,1,0,0:0:0:0:
448,192,30112,1,8,0:0:0:0:
320,192,30315,1,0,0:0:0:0:
192,192,30517,1,2,0:0:0:0:
64,192,30517,1,0,0:0:0:0:
448,192,30720,1,0,0:0:0:0:
320,192,30923,1,8,0:0:0:0:
64,192,30923,1,0,0:0:0:0:
192,192,31126,1,0,0:0:0:0:
64,192,31328,1,2,0:0:0:0:
320,192,31328,1,4,0:0:0:0:
448,192,31328,1,0,0:0:0:0:
192,192,31531,1,0,0:0:0:0:
320,192,31734,1,8,0:0:0:0:
448,192,31734,1,0,0:0:0:0:
64,192,31936,128,2,32342:0:0:0:0:
192,192,31936,1,0,0:0:0:0:
320,192,32342,1,0,0:0:0:0:
192,192,32545,1,8,0:0:0:0:
448,192,32545,1,0,0:0:0:0:
320,192,32747,1,2,0:0:0:0:
64,192,32950,1,0,0:0:0:0:
192,192,32950,1,2,0:0:0:0:
448,192,32950,1,4,0:0:0:0:
320,192,33355,1,8,0:0:0:0:
64,192,33355,1,4,0:0:0:0:
448,192,33761,128,2,34572:0:0:0:0:
192,192,33761,1,4,0:0:0:0:
320,192,34572,1,4,0:0:0:0:
64,192,34572,1,2,0:0:0:0:
192,192,34774,1,0,0:0:0:0:
448,192,34977,1,0,0:0:0:0:
320,192,34977,1,8,0:0:0:0:
192,192,35180,1,0,0:0:0:0:
320,192,35281,1,0,0:0:0:0:
448,192,35382,1,0,0:0:0:0:
192,192,35585,1,2,0:0:0:0:
64,192,35686,1,0,0:0:0:0:
320,192,35788,1,8,0:0:0:0:
448,192,35788,1,0,0:0:0:0:
192,192,35990,1,0,0:0:0:0:
64,192,36193,1,0,0:0:0:0:
320,192,36193,1,2,0:0:0:0:
448,192,36396,1,0,0:0:0:0:
320,192,36599,1,8,0:0:0:0:
64,192,36599,1,0,0:0:0:0:
192,192,36801,1,2,0:0:0:0:
320,192,36903,1,0,0:0:0:0:
448,192,37004,1,0,0:0:0:0:
192,192,37207,1,2,0:0:0:0:
64,192,37308,1,0,0:0:0:0:
192,192,37409,1,8,0:0:0:0:
320,192,37409,1,0,0:0:0:0:
448,192,37612,1,0,0:0:0:0:
64,192,37815,1,0,0:0:0:0:
192,192,37815,1,2,0:0:0:0:
320,192,38017,1,0,0:0:0:0:
448,192,38220,1,0,0:0:0:0:
192,192,38220,1,8,0:0:0:0:
320,192,38423,1,0,0:0:0:0:
192,192,38524,1,0,0:0:0:0:
64,192,38626,1,2,0:0:0:0:
448,192,38828,1,2,0:0:0:0:
192,192,39031,1,8,0:0:0:0:
64,192,39031,1,0,0:0:0:0:
320,192,39234,1,0,0:0:0:0:
192,192,39436,1,2,0:0:0:0:
448,192,39436,1,0,0:0:0:0:
64,192,39639,1,8,0:0:0:0:
320,192,39639,1,0,0:0:0:0:
64,192,39842,1,8,0:0:0:0:
320,192,39842,1,0,0:0:0:0:
192,192,40045,1,2,0:0:0:0:
448,192,40045,1,0,0:0:0:0:
64,192,40247,1,0,0:0:0:0:
320,192,40247,1,8,0:0:0:0:
192,192,40450,1,0,0:0:0:0:
448,192,40450,1,2,0:0:0:0:
320,192,40653,1,8,0:0:0:0:
192,192,40653,1,0,0:0:0:0:
64,192,40855,1,2,0:0:0:0:
320,192,40855,1,0,0:0:0:0:
192,192,41058,1,2,0:0:0:0:
448,192,41058,1,4,0:0:0:0:
320,192,41261,1,0,0:0:0:0:
192,192,41463,1,8,0:0:0:0:
64,192,41463,1,0,0:0:0:0:
448,192,41666,1,0,0:0:0:0:
320,192,41767,1,0,0:0:0:0:
192,192,41869,1,2,0:0:0:0:
64,192,42072,1,0,0:0:0:0:
192,192,42173,1,0,0:0:0:0:
320,192,42274,1,8,0:0:0:0:
448,192,42274,1,0,0:0:0:0:
192,192,42477,1,0,0:0:0:0:
320,192,42680,1,2,0:0:0:0:
64,192,42680,1,0,0:0:0:0:
448,192,42882,1,0,0:0:0:0:
192,192,43085,1,0,0:0:0:0:
320,192,43085,1,8,0:0:0:0:
448,192,43288,1,0,0:0:0:0:
320,192,43389,1,0,0:0:0:0:
192,192,43490,1,2,0:0:0:0:
320,192,43693,1,0,0:0:0:0:
192,192,43795,1,0,0:0:0:0:
64,192,43896,1,8,0:0:0:0:
448,192,43896,1,0,0:0:0:0:
192,192,44099,1,2,0:0:0:0:
320,192,44200,1,2,0:0:0:0:
448,192,44301,1,2,0:0:0:0:
64,192,44301,1,4,0:0:0:0:
192,192,44504,1,0,0:0:0:0:
320,192,44707,1,8,0:0:0:0:
448,192,44707,1,0,0:0:0:0:
192,192,44909,1,0,0:0:0:0:
64,192,45112,1,2,0:0:0:0:
320,192,45112,1,4,0:0:0:0:
448,192,45315,1,0,0:0:0:0:
320,192,45517,1,8,0:0:0:0:
64,192,45517,1,0,0:0:0:0:
192,192,45720,1,0,0:0:0:0:
320,192,45923,1,2,0:0:0:0:
448,192,45923,1,0,0:0:0:0:
320,192,46126,1,0,0:0:0:0:
192,192,46328,1,0,0:0:0:0:
192,192,46531,1,8,0:0:0:0:
64,192,46531,1,0,0:0:0:0:
448,192,47545,128,2,47950:0:0:0:0:
64,192,47545,1,0,0:0:0:0:
320,192,47545,1,4,0:0:0:0:
192,192,47950,1,0,0:0:0:0:
320,192,48153,1,0,0:0:0:0:
64,192,48355,128,2,48761:0:0:0:0:
192,192,48761,1,8,0:0:0:0:
448,192,48761,1,4,0:0:0:0:
320,192,48963,1,0,0:0:0:0:
192,192,49166,128,2,49572:0:0:0:0:
448,192,49166,1,0,0:0:0:0:
320,192,49572,1,0,0:0:0:0:
448,192,49774,1,0,0:0:0:0:
64,192,49977,128,2,50382:0:0:0:0:
320,192,50382,1,8,0:0:0:0:
192,192,50788,128,2,51193:0:0:0:0:
448,192,50788,1,0,0:0:0:0:
64,192,51193,1,0,0:0:0:0:
320,192,51396,1,0,0:0:0:0:
192,192,51599,1,2,0:0:0:0:
448,192,51801,1,0,0:0:0:0:
320,192,52004,1,8,0:0:0:0:
64,192,52004,1,4,0:0:0:0:
192,192,52207,1,0,0:0:0:0:
448,192,52409,128,2,52815:0:0:0:0:
320,192,52409,1,0,0:0:0:0:
64,192,52815,1,0,0:0:0:0:
192,192,53017,1,0,0:0:0:0:
320,192,53220,128,2,53626:0:0:0:0:
64,192,53626,1,8,0:0:0:0:
192,192,54031,1,2,0:0:0:0:
320,192,54031,1,4,0:0:0:0:
448,192,54031,1,0,0:0:0:0:
64,192,54234,1,0,0:0:0:0:
192,192,54436,1,0,0:0:0:0:
320,192,54639,1,0,0:0:0:0:
448,192,54842,1,0,0:0:0:0:
64,192,54842,1,8,0:0:0:0:
320,192,55247,1,2,0:0:0:0:
192,192,55247,1,4,0:0:0:0:
64,192,55247,1,0,0:0:0:0:
448,192,55450,1,0,0:0:0:0:
320,192,55653,1,0,0:0:0:0:
192,192,55855,1,0,0:0:0:0:
64,192,56058,1,8,0:0:0:0:
448,192,56058,1,0,0:0:0:0:
320,192,56261,1,0,0:0:0:0:
192,192,56463,128,2,56869:0:0:0:0:
64,192,56463,128,4,56869:0:0:0:0:
448,192,56869,1,0,0:0:0:0:
320,192,57072,1,0,0:0:0:0:
64,192,57274,1,2,0:0:0:0:
192,192,57376,1,0,0:0:0:0:
448,192,57477,1,0,0:0:0:0:
320,192,57578,1,0,0:0:0:0:
192,192,57680,128,0,58085:0:0:0:0:
448,192,58085,1,2,0:0:0:0:
320,192,58186,1,0,0:0:0:0:
64,192,58288,1,0,0:0:0:0:
192,192,58389,1,0,0:0:0:0:
448,192,58490,128,0,58896:0:0:0:0:
64,192,58896,1,2,0:0:0:0:
192,192,58997,1,0,0:0:0:0:
320,192,59099,1,0,0:0:0:0:
448,192,59200,1,0,0:0:0:0:
64,192,59301,128,0,59707:0:0:0:0:
448,192,59707,1,2,0:0:0:0:
320,192,59808,1,0,0:0:0:0:
192,192,59909,1,0,0:0:0:0:
64,192,60011,1,0,0:0:0:0:
320,192,60112,128,0,60517:0:0:0:0:
192,192,60720,1,0,0:0:0:0:
192,192,60923,1,0,0:0:0:0:
64,192,61126,1,0,0:0:0:0:
448,192,61328,1,0,0:0:0:0:
320,192,61734,1,8,0:0:0:0:
64,192,61734,1,4,0:0:0:0:
192,192,62139,1,2,0:0:0:0:
320,192,62139,1,4,0:0:0:0:
448,192,62139,1,0,0:0:0:0:
64,192,62342,1,0,0:0:0:0:
192,192,62545,1,8,0:0:0:0:
448,192,62545,1,0,0:0:0:0:
320,192,62747,1,0,0:0:0:0:
192,192,62849,1,0,0:0:0:0:
64,192,62950,1,2,0:0:0:0:
448,192,62950,1,0,0:0:0:0:
448,192,63153,1,0,0:0:0:0:
320,192,63355,1,8,0:0:0:0:
64,192,63355,1,0,0:0:0:0:
192,192,63558,1,0,0:0:0:0:
320,192,63761,1,2,0:0:0:0:
448,192,63761,1,0,0:0:0:0:
64,192,63761,1,0,0:0:0:0:
192,192,63963,1,0,0:0:0:0:
320,192,64166,1,8,0:0:0:0:
64,192,64166,1,0,0:0:0:0:
448,192,64369,1,0,0:0:0:0:
320,192,64572,1,2,0:0:0:0:
64,192,64572,1,0,0:0:0:0:
192,192,64774,1,0,0:0:0:0:
320,192,64977,1,8,0:0:0:0:
448,192,64977,1,0,0:0:0:0:
64,192,65180,1,0,0:0:0:0:
192,192,65382,1,2,0:0:0:0:
320,192,65382,1,0,0:0:0:0:
448,192,65382,1,0,0:0:0:0:
64,192,65585,1,0,0:0:0:0:
192,192,65788,1,2,0:0:0:0:
320,192,65788,1,0,0:0:0:0:
448,192,65990,1,0,0:0:0:0:
320,192,66092,1,0,0:0:0:0:
192,192,66193,1,2,0:0:0:0:
64,192,66193,1,0,0:0:0:0:
320,192,66396,1,0,0:0:0:0:
448,192,66599,1,8,0:0:0:0:
64,192,66599,1,0,0:0:0:0:
192,192,66801,1,0,0:0:0:0:
320,192,67004,1,4,0:0:0:0:
448,192,67004,1,0,0:0:0:0:
64,192,67004,1,2,0:0:0:0:
64,192,67207,1,0,0:0:0:0:
192,192,67409,1,8,0:0:0:0:
448,192,67409,1,0,0:0:0:0:
320,192,67612,128,6,68017:0:0:0:0:
64,192,68017,1,0,0:0:0:0:
192,192,68220,1,8,0:0:0:0:
448,192,68220,1,0,0:0:0:0:
320,192,68423,1,0,0:0:0:0:
192,192,68524,1,0,0:0:0:0:
64,192,68626,1,2,0:0:0:0:
320,192,68626,1,0,0:0:0:0:
448,192,68626,1,0,0:0:0:0:
320,192,68828,1,0,0:0:0:0:
192,192,69031,1,8,0:0:0:0:
64,192,69031,1,4,0:0:0:0:
448,192,69234,1,0,0:0:0:0:
192,192,69436,1,0,0:0:0:0:
320,192,69436,1,2,0:0:0:0:
64,192,69639,1,0,0:0:0:0:
192,192,69842,1,8,0:0:0:0:
448,192,69842,1,0,0:0:0:0:
320,192,70045,1,0,0:0:0:0:
192,192,70247,1,2,0:0:0:0:
64,192,70247,1,0,0:0:0:0:
448,192,70247,1,0,0:0:0:0:
448,192,70450,1,0,0:0:0:0:
320,192,70653,1,8,0:0:0:0:
192,192,70653,1,0,0:0:0:0:
64,192,70855,1,0,0:0:0:0:
192,192,70957,1,0,0:0:0:0:
320,192,71058,1,2,0:0:0:0:
448,192,71058,1,0,0:0:0:0:
192,192,71261,1,0,0:0:0:0:
64,192,71463,1,0,0:0:0:0:
320,192,71463,1,8,0:0:0:0:
448,192,71666,1,0,0:0:0:0:
320,192,71869,1,2,0:0:0:0:
192,192,71869,1,0,0:0:0:0:
64,192,71869,1,0,0:0:0:0:
192,192,72072,1,0,0:0:0:0:
320,192,72274,1,8,0:0:0:0:
448,192,72274,1,0,0:0:0:0:
64,192,72477,1,0,0:0:0:0:
192,192,72680,1,2,0:0:0:0:
320,192,72680,1,0,0:0:0:0:
448,192,72882,1,0,0:0:0:0:
320,192,73085,1,8,0:0:0:0:
64,192,73085,1,0,0:0:0:0:
448,192,73288,1,4,0:0:0:0:
192,192,73288,128,2,73693:0:0:0:0:
448,192,73693,1,2,0:0:0:0:
320,192,73795,1,2,0:0:0:0:
64,192,73896,1,0,0:0:0:0:
192,192,73896,1,8,0:0:0:0:
320,192,74099,1,0,0:0:0:0:
448,192,74200,1,0,0:0:0:0:
320,192,74301,1,8,0:0:0:0:
192,192,74301,1,4,0:0:0:0:
64,192,74301,1,0,0:0:0:0:
192,192,74504,1,8,0:0:0:0:
448,192,74504,1,4,0:0:0:0:
320,192,74504,1,0,0:0:0:0:
320,192,74707,1,8,0:0:0:0:
64,192,74707,1,4,0:0:0:0:
192,192,74707,1,0,0:0:0:0:
192,192,74909,1,0,0:0:0:0:
320,192,75011,1,0,0:0:0:0:
448,192,75112,1,4,0:0:0:0:
192,192,75112,1,2,0:0:0:0:
64,192,75112,1,0,0:0:0:0:
448,192,75315,1,0,0:0:0:0:
320,192,75517,1,8,0:0:0:0:
192,192,75517,1,0,0:0:0:0:
64,192,75720,1,0,0:0:0:0:
192,192,75822,1,0,0:0:0:0:
320,192,75923,1,2,0:0:0:0:
448,192,75923,1,0,0:0:0:0:
192,192,76126,1,0,0:0:0:0:
64,192,76328,1,0,0:0:0:0:
320,192,76328,1,8,0:0:0:0:
448,192,76531,1,0,0:0:0:0:
448,192,76734,1,0,0:0:0:0:
192,192,76734,1,2,0:0:0:0:
320,192,76734,1,0,0:0:0:0:
64,192,76936,1,0,0:0:0:0:
192,192,77139,1,8,0:0:0:0:
448,192,77139,1,0,0:0:0:0:
320,192,77342,1,0,0:0:0:0:
192,192,77545,1,2,0:0:0:0:
448,192,77545,1,0,0:0:0:0:
64,192,77747,1,0,0:0:0:0:
192,192,77950,1,8,0:0:0:0:
320,192,77950,1,0,0:0:0:0:
448,192,78153,1,0,0:0:0:0:
320,192,78355,1,2,0:0:0:0:
192,192,78355,1,0,0:0:0:0:
64,192,78355,1,0,0:0:0:0:
64,192,78558,1,0,0:0:0:0:
192,192,78761,1,8,0:0:0:0:
448,192,78761,1,0,0:0:0:0:
320,192,78963,1,0,0:0:0:0:
192,192,79065,1,0,0:0:0:0:
64,192,79166,1,2,0:0:0:0:
448,192,79166,1,0,0:0:0:0:
320,192,79369,1,0,0:0:0:0:
192,192,79572,1,8,0:0:0:0:
64,192,79572,1,0,0:0:0:0:
320,192,79774,1,0,0:0:0:0:
192,192,79977,1,2,0:0:0:0:
448,192,79977,1,4,0:0:0:0:
64,192,79977,1,0,0:0:0:0:
448,192,80180,1,0,0:0:0:0:
192,192,80382,1,0,0:0:0:0:
320,192,80382,1,8,0:0:0:0:
64,192,80585,128,6,80990:0:0:0:0:
320,192,80990,1,2,0:0:0:0:
448,192,81092,1,2,0:0:0:0:
320,192,81193,1,8,0:0:0:0:
192,192,81193,1,0,0:0:0:0:
64,192,81396,1,2,0:0:0:0:
192,192,81497,1,0,0:0:0:0:
320,192,81599,1,2,0:0:0:0:
448,192,81599,1,0,0:0:0:0:
64,192,81599,1,0,0:0:0:0:
448,192,81801,1,0,0:0:0:0:
320,192,82004,1,8,0:0:0:0:
192,192,82004,1,4,0:0:0:0:
448,192,82207,1,0,0:0:0:0:
64,192,82409,1,0,0:0:0:0:
320,192,82409,1,2,0:0:0:0:
192,192,82612,1,0,0:0:0:0:
320,192,82815,1,8,0:0:0:0:
448,192,82815,1,0,0:0:0:0:
64,192,83017,1,0,0:0:0:0:
192,192,83220,1,2,0:0:0:0:
320,192,83220,1,0,0:0:0:0:
448,192,83220,1,0,0:0:0:0:
64,192,83423,1,0,0:0:0:0:
448,192,83626,1,0,0:0:0:0:
192,192,83626,1,8,0:0:0:0:
320,192,83828,1,0,0:0:0:0:
192,192,83930,1,0,0:0:0:0:
64,192,84031,1,2,0:0:0:0:
448,192,84031,1,0,0:0:0:0:
320,192,84234,1,0,0:0:0:0:
192,192,84436,1,8,0:0:0:0:
448,192,84436,1,0,0:0:0:0:
64,192,84639,1,0,0:0:0:0:
192,192,84842,1,2,0:0:0:0:
320,192,84842,1,4,0:0:0:0:
448,192,84842,1,0,0:0:0:0:
64,192,85045,1,0,0:0:0:0:
192,192,85247,1,8,0:0:0:0:
448,192,85247,1,0,0:0:0:0:
320,192,85450,128,2,85855:0:0:0:0:
64,192,85450,1,4,0:0:0:0:
192,192,85855,1,0,0:0:0:0:
448,192,86058,1,0,0:0:0:0:
64,192,86058,1,8,0:0:0:0:
320,192,86261,128,4,86666:0:0:0:0:
192,192,86261,128,2,86666:0:0:0:0:
64,192,86666,1,0,0:0:0:0:
448,192,86666,1,8,0:0:0:0:
192,192,86869,1,0,0:0:0:0:
320,192,86869,1,8,0:0:0:0:
64,192,87072,1,0,0:0:0:0:
448,192,87072,1,8,0:0:0:0:
64,192,87274,1,0,0:0:0:0:
320,192,87274,1,8,0:0:0:0:
192,192,87274,1,4,0:0:0:0:
448,192,87274,1,0,0:0:0:0:
