osu file format v14

[General]
AudioFilename: audio.mp3
AudioLeadIn: 0
PreviewTime: 36813
Countdown: 0
SampleSet: Normal
StackLeniency: 0.7
Mode: 0
LetterboxInBreaks: 0
WidescreenStoryboard: 1

[Editor]
Bookmarks: 2211,4392,10938,17483,19665,28392,37120,45847,54574,63301,72029,80756,89483,97120
DistanceSpacing: 0.2
BeatDivisor: 4
GridSize: 32
TimelineZoom: 2.699999

[Metadata]
Title:counterattack
TitleUnicode:counterattack
Artist:Gaku
ArtistUnicode:Gaku
Creator:Lasse
Version:Insane
Source:サクラノモリ†ドリーマーズ
Tags:Sakura no Mori Dreamers sakuranomori soundtrack bgm eroge instrumental visual novel metal denkare Denkishiki Karen Ongaku Shuudan 電気式華憐音楽集団 vn video game
BeatmapID:3051793
BeatmapSetID:1481710

[Difficulty]
HPDrainRate:5
CircleSize:4
OverallDifficulty:8
ApproachRate:9
SliderMultiplier:1.6
SliderTickRate:1

[Events]
//Background and Video events
0,0,"bg.jpg",0,0
//Break Periods
//Storyboard Layer 0 (Background)
//Storyboard Layer 1 (Fail)
//Storyboard Layer 2 (Pass)
//Storyboard Layer 3 (Foreground)
//Storyboard Layer 4 (Overlay)
//Storyboard Sound Samples

[TimingPoints]
2211,272.727272727273,4,1,1,60,1,0
7665,-100,4,3,1,60,0,0
10938,-100,4,1,1,60,0,0
17483,-83.3333333333333,4,1,1,60,0,0
19665,-100,4,1,1,60,0,0
26211,-83.3333333333333,4,1,1,60,0,0
28392,-133.333333333333,4,1,1,50,0,0
37120,-100,4,1,1,60,0,0
43665,-100,4,1,1,64,0,0
44756,-83.3333333333333,4,1,1,67,0,0
45847,-100,4,1,1,64,0,0
52392,-83.3333333333333,4,1,1,64,0,0
54574,-121.951219512195,4,1,1,50,0,0
63301,-111.111111111111,4,1,1,55,0,0
68756,-99.9999999999999,4,1,1,58,0,0
69847,-133.333333333333,4,1,1,54,0,0
72029,-90.9090909090909,4,1,1,63,0,0
79529,-83.3333333333333,4,1,1,63,0,0
80211,-83.3333333333333,4,1,1,65,0,0
80756,-90.9090909090909,4,1,1,67,0,0
88529,-133.333333333333,4,1,1,64,0,0
89415,-133.333333333333,4,1,1,5,0,0
89483,-133.333333333333,4,1,1,52,0,0

[Colours]
Combo1 : 240,140,140
Combo2 : 200,180,220
Combo3 : 240,200,155
Combo4 : 150,185,220

[HitObjects]
78,51,29,5,4,3:2:0:0:
78,51,165,2,0,P|38:56|-6:65,1,80,0|0,3:0|3:0,0:0:0:0:
146,116,438,1,4,3:2:0:0:
146,116,574,2,0,P|109:98|67:81,1,80,0|0,3:0|3:0,0:0:0:0:
244,120,847,1,4,3:2:0:0:
244,120,983,2,0,P|207:138|165:155,1,80,0|0,3:0|3:0,0:0:0:0:
338,178,1256,1,4,3:2:0:0:
338,178,1392,2,0,P|301:160|259:143,1,80,0|0,3:0|3:0,0:0:0:0:
450,135,1665,5,0,0:0:0:0:
450,135,1733,1,0,0:0:0:0:
450,135,1801,2,0,B|421:142|421:142|412:155|412:155|355:177,2,80
512,240,2211,5,4,0:1:0:0:
172,302,4392,5,4,0:1:0:0:
363,42,6574,5,4,0:1:0:0:
256,192,6642,12,8,7665,0:3:0:0:
246,11,8074,5,4,0:3:0:0:
277,86,8347,5,8,0:3:0:0:
277,86,8483,1,4,0:3:0:0:
232,153,8756,6,0,P|216:193|210:239,2,80,4|0|0,1:2|0:0|0:0,0:0:0:0:
372,256,9165,2,0,B|349:245|349:245|215:260,1,160,6|0,1:2|0:0,0:0:0:0:
147,313,9574,1,4,1:2:0:0:
83,239,9711,1,0,1:0:0:0:
57,363,9847,1,4,1:1:0:0:
230,124,10665,5,0,0:0:0:0:
226,117,10733,1,0,0:0:0:0:
231,112,10801,1,0,0:0:0:0:
238,112,10870,1,0,0:0:0:0:
242,119,10938,6,0,B|335:118|292:54|387:50,1,160,6|8,0:1|0:0,0:0:0:0:
444,3,11347,1,0,0:0:0:0:
426,114,11483,2,0,P|470:135|516:132,1,80,2|0,0:2|0:0,0:0:0:0:
363,181,11756,2,0,P|312:201|294:223,1,80,8|0,0:0|0:0,0:0:0:0:
205,111,12029,6,0,B|141:119|141:119|120:75|60:52,1,160,2|8,0:2|0:0,0:0:0:0:
83,199,12438,2,0,P|52:204|-9:245,1,80,2|0,0:2|0:0,0:0:0:0:
120,288,12711,2,0,P|98:331|93:372,2,80,0|8|0,0:0|0:0|0:0,0:0:0:0:
227,343,13120,6,0,P|268:332|317:325,1,80,2|0,0:1|0:0,0:0:0:0:
379,242,13392,2,0,L|204:208,1,160,8|2,0:0|0:2,0:0:0:0:
157,156,13801,1,0,0:0:0:0:
163,71,13938,1,8,0:0:0:0:
240,38,14074,1,0,0:0:0:0:
334,110,14211,6,0,B|363:125|363:125|496:99,1,160,2|8,0:2|0:0,0:0:0:0:
512,230,14620,2,0,P|441:264|432:200,1,160,2|0,0:2|0:0,0:0:0:0:
360,292,15029,1,8,0:0:0:0:
389,370,15165,1,0,0:0:0:0:
283,322,15301,6,0,P|211:299|175:299,1,80,6|0,0:1|0:0,0:0:0:0:
127,352,15574,2,0,P|87:359|51:375,1,80,8|0,0:0|0:0,0:0:0:0:
131,243,15847,2,0,B|155:166|87:162|136:67,1,160,2|8,0:2|0:0,0:0:0:0:
168,22,16256,1,0,0:0:0:0:
205,128,16392,6,0,P|284:145|327:83,1,160,2|8,0:2|0:0,0:0:0:0:
449,162,16801,2,0,L|385:-22,1,160,2|0,0:2|0:0,0:0:0:0:
300,181,17211,2,0,P|339:188|375:204,1,80,8|0,0:0|0:0,0:0:0:0:
300,4,17483,5,14,0:1:0:0:
238,51,17620,2,2,B|203:41|203:41|183:47|183:47|122:29,1,95.9999970703126,2|0,0:1|0:0,0:1:0:0:
77,158,17892,1,14,0:1:0:0:
0,140,18029,2,2,B|35:130|35:130|55:136|55:136|116:118,1,95.9999970703126,2|0,0:1|0:0,0:1:0:0:
215,254,18301,2,2,B|180:244|180:244|160:250|160:250|99:232,1,95.9999970703126,14|0,0:1|0:0,0:1:0:0:
298,152,18574,5,14,0:1:0:0:
332,231,18711,1,0,0:0:0:0:
411,197,18847,1,2,0:2:0:0:
377,118,18983,2,2,P|387:42|491:32,1,191.999994140625,14|8,0:1|0:1,0:1:0:0:
497,41,19324,1,8,0:0:0:0:
506,55,19392,2,0,L|491:157,1,95.9999970703126,8|8,0:0|0:0,0:0:0:0:
512,292,19665,6,0,P|461:259|343:237,1,160,6|8,0:1|0:0,0:0:0:0:
315,177,20074,1,0,0:0:0:0:
248,323,20211,2,0,P|290:314|346:310,1,80,2|0,0:2|0:0,0:0:0:0:
227,194,20483,2,0,P|187:189|148:181,1,80,8|0,0:0|0:0,0:0:0:0:
103,80,20756,6,0,P|38:86|10:194,1,160,2|8,0:2|0:0,0:0:0:0:
190,100,21165,2,0,P|196:63|216:1,1,80,2|0,0:2|0:2,0:0:0:0:
277,110,21438,1,0,0:0:0:0:
355,141,21574,1,8,0:0:0:0:
432,108,21711,1,0,0:0:0:0:
512,187,21847,6,0,P|505:223|486:286,1,80,2|0,0:1|0:0,0:0:0:0:
511,384,22120,2,0,P|481:359|442:338,1,80,8|0,0:0|0:2,0:0:0:0:
363,307,22392,1,2,0:2:0:0:
274,299,22529,1,0,0:0:0:0:
186,310,22665,1,8,0:0:0:0:
108,351,22801,1,0,0:0:0:0:
89,231,22938,6,0,P|15:248|0:322,1,160,2|8,0:2|0:0,0:0:0:0:
131,371,23347,1,2,0:2:0:0:
131,371,23415,1,0,0:0:0:0:
131,371,23483,2,0,P|177:361|225:356,1,80
303,301,23756,2,0,P|342:306|381:314,1,80,8|0,0:0|0:0,0:0:0:0:
222,222,24029,6,0,B|198:149|241:143|211:64,1,160,6|8,0:1|0:0,0:0:0:0:
160,4,24438,1,0,0:0:0:0:
137,116,24574,2,0,P|89:111|58:83,1,80,2|0,0:2|0:0,0:0:0:0:
243,62,24847,2,0,P|275:39|315:38,1,80,8|0,0:0|0:0,0:0:0:0:
420,102,25120,6,0,B|426:166|499:173|499:173|519:113,1,160,2|8,0:2|0:0,0:0:0:0:
413,230,25529,1,2,0:2:0:0:
413,230,25597,1,0,0:0:0:0:
413,230,25665,2,0,P|391:289|391:334,1,80
328,174,25938,2,0,P|288:157|239:150,1,80,8|0,0:0|0:0,0:0:0:0:
137,125,26211,5,14,0:1:0:0:
105,194,26347,2,0,B|69:191|69:191|52:205|52:205|2:216,1,95.9999970703126,2|0,0:1|0:0,0:0:0:0:
217,273,26620,1,14,0:1:0:0:
181,340,26756,2,0,B|145:343|145:343|128:329|128:329|78:318,1,95.9999970703126,2|0,0:1|0:0,0:0:0:0:
310,207,27029,2,0,B|274:204|274:204|257:218|257:218|207:229,1,95.9999970703126,14|0,0:1|0:0,0:0:0:0:
363,322,27301,5,14,0:1:0:0:
439,363,27438,1,2,0:2:0:0:
503,305,27574,1,2,0:2:0:0:
427,264,27711,2,0,B|413:216|413:216|445:159|418:75,1,191.999994140625,14|8,0:1|0:0,0:0:0:0:
413,70,28051,1,8,0:0:0:0:
406,62,28120,2,0,P|357:42|305:32,1,95.9999970703126,8|8,0:0|0:0,0:0:0:0:
209,0,28392,6,0,P|213:59|217:119,1,120.000004577637,6|8,0:1|0:0,0:0:0:0:
131,178,28801,2,0,P|126:118|122:58,1,120.000004577637,2|0,0:2|0:0,0:0:0:0:
47,16,29211,1,8,0:0:0:0:
4,174,29483,5,2,0:2:0:0:
4,174,29620,2,0,P|5:203|8:233,1,60.0000022888184,0|8,0:2|0:0,0:0:0:0:
66,295,29892,2,0,P|130:311|184:278,1,120.000004577637,2|0,0:2|0:0,0:0:0:0:
264,380,30301,2,0,P|261:350|259:320,1,60.0000022888184,8|0,0:0|0:0,0:0:0:0:
402,253,30574,6,0,P|336:261|286:221,1,120.000004577637,2|8,0:2|0:0,0:0:0:0:
240,146,30983,2,0,L|284:16,1,120.000004577637,2|0,0:2|0:0,0:0:0:0:
366,0,31392,2,0,L|369:65,1,60.0000022888184,8|0,0:0|0:0,0:0:0:0:
454,140,31665,5,2,0:2:0:0:
454,140,31801,2,0,P|502:129|528:127,1,60.0000022888184,0|8,0:0|0:0,0:0:0:0:
395,216,32074,2,0,P|308:195|258:189,1,120.000004577637,2|0,0:2|0:0,0:0:0:0:
204,238,32483,1,8,0:0:0:0:
120,129,32756,6,0,P|118:61|109:7,1,120.000004577637,6|8,0:2|0:0,0:0:0:0:
20,51,33165,2,0,P|22:119|31:173,1,120.000004577637,2|0,0:2|0:0,0:0:0:0:
106,223,33574,1,8,0:0:0:0:
236,84,33847,5,2,0:2:0:0:
236,84,33983,2,0,P|281:74|306:76,1,60.0000022888184,0|8,0:0|0:0,0:0:0:0:
361,135,34256,2,0,P|362:180|347:275,1,120.000004577637,2|0,0:2|0:0,0:0:0:0:
287,309,34665,2,0,P|242:299|217:301,1,60.0000022888184,8|0,0:0|0:0,0:0:0:0:
126,347,34938,6,0,B|69:364|69:364|12:315,1,120.000004577637,2|8,0:2|0:0,0:0:0:0:
0,239,35347,2,0,P|6:194|35:102,1,120.000004577637,2|0,0:2|0:0,0:0:0:0:
92,68,35756,1,8,0:0:0:0:
92,68,35892,1,0,0:0:0:0:
110,172,36029,1,14,0:1:0:0:
508,88,36847,5,0,1:0:0:0:
512,81,36915,1,0,1:0:0:0:
507,76,36983,1,0,1:0:0:0:
500,76,37051,1,0,1:0:0:0:
496,83,37120,6,2,B|481:93|481:93|335:64,1,160,6|8,0:1|0:0,0:1:0:0:
291,4,37529,1,0,0:0:0:0:
306,138,37665,2,0,P|277:151|215:146,1,80,2|0,0:1|0:0,0:0:0:0:
170,38,37938,2,0,P|133:23|93:25,1,80,8|0,0:2|0:0,0:0:0:0:
8,156,38211,6,0,L|25:319,1,160,2|8,0:1|0:2,0:0:0:0:
139,372,38620,1,0,0:0:0:0:
139,372,38688,1,0,0:0:0:0:
139,372,38756,2,0,L|130:292,1,80,2|0,0:1|0:0,0:0:0:0:
200,199,39029,1,8,0:2:0:0:
273,249,39165,1,0,0:0:0:0:
341,174,39301,6,2,B|321:101|389:69|389:69|439:96,1,160,2|8,0:1|0:0,0:1:0:0:
508,173,39711,2,0,P|492:246|489:345,1,160,2|0,0:2|0:0,0:0:0:0:
395,384,40120,2,0,P|389:339|375:291,1,80,8|0,0:0|0:0,0:0:0:0:
260,229,40392,6,0,P|212:252|99:235,1,160,2|8,0:2|0:0,0:0:0:0:
34,166,40801,1,2,0:2:0:0:
34,166,40870,1,0,0:0:0:0:
34,166,40938,2,0,P|8:211|7:263,1,80
127,151,41211,2,0,L|208:132,1,80,8|0,0:0|0:0,0:0:0:0:
303,44,41483,6,0,L|308:4,2,40,6|0|0,0:0|0:0|0:0,0:0:0:0:
395,102,41756,2,0,L|434:105,2,40,10|0|0,0:2|0:0|0:0,0:0:0:0:
337,194,42029,2,0,L|333:233,2,40,2|0|0,0:1|0:0|0:0,0:0:0:0:
244,136,42301,2,0,L|204:132,2,40,10|0|0,0:2|0:0|0:0,0:0:0:0:
333,233,42574,6,0,L|372:238,2,40,6|0|0,0:0|0:0|0:0,0:0:0:0:
275,325,42847,2,0,L|271:364,2,40,10|0|0,0:2|0:0|0:0,0:0:0:0:
183,267,43120,2,0,L|143:263,2,40,2|0|0,0:1|0:0|0:0,0:0:0:0:
241,176,43392,2,0,L|244:136,2,40,10|0|0,0:2|0:0|0:0,0:0:0:0:
283,333,43665,5,6,1:1:0:0:
283,333,43733,1,0,1:0:0:0:
283,333,43801,1,0,1:0:0:0:
131,345,43938,2,0,L|128:385,2,40,10|0|0,0:2|0:0|0:0,0:0:0:0:
89,188,44211,1,2,1:1:0:0:
89,188,44279,1,0,1:0:0:0:
89,188,44347,1,0,1:0:0:0:
241,176,44484,2,0,L|244:136,2,40,10|0|0,0:2|0:0|0:0,0:0:0:0:
118,85,44756,6,2,B|234:89|178:17|303:21,1,191.999994140625,14|0,0:1|0:0,0:1:0:0:
331,160,45165,2,2,B|447:159|397:233|501:243,1,191.999994140625,14|8,0:1|0:0,0:1:0:0:
504,241,45506,1,8,0:0:0:0:
512,237,45574,2,0,P|505:188|493:118,1,95.9999970703126,8|8,0:0|0:0,0:0:0:0:
394,50,45847,6,2,B|370:75|340:71|340:71|293:40|247:36,1,160,6|8,0:1|0:2,0:1:0:0:
141,78,46256,1,0,0:2:0:0:
141,78,46324,1,0,0:0:0:0:
141,78,46392,2,0,B|127:40|127:40|137:0,1,80,2|0,0:1|0:0,0:0:0:0:
231,119,46665,1,8,0:0:0:0:
156,167,46801,1,0,0:0:0:0:
286,204,46938,6,0,P|352:193|395:188,1,80,2|0,0:1|0:0,0:0:0:0:
236,310,47211,2,0,P|170:299|68:285,1,160,8|2,0:0|0:1,0:0:0:0:
15,229,47620,1,0,0:0:0:0:
5,145,47756,1,8,0:0:0:0:
48,73,47892,1,0,0:0:0:0:
155,14,48029,6,0,B|222:5|248:50|329:44,1,160,2|8,0:1|0:0,0:0:0:0:
391,131,48438,1,0,0:1:0:0:
391,131,48506,1,0,0:0:0:0:
391,131,48574,2,0,P|447:119|506:114,1,80,2|0,0:1|0:0,0:0:0:0:
339,227,48847,2,0,P|306:210|255:193,1,80,8|0,0:0|0:0,0:0:0:0:
169,125,49120,6,0,P|106:144|71:253,1,160,2|8,0:1|0:0,0:0:0:0:
2,279,49529,1,0,0:0:0:0:
78,366,49665,2,0,P|124:353|185:343,1,80,2|0,0:1|0:0,0:0:0:0:
265,297,49938,1,8,0:0:0:0:
311,379,50074,1,0,0:0:0:0:
410,311,50211,6,0,B|421:277|421:277|393:221|426:150,1,160,6|8,0:1|0:0,0:0:0:0:
364,60,50620,1,0,0:0:0:0:
364,60,50688,1,0,0:0:0:0:
364,60,50756,2,0,P|407:41|452:34,1,80,2|0,0:1|0:0,0:0:0:0:
316,147,51029,1,8,0:0:0:0:
264,66,51165,1,0,0:0:0:0:
200,177,51301,6,0,P|160:172|114:155,1,80,2|0,0:1|0:0,0:0:0:0:
267,273,51574,2,0,P|304:260|344:255,1,80,10|0,0:1|0:0,0:0:0:0:
205,361,51847,2,0,P|167:348|127:343,1,80,2|0,0:1|0:0,0:0:0:0:
42,264,52120,1,10,0:1:0:0:
0,368,52256,1,0,0:0:0:0:
61,254,52392,6,2,B|93:169|39:163|71:64,1,191.999994140625,14|0,0:1|0:0,0:1:0:0:
166,195,52801,2,2,B|232:180|232:180|270:139|270:139|343:124,1,191.999994140625,14|0,0:1|0:0,0:1:0:0:
439,159,53211,2,2,B|452:112|452:112|431:68,1,95.9999970703126,14|0,0:1|0:0,0:1:0:0:
277,0,53483,5,14,0:1:0:0:
220,53,53620,2,2,B|231:153,1,95.9999970703126,2|0,0:1|0:0,0:1:0:0:
388,157,53892,1,14,0:1:0:0:
445,210,54029,2,2,B|434:310,1,95.9999970703126,2|8,0:1|0:0,0:1:0:0:
429,318,54233,1,8,0:0:0:0:
422,330,54301,2,0,P|353:323|323:305,1,95.9999970703126,8|8,0:0|0:0,0:0:0:0:
252,252,54574,6,0,P|213:301|203:386,2,131.200002001953,6|8|0,0:1|0:0|0:0,0:0:0:0:
316,212,55256,1,2,0:2:0:0:
381,174,55392,2,0,P|373:138|357:96,1,65.6000010009766,8|0,0:0|0:0,0:0:0:0:
418,37,55665,2,0,P|339:68|281:52,1,131.200002001953,2|8,0:2|0:0,0:0:0:0:
225,30,56074,1,2,0:2:0:0:
263,132,56211,2,0,P|184:163|126:147,1,131.200002001953,0|8,0:0|0:0,0:0:0:0:
141,154,56756,6,0,P|76:147|18:176,1,131.200002001953,2|8,0:2|0:0,0:0:0:0:
40,262,57165,2,0,P|105:269|163:240,1,131.200002001953,2|0,0:2|0:0,0:0:0:0:
231,296,57574,2,0,L|225:377,1,65.6000010009766,8|0,0:0|0:0,0:0:0:0:
311,378,57847,1,2,0:2:0:0:
311,378,57983,2,0,L|317:297,1,65.6000010009766,0|8,0:0|0:0,0:0:0:0:
401,287,58256,1,2,0:2:0:0:
401,287,58392,2,0,P|468:293|496:238,1,131.200002001953,0|10,0:0|0:2,0:0:0:0:
496,243,58938,6,0,B|506:295|506:295|495:319|495:319|507:379,2,131.200002001953,6|8|0,0:2|0:0|0:0,0:0:0:0:
444,187,59620,1,2,0:2:0:0:
382,229,59756,2,0,P|339:228|294:213,1,65.6000010009766,8|0,0:0|0:0,0:0:0:0:
243,157,60029,2,0,P|236:98|199:16,1,131.200002001953,2|8,0:2|0:0,0:0:0:0:
135,12,60438,1,2,0:2:0:0:
87,70,60574,2,0,P|94:129|131:211,1,131.200002001953,0|8,0:0|0:0,0:0:0:0:
345,282,61120,5,14,0:2:0:0:
345,282,61256,2,0,P|387:272|422:267,1,65.6000010009766
266,307,61529,5,14,0:2:0:0:
266,307,61665,2,0,P|308:317|343:322,1,65.6000010009766
180,356,61938,5,14,0:2:0:0:
180,356,62074,2,0,P|222:346|257:341,1,65.6000010009766
86,312,62347,5,14,0:2:0:0:
86,312,62483,2,0,P|128:322|163:327,1,65.6000010009766
12,371,62756,5,10,0:3:0:0:
38,208,63029,5,12,0:1:0:0:
194,89,63301,6,0,B|149:124|149:124|104:124|64:84,2,143.999995605469,6|8|0,0:2|0:0|0:0,0:0:0:0:
258,42,63983,1,2,0:2:0:0:
274,119,64120,2,0,L|281:219,1,71.9999978027344,8|0,0:0|0:0,0:0:0:0:
369,126,64392,2,0,B|411:115|446:60|507:46,1,143.999995605469,2|8,0:2|0:0,0:0:0:0:
510,128,64801,1,2,0:2:0:0:
507,207,64938,2,0,P|461:241|386:193,1,143.999995605469,0|8,0:0|0:0,0:0:0:0:
390,205,65483,6,0,L|372:364,1,143.999995605469,2|8,0:2|0:0,0:0:0:0:
292,378,65892,2,0,L|275:234,1,143.999995605469,2|0,0:2|0:0,0:0:0:0:
199,300,66301,2,0,P|163:301|126:287,1,71.9999978027344,8|0,0:0|0:0,0:0:0:0:
54,213,66574,2,0,P|55:144|94:77,1,143.999995605469,2|8,0:2|0:0,0:0:0:0:
155,32,66983,1,0,0:0:0:0:
220,77,67120,2,0,B|264:94|264:94|313:75|388:70,1,143.999995605469,2|8,0:2|0:2,0:0:0:0:
358,72,67665,6,0,L|366:-7,1,71.9999978027344,14|0,0:2|0:0,0:0:0:0:
436,146,67938,2,0,L|444:67,1,71.9999978027344,8|0,0:0|0:0,0:0:0:0:
265,149,68211,2,0,L|273:70,1,71.9999978027344,10|0,0:2|0:0,0:0:0:0:
402,236,68483,2,0,L|410:157,1,71.9999978027344,8|0,0:0|0:0,0:0:0:0:
283,266,68756,6,0,B|215:236|199:284|126:258,1,160,10|8,0:1|0:0,0:0:0:0:
35,306,69165,1,2,0:1:0:0:
1,213,69301,2,0,P|10:163|28:126,1,80,8|0,0:0|0:0,0:0:0:0:
132,67,69574,1,10,0:1:0:0:
159,154,69711,1,8,0:0:0:0:
227,60,69847,6,2,P|220:26|209:-10,1,60.0000022888184,4|0,0:1|0:0,0:1:0:0:
235,8,70256,6,2,P|243:37|249:67,1,60.0000022888184,4|0,0:1|0:0,0:1:0:0:
423,156,70665,6,2,P|416:122|405:86,1,60.0000022888184,4|0,0:1|0:0,0:1:0:0:
431,103,71074,6,2,P|439:131|444:161,1,60.0000022888184,4|0,0:1|0:0,0:1:0:0:
436,343,71483,5,10,0:3:0:0:
269,244,71756,5,0,0:0:0:0:
264,236,71824,1,0,0:0:0:0:
259,228,71892,1,0,0:0:0:0:
253,220,71961,1,0,0:0:0:0:
246,209,72029,6,0,P|202:209|155:221,1,88.000002685547,6|0,0:1|0:0,0:0:0:0:
286,114,72301,2,0,P|330:114|377:102,1,88.000002685547,10|0,0:2|0:0,0:0:0:0:
226,12,72574,1,2,0:1:0:0:
163,86,72711,1,0,0:0:0:0:
98,14,72847,1,8,0:0:0:0:
30,127,72983,6,2,P|9:171|13:311,1,176.000005371094,6|0,0:2|0:0,0:1:0:0:
134,294,73392,2,0,L|128:401,1,88.000002685547,8|0,0:0|0:0,0:0:0:0:
254,335,73665,2,0,L|260:228,1,88.000002685547
374,193,73938,5,8,0:1:0:0:
439,256,74074,1,0,0:0:0:0:
503,182,74211,2,2,P|498:137|478:90,1,88.000002685547,6|0,0:1|0:0,0:1:0:0:
493,9,74483,2,2,P|440:30|395:28,1,88.000002685547,10|0,0:2|0:0,0:1:0:0:
341,110,74756,2,2,P|292:84|156:77,1,176.000005371094,2|0,0:1|0:1,0:1:0:0:
62,169,75165,6,2,B|65:139|78:119|78:119|78:92|68:75|68:75|70:36|104:-4,1,176.000005371094,6|0,0:2|0:0,0:1:0:0:
162,157,75574,2,0,L|174:339,1,176.000005371094,8|2,0:0|0:2,0:0:0:0:
256,382,75983,1,0,0:0:0:0:
343,339,76120,1,10,0:2:0:0:
433,372,76256,1,0,0:0:0:0:
507,289,76392,6,0,P|511:213|484:111,2,176.000005371094,6|8|0,0:1|0:0|0:0,0:1:0:0:
412,181,77074,2,0,P|370:166|311:164,1,88.000002685547,2|8,0:2|0:0,0:0:0:0:
312,320,77347,2,0,B|270:358|216:344|216:344|197:318|157:303,1,176.000005371094,6|0,0:2|0:0,0:1:0:0:
18,269,77756,6,2,L|21:380,1,88.000002685547,10|0,0:1|0:0,0:1:0:0:
154,215,78029,2,2,L|156:302,1,88.000002685547,2|0,0:1|0:0,0:1:0:0:
0,170,78301,2,2,L|2:257,1,88.000002685547,10|0,0:1|0:0,0:1:0:0:
81,70,78574,5,6,0:1:0:0:
81,70,78711,1,0,0:0:0:0:
173,110,78847,1,10,0:2:0:0:
173,110,78983,1,0,0:0:0:0:
259,62,79120,1,2,0:2:0:0:
259,62,79256,1,0,0:0:0:0:
281,167,79392,1,10,0:1:0:0:
396,104,79529,6,0,P|451:110|508:238,1,191.999994140625,6|8,0:2|0:3,0:0:0:0:
510,234,79870,1,8,0:3:0:0:
507,248,79938,2,0,P|461:251|401:261,1,95.9999970703126,8|4,0:3|0:3,0:0:0:0:
338,351,80211,5,10,0:1:0:0:
246,322,80347,1,8,0:0:0:0:
164,371,80483,1,10,0:1:0:0:
74,335,80620,1,8,0:0:0:0:
152,255,80756,6,2,P|161:214|159:142,1,88.000002685547,6|0,0:1|0:0,0:1:0:0:
23,216,81029,2,2,P|24:172|33:129,1,88.000002685547,10|0,0:2|0:0,0:1:0:0:
131,26,81301,1,2,0:1:0:0:
208,69,81438,1,0,0:0:0:0:
274,11,81574,1,8,0:0:0:0:
357,83,81711,6,2,P|407:122|522:96,1,176.000005371094,6|0,0:2|0:0,0:1:0:0:
389,210,82120,2,0,P|342:195|288:189,1,88.000002685547,10|0,0:1|0:0,0:0:0:0:
289,179,82324,1,0,0:0:0:0:
272,172,82392,2,0,P|228:178|186:192,1,88.000002685547,2|0,0:2|0:0,0:0:0:0:
93,147,82665,1,10,0:2:0:0:
93,147,82801,1,0,0:0:0:0:
91,270,82938,6,2,P|52:266|3:252,1,88.000002685547,6|0,0:1|0:0,0:1:0:0:
201,359,83211,2,2,P|158:371|115:376,1,88.000002685547,10|0,0:1|0:0,0:1:0:0:
272,208,83483,2,2,P|228:203|186:190,1,88.000002685547,2|0,0:1|0:0,0:1:0:0:
351,325,83756,5,10,0:1:0:0:
351,325,83892,2,0,P|423:342|523:283,1,176.000005371094,6|2,0:2|0:1,0:0:0:0:
418,220,84301,1,10,0:2:0:0:
512,169,84438,1,0,0:0:0:0:
422,110,84574,2,0,L|412:2,1,88.000002685547,2|2,0:1|0:2,0:0:0:0:
320,174,84847,2,0,L|310:66,1,88.000002685547,8|0,0:0|0:0,0:0:0:0:
192,23,85120,6,2,P|130:27|63:136,1,176.000005371094,6|10,0:1|0:2,0:1:0:0:
133,179,85529,1,0,0:0:0:0:
86,254,85665,2,0,P|49:259|-5:268,1,88.000002685547,2|0,0:2|0:0,0:0:0:0:
146,160,85938,5,10,0:2:0:0:
203,260,86074,2,2,B|176:335|252:366|252:366|292:338,1,176.000005371094,6|2,0:1|0:2,0:1:0:0:
368,384,86483,1,8,0:0:0:0:
434,321,86620,1,2,0:2:0:0:
434,321,86688,1,0,0:0:0:0:
434,321,86756,2,0,L|419:223,1,88.000002685547,2|0,0:0|0:1,0:0:0:0:
294,230,87029,2,0,L|307:143,1,88.000002685547,10|2,0:2|0:2,0:0:0:0:
396,51,87301,6,0,P|439:39|504:34,1,88.000002685547,6|0,0:1|0:0,0:0:0:0:
307,143,87574,2,0,P|263:137|221:125,1,88.000002685547,10|0,0:2|0:0,0:0:0:0:
103,18,87847,2,0,P|42:42|21:154,1,176.000005371094,6|10,0:2|0:2,0:0:0:0:
0,273,88256,6,0,P|55:255|96:252,1,88.000002685547,14|8,1:1|1:1,0:0:0:0:
173,329,88529,1,8,3:3:0:0:
179,342,88597,1,8,3:3:0:0:
189,353,88665,1,8,3:3:0:0:
201,362,88733,1,8,3:3:0:0:
215,368,88801,1,8,3:3:0:0:
230,370,88870,1,8,3:3:0:0:
245,369,88938,2,0,L|255:336,3,30.0000011444092,4|4|4|4,3:3|3:3|3:3|3:3,0:0:0:0:
275,322,89211,2,0,B|260:230,1,90.0000034332277,8|0,3:2|2:0,0:0:0:0:
285,208,89483,6,0,B|294:159|294:159|290:144|290:144|299:90,1,120.000004577637,6|8,0:1|0:0,0:0:0:0:
383,157,89892,2,0,P|439:170|484:106,1,120.000004577637,2|0,0:2|0:0,0:0:0:0:
487,45,90301,1,8,0:0:0:0:
303,94,90574,5,2,0:2:0:0:
303,94,90711,2,0,P|270:100|232:97,1,60.0000022888184,0|8,0:0|0:0,0:0:0:0:
172,54,90983,2,0,P|126:27|40:38,1,120.000004577637,2|0,0:2|0:0,0:0:0:0:
3,89,91392,2,0,L|9:164,1,60.0000022888184,8|0,0:0|0:0,0:0:0:0:
81,229,91665,6,0,P|140:231|192:203,1,120.000004577637,2|8,0:2|0:0,0:0:0:0:
271,149,92074,2,0,P|276:90|315:19,1,120.000004577637,2|0,0:2|0:0,0:0:0:0:
388,8,92483,2,0,L|395:71,1,60.0000022888184,8|0,0:0|0:0,0:0:0:0:
478,160,92756,5,2,0:2:0:0:
478,160,92892,2,0,L|471:223,1,60.0000022888184
512,290,93165,2,0,P|446:267|375:263,1,120.000004577637,2|0,0:2|0:0,0:0:0:0:
317,290,93574,1,8,0:0:0:0:
182,188,93847,6,0,P|182:131|164:66,1,120.000004577637,6|0,0:2|0:0,0:0:0:0:
83,122,94256,2,0,P|83:179|101:244,1,120.000004577637,2|0,0:2|0:0,0:0:0:0:
173,279,94665,1,8,0:0:0:0:
320,160,94938,5,2,0:2:0:0:
320,160,95074,2,0,P|365:150|390:152,1,60.0000022888184,0|8,0:0|0:0,0:0:0:0:
448,197,95347,2,0,B|460:255|460:255|434:337,1,120.000004577637,2|0,0:2|0:0,0:0:0:0:
374,364,95756,2,0,P|345:355|315:354,1,60.0000022888184,8|0,0:0|0:0,0:0:0:0:
229,298,96029,6,0,P|184:329|119:326,1,120.000004577637,2|8,0:2|0:0,0:0:0:0:
32,381,96438,2,0,L|53:238,1,120.000004577637,2|0,0:2|0:0,0:0:0:0:
0,167,96847,1,8,0:0:0:0:
0,167,96983,1,8,0:0:0:0:
132,118,97120,1,14,0:1:0:0:
