osu file format v14

[General]
AudioFilename: audio.mp3
AudioLeadIn: 0
PreviewTime: 36813
Countdown: 0
SampleSet: Normal
StackLeniency: 0.7
Mode: 0
LetterboxInBreaks: 0
WidescreenStoryboard: 0

[Editor]
Bookmarks: 2211,4392,10938,17483,19665,28392,37120,45847,54574,63301,72029,80756,89483,97120
DistanceSpacing: 0.9
BeatDivisor: 4
GridSize: 32
TimelineZoom: 2.699999

[Metadata]
Title:counterattack
TitleUnicode:counterattack
Artist:Gaku
ArtistUnicode:Gaku
Creator:Lasse
Version:Despair
Source:サクラノモリ†ドリーマーズ
Tags:Sakura no Mori Dreamers sakuranomori soundtrack bgm eroge instrumental visual novel metal denkare Denkishiki Karen Ongaku Shuudan 電気式華憐音楽集団 vn video game
BeatmapID:3039376
BeatmapSetID:1481710

[Difficulty]
HPDrainRate:6
CircleSize:4
OverallDifficulty:9
ApproachRate:9.5
SliderMultiplier:1.9
SliderTickRate:1

[Events]
//Background and Video events
0,0,"bg.jpg",0,0
//Break Periods
//Storyboard Layer 0 (Background)
//Storyboard Layer 1 (Fail)
//Storyboard Layer 2 (Pass)
//Storyboard Layer 3 (Foreground)
//Storyboard Layer 4 (Overlay)
//Storyboard Sound Samples

[TimingPoints]
2211,272.727272727273,4,1,1,60,1,0
7665,-100,4,3,1,60,0,0
10938,-100,4,1,1,60,0,0
17483,-71.4285714285714,4,1,1,60,0,0
19665,-100,4,1,1,60,0,0
26211,-71.4285714285714,4,1,1,60,0,0
28392,-133.333333333333,4,1,1,50,0,0
37120,-100,4,1,1,60,0,0
43665,-100,4,1,1,64,0,0
44756,-83.3333333333333,4,1,1,67,0,0
45847,-90.9090909090909,4,1,1,64,0,0
52392,-66.6666666666667,4,1,1,64,0,0
54574,-121.951219512195,4,1,1,50,0,0
63301,-111.111111111111,4,1,1,55,0,0
68756,-111.111111111111,4,1,1,58,0,0
69847,-133.333333333333,4,1,1,54,0,0
72029,-90.9090909090909,4,1,1,63,0,0
80211,-90.9090909090909,4,1,1,65,0,0
80756,-83.3333333333333,4,1,1,67,0,0
88529,-133.333333333333,4,1,1,64,0,0
89415,-133.333333333333,4,1,1,5,0,0
89483,-133.333333333333,4,1,1,52,0,0

[Colours]
Combo1 : 240,140,140
Combo2 : 200,180,220
Combo3 : 240,200,155
Combo4 : 150,185,220

[HitObjects]
121,77,29,5,4,3:2:0:0:
105,151,165,1,0,3:0:0:0:
89,225,301,1,0,3:0:0:0:
162,202,438,5,4,3:2:0:0:
105,151,574,1,0,3:0:0:0:
32,174,710,1,0,3:0:0:0:
121,77,847,5,4,3:2:0:0:
162,202,983,1,0,3:0:0:0:
250,104,1120,1,0,3:0:0:0:
177,127,1256,5,4,3:2:0:0:
235,179,1392,1,0,3:0:0:0:
310,155,1529,1,0,3:0:0:0:
265,29,1665,5,0,0:0:0:0:
265,29,1733,1,0,0:0:0:0:
265,29,1801,1,0,0:0:0:0:
235,179,1938,1,0,0:0:0:0:
385,131,2074,1,0,0:0:0:0:
361,323,2211,5,4,0:1:0:0:
59,292,4392,5,4,0:1:0:0:
407,164,6574,5,4,0:1:0:0:
256,192,6642,12,8,7665,0:3:0:0:
206,312,8074,5,4,0:3:0:0:
416,96,8347,5,8,0:3:0:0:
426,174,8483,1,4,0:3:0:0:
85,70,8756,5,4,1:2:0:0:
18,137,8892,1,0,0:0:0:0:
110,162,9029,1,0,0:0:0:0:
230,326,9165,5,6,1:2:0:0:
196,237,9301,1,0,0:0:0:0:
290,251,9438,1,0,0:0:0:0:
418,102,9574,5,4,1:2:0:0:
387,272,9711,1,0,1:0:0:0:
256,160,9847,1,4,1:1:0:0:
135,41,10665,5,0,0:0:0:0:
135,41,10733,1,0,0:0:0:0:
135,41,10801,1,0,0:0:0:0:
135,41,10870,1,0,0:0:0:0:
135,41,10938,2,0,P|47:67|28:163,1,190,6|8,0:1|0:0,0:0:0:0:
159,309,11347,1,0,0:0:0:0:
64,362,11483,2,0,B|48:317|48:317|62:264,1,95,2|0,0:2|0:0,0:0:0:0:
254,256,11756,2,0,B|270:301|270:301|258:347,1,95,8|0,0:0|0:0,0:0:0:0:
355,145,12029,6,0,P|442:119|464:31,1,190,2|8,0:2|0:0,0:0:0:0:
278,71,12438,2,0,L|383:50,1,95,2|0,0:2|0:0,0:0:0:0:
464,31,12711,1,0,0:0:0:0:
373,238,12847,2,0,L|354:144,1,95,8|0,0:0|0:0,0:0:0:0:
173,31,13120,5,2,0:1:0:0:
102,129,13256,1,0,0:0:0:0:
66,31,13392,1,8,0:0:0:0:
208,133,13529,1,0,0:0:0:0:
37,205,13665,5,2,0:2:0:0:
102,129,13801,1,0,0:0:0:0:
213,286,13938,1,8,0:0:0:0:
148,362,14074,1,0,0:0:0:0:
93,264,14211,6,0,P|93:208|115:168,1,95,2|0,0:2|0:0,0:0:0:0:
245,132,14483,1,8,0:0:0:0:
328,323,14620,2,0,B|400:347|454:284|454:284|503:303,1,190,2|0,0:2|0:0,0:0:0:0:
363,209,15029,1,8,0:0:0:0:
411,96,15165,1,0,0:0:0:0:
263,18,15301,6,0,L|281:121,1,95,6|0,0:1|0:0,0:0:0:0:
59,22,15574,2,0,L|152:4,1,95,8|0,0:0|0:0,0:0:0:0:
14,194,15847,2,0,B|82:181|82:181|108:140|108:140|179:126,1,190,2|8,0:2|0:0,0:0:0:0:
179,126,16256,1,0,0:0:0:0:
179,380,16392,6,0,B|129:345|127:293|127:293|160:254|160:206,1,190,2|8,0:2|0:0,0:0:0:0:
315,31,16801,2,0,B|309:91|265:119|265:119|215:110|173:134,1,190,2|0,0:2|0:0,0:0:0:0:
3,98,17211,2,0,L|103:76,1,95,8|0,0:0|0:0,0:0:0:0:
333,0,17483,5,14,0:1:0:0:
418,68,17620,2,2,P|432:132|407:193,1,132.999995941162,2|0,0:1|0:0,0:1:0:0:
173,6,17892,5,14,0:1:0:0:
96,77,18029,2,2,P|82:141|108:202,1,132.999995941162,2|0,0:1|0:0,0:1:0:0:
323,270,18301,6,2,B|371:264|371:264|395:277|395:277|468:270,1,132.999995941162,14|0,0:1|0:0,0:1:0:0:
285,176,18574,5,14,0:1:0:0:
225,384,18711,1,0,0:0:0:0:
323,270,18847,1,2,0:2:0:0:
135,315,18983,2,2,B|87:309|87:309|63:322|63:322|-10:315,1,132.999995941162,14|0,0:1|0:0,0:1:0:0:
163,132,19256,5,8,0:1:0:0:
163,132,19324,1,8,0:0:0:0:
163,132,19392,1,8,0:0:0:0:
323,270,19529,1,8,0:0:0:0:
402,216,19665,6,0,B|432:110|358:132|396:31,1,190,6|8,0:1|0:0,0:0:0:0:
327,174,20074,1,0,0:0:0:0:
189,36,20211,2,0,P|239:30|305:17,1,95,2|0,0:2|0:0,0:0:0:0:
136,256,20483,2,0,P|186:262|252:275,1,95,8|0,0:0|0:0,0:0:0:0:
0,201,20756,6,0,B|72:182|72:182|88:142|88:142|164:119,1,190,2|8,0:2|0:0,0:0:0:0:
326,268,21165,1,2,0:2:0:0:
326,268,21233,1,0,0:0:0:0:
326,268,21301,1,0,0:2:0:0:
157,360,21438,1,0,0:0:0:0:
252,362,21574,2,0,L|222:239,1,95,8|0,0:0|0:0,0:0:0:0:
184,116,21847,5,2,0:1:0:0:
130,228,21983,1,0,0:0:0:0:
18,174,22120,1,8,0:0:0:0:
72,62,22256,1,0,0:0:0:0:
313,168,22392,5,2,0:2:0:0:
375,33,22529,1,0,0:0:0:0:
510,96,22665,1,8,0:0:0:0:
446,231,22801,1,0,0:0:0:0:
397,122,22938,6,0,B|383:94|383:94|386:63|386:63|374:32,1,95,2|0,0:2|0:0,0:0:0:0:
214,6,23211,1,8,0:0:0:0:
164,199,23347,1,2,0:2:0:0:
164,199,23415,1,0,0:0:0:0:
164,199,23483,2,0,L|180:292,1,95
80,264,23756,1,8,0:0:0:0:
264,227,23892,1,0,0:0:0:0:
363,351,24029,6,0,P|462:347|509:263,1,190,6|8,0:1|0:0,0:0:0:0:
507,276,24438,1,0,0:0:0:0:
422,174,24574,2,0,L|410:268,1,95,2|0,0:2|0:0,0:0:0:0:
195,370,24847,2,0,L|183:275,1,95,8|0,0:0|0:0,0:0:0:0:
84,94,25120,6,0,P|11:151|0:243,1,190,2|8,0:2|0:0,0:0:0:0:
189,128,25529,1,2,0:2:0:0:
189,128,25597,1,0,0:0:0:0:
189,128,25665,2,0,B|234:141|234:141|275:115,1,95
409,268,25938,2,0,B|454:281|454:281|495:255,1,95,8|0,0:0|0:0,0:0:0:0:
364,108,26211,5,14,0:1:0:0:
289,217,26347,2,0,B|301:267|301:267|296:305|296:305|306:348,1,132.999995941162,2|0,0:1|0:0,0:0:0:0:
46,226,26620,5,14,0:1:0:0:
148,373,26756,2,0,B|156:328|156:328|152:299|152:299|165:240,1,132.999995941162,2|0,0:1|0:0,0:0:0:0:
441,57,27029,6,0,B|394:45|394:45|359:62|359:62|304:52,1,132.999995941162,14|0,0:1|0:0,0:0:0:0:
205,15,27301,5,14,0:1:0:0:
361,183,27438,1,2,0:2:0:0:
158,298,27574,1,2,0:2:0:0:
0,127,27711,1,14,0:1:0:0:
321,62,27983,5,8,0:0:0:0:
321,62,28051,1,8,0:0:0:0:
321,62,28120,1,8,0:0:0:0:
310,266,28256,1,8,0:0:0:0:
370,342,28392,6,0,L|521:331,1,142.500005435944,6|8,0:1|0:0,0:0:0:0:
263,192,28801,2,0,P|226:239|239:318,1,142.500005435944,2|0,0:2|0:0,0:0:0:0:
310,266,29211,2,0,L|371:195,1,71.2500027179719,8|0,0:0|0:0,0:0:0:0:
218,115,29483,5,2,0:2:0:0:
218,115,29620,2,0,L|264:60,1,71.2500027179719,0|8,0:2|0:0,0:0:0:0:
105,18,29892,2,0,P|90:85|130:142,1,142.500005435944,2|0,0:2|0:0,0:0:0:0:
77,203,30301,2,0,L|3:193,1,71.2500027179719,8|0,0:0|0:0,0:0:0:0:
195,245,30574,6,0,B|147:250|147:250|112:289|63:285,1,142.500005435944,2|8,0:2|0:0,0:0:0:0:
175,335,30983,2,0,B|261:325|227:380|307:382,1,142.500005435944,2|0,0:2|0:0,0:0:0:0:
379,357,31392,2,0,L|392:286,1,71.2500027179719,8|0,0:0|0:0,0:0:0:0:
409,210,31665,5,2,0:2:0:0:
335,233,31801,1,0,0:0:0:0:
465,263,31938,1,8,0:0:0:0:
352,159,32074,2,0,L|492:134,1,142.500005435944,2|0,0:2|0:0,0:0:0:0:
308,15,32483,5,8,0:0:0:0:
308,15,32756,2,0,B|297:76|241:86|241:86|196:67,1,142.500005435944,6|8,0:2|0:0,0:0:0:0:
121,163,33165,2,0,B|152:135|152:135|114:97|131:42,1,142.500005435944,2|0,0:2|0:0,0:0:0:0:
239,168,33574,2,0,L|184:213,1,71.2500027179719,8|0,0:0|0:0,0:0:0:0:
124,268,33847,5,2,0:2:0:0:
237,278,33983,2,0,L|291:232,1,71.2500027179719,0|8,0:0|0:0,0:0:0:0:
261,370,34256,2,0,L|369:277,1,142.500005435944,2|0,0:2|0:0,0:0:0:0:
239,168,34665,2,0,L|184:213,1,71.2500027179719,8|0,0:0|0:0,0:0:0:0:
43,155,34938,6,0,P|26:87|57:24,1,142.500005435944,2|8,0:2|0:0,0:0:0:0:
199,83,35347,2,0,P|215:150|184:213,1,142.500005435944,2|0,0:2|0:0,0:0:0:0:
89,288,35756,2,0,B|53:256|-11:266|-11:266|19:246,1,142.500005435944,8|14,0:0|0:1,0:0:0:0:
19,245,36847,5,0,1:0:0:0:
24,227,36915,1,0,1:0:0:0:
29,210,36983,1,0,1:0:0:0:
34,193,37051,1,0,1:0:0:0:
39,176,37120,2,2,B|136:143|110:228|220:194,1,190,6|8,0:1|0:0,0:1:0:0:
342,91,37529,1,0,0:0:0:0:
199,70,37665,2,0,L|85:55,1,95,2|0,0:1|0:0,0:0:0:0:
149,298,37938,2,0,L|37:282,1,95,8|0,0:2|0:0,0:0:0:0:
402,253,38211,5,2,0:1:0:0:
454,384,38347,1,0,0:0:0:0:
510,285,38483,1,8,0:2:0:0:
344,350,38620,1,0,0:0:0:0:
187,223,38756,5,2,0:1:0:0:
124,380,38892,1,0,0:0:0:0:
57,261,39029,1,8,0:2:0:0:
256,339,39165,1,0,0:0:0:0:
340,197,39301,6,2,P|369:113|335:11,1,190,2|8,0:1|0:0,0:1:0:0:
49,81,39711,2,0,L|238:105,1,190,2|0,0:2|0:0,0:0:0:0:
50,271,40120,2,0,L|61:176,1,95,8|0,0:0|0:0,0:0:0:0:
245,362,40392,2,0,P|234:273|147:258,1,190,2|8,0:2|0:0,0:0:0:0:
326,90,40801,5,2,0:2:0:0:
326,90,40870,1,0,0:0:0:0:
326,90,40938,2,0,B|372:101|372:101|422:79,1,95
186,126,41211,2,0,L|201:32,1,95,8|0,0:0|0:0,0:0:0:0:
422,203,41483,5,6,1:1:0:0:
448,191,41551,1,0,1:0:0:0:
476,188,41620,1,0,1:0:0:0:
326,179,41756,5,10,1:2:0:0:
314,153,41825,1,0,1:0:0:0:
311,124,41893,1,0,1:0:0:0:
302,271,42029,5,2,1:1:0:0:
276,283,42097,1,0,1:0:0:0:
247,285,42165,1,0,1:0:0:0:
396,297,42301,5,10,1:2:0:0:
408,323,42369,1,0,1:0:0:0:
411,351,42437,1,0,1:0:0:0:
250,204,42575,5,2,1:1:0:0:
231,177,42643,1,0,1:0:0:0:
230,144,42711,1,0,1:0:0:0:
472,268,42846,5,10,1:2:0:0:
491,295,42914,1,0,1:0:0:0:
491,328,42983,1,0,1:0:0:0:
395,127,43119,5,2,1:1:0:0:
422,108,43188,1,0,1:0:0:0:
455,108,43256,1,0,1:0:0:0:
327,349,43392,5,10,1:2:0:0:
300,368,43460,1,0,1:0:0:0:
267,368,43528,1,0,1:0:0:0:
93,240,43665,5,6,1:1:0:0:
72,277,43733,1,0,1:0:0:0:
78,319,43801,1,0,1:0:0:0:
318,261,43938,5,10,1:0:0:0:
324,219,44006,1,0,1:0:0:0:
303,182,44074,1,0,1:1:0:0:
67,73,44211,5,6,1:1:0:0:
46,110,44279,1,0,1:0:0:0:
52,152,44347,1,0,1:0:0:0:
338,100,44483,5,10,1:0:0:0:
344,58,44552,1,0,1:0:0:0:
323,21,44620,1,0,1:1:0:0:
216,255,44756,6,2,B|136:236|136:236|90:263|90:263|-10:243,1,227.999993041992,14|0,0:1|0:0,0:1:0:0:
323,21,45165,2,2,B|402:34|402:34|457:103|410:171,1,227.999993041992,14|8,0:1|0:0,0:1:0:0:
396,188,45506,1,8,0:0:0:0:
378,202,45574,2,0,L|263:174,1,113.999996520996,8|8,0:0|0:0,0:0:0:0:
101,0,45847,6,2,B|93:74|14:101|14:101|0:166,1,209.000006378174,6|8,0:1|0:2,0:1:0:0:
115,279,46256,1,0,0:2:0:0:
115,279,46324,1,0,0:0:0:0:
115,279,46392,1,2,0:1:0:0:
32,293,46529,1,0,0:0:0:0:
46,376,46665,1,8,0:0:0:0:
129,362,46801,1,0,0:0:0:0:
165,204,46938,5,2,0:1:0:0:
268,282,47074,1,0,0:0:0:0:
346,179,47211,1,8,0:0:0:0:
243,101,47347,1,0,0:2:0:0:
141,209,47483,5,2,0:1:0:0:
370,174,47620,1,0,0:0:0:0:
238,77,47756,1,8,0:0:0:0:
273,306,47892,1,0,0:0:0:0:
474,283,48029,6,0,P|490:332|492:389,1,104.500003189087,2|0,0:1|0:0,0:0:0:0:
347,259,48301,1,8,0:0:0:0:
403,163,48438,1,0,0:1:0:0:
403,163,48506,1,0,0:0:0:0:
403,163,48574,2,0,L|518:146,1,104.500003189087,2|0,0:1|0:0,0:0:0:0:
304,103,48847,2,0,L|288:0,1,104.500003189087,8|0,0:0|0:0,0:0:0:0:
195,175,49120,5,2,0:1:0:0:
90,224,49256,1,0,0:0:0:0:
12,139,49392,1,8,0:0:0:0:
117,90,49529,1,0,0:0:0:0:
210,177,49665,5,2,0:1:0:0:
82,236,49801,1,0,0:0:0:0:
176,343,49938,1,8,0:0:0:0:
304,283,50074,1,0,0:0:0:0:
382,354,50211,6,0,P|482:359|512:268,1,209.000006378174,6|8,0:1|0:0,0:0:0:0:
360,153,50620,1,0,0:0:0:0:
360,153,50688,1,0,0:0:0:0:
360,153,50756,1,2,0:1:0:0:
271,184,50892,1,0,0:0:0:0:
183,148,51029,1,8,0:0:0:0:
98,188,51165,1,0,0:0:0:0:
33,124,51301,5,2,0:1:0:0:
107,300,51438,1,0,0:0:0:0:
206,34,51574,1,10,0:1:0:0:
287,266,51711,1,0,0:0:0:0:
343,71,51847,1,2,0:1:0:0:
404,234,51983,1,0,0:0:0:0:
461,116,52120,1,10,0:1:0:0:
507,191,52256,1,0,0:0:0:0:
333,52,52392,6,2,B|234:72|166:5|166:5|66:38,1,285.000010871888,14|0,0:1|0:0,0:1:0:0:
231,193,52801,2,2,P|136:219|113:405,1,285.000010871888,14|0,0:1|0:0,0:1:0:0:
371,304,53211,2,2,P|438:295|518:289,1,142.500005435944,14|0,0:1|0:0,0:1:0:0:
299,27,53483,5,14,0:1:0:0:
185,106,53620,2,2,B|115:123|115:123|42:68,1,142.500005435944,2|0,0:1|0:0,0:1:0:0:
309,10,53892,1,14,0:1:0:0:
377,149,54029,2,2,B|447:166|447:166|520:111,1,142.500005435944,2|8,0:1|0:0,0:1:0:0:
503,123,54233,1,8,0:0:0:0:
503,123,54301,1,8,0:0:0:0:
350,238,54438,1,8,0:0:0:0:
458,248,54574,6,0,P|505:307|501:384,2,155.800002377319,6|8|0,0:1|0:0|0:0,0:0:0:0:
414,182,55256,1,2,0:2:0:0:
321,328,55392,2,0,P|367:319|407:317,1,77.9000011886597,8|0,0:0|0:0,0:0:0:0:
275,247,55665,2,0,P|227:306|231:382,1,155.800002377319,2|8,0:2|0:0,0:0:0:0:
231,382,56074,1,2,0:2:0:0:
133,329,56211,2,0,L|56:341,1,77.9000011886597
171,235,56483,2,0,L|156:132,1,77.9000011886597,8|0,0:0|0:0,0:0:0:0:
275,247,56756,6,0,B|367:237|320:195|440:193,1,155.800002377319,2|8,0:2|0:0,0:0:0:0:
512,94,57165,2,0,P|468:101|425:4,1,155.800002377319,2|0,0:2|0:0,0:0:0:0:
282,108,57574,2,0,P|320:113|365:121,1,77.9000011886597,8|0,0:0|0:0,0:0:0:0:
181,37,57847,1,2,0:2:0:0:
181,37,57983,2,0,P|217:30|258:25,1,77.9000011886597,0|8,0:0|0:0,0:0:0:0:
160,192,58256,1,2,0:2:0:0:
160,192,58392,2,0,P|201:183|237:180,1,77.9000011886597
37,92,58665,2,0,P|75:96|113:103,1,77.9000011886597,10|0,0:2|0:0,0:0:0:0:
56,238,58938,6,0,P|20:287|12:396,2,155.800002377319,6|8|0,0:2|0:0|0:0,0:0:0:0:
125,199,59620,1,2,0:2:0:0:
175,343,59756,2,0,P|126:327|86:325,1,77.9000011886597,8|0,0:0|0:0,0:0:0:0:
223,242,60029,2,0,P|265:306|270:383,1,155.800002377319,2|8,0:2|0:0,0:0:0:0:
269,383,60438,1,2,0:2:0:0:
366,318,60574,2,0,P|409:309|456:303,1,77.9000011886597
320,234,60847,2,0,P|311:195|306:157,1,77.9000011886597,8|0,0:0|0:0,0:0:0:0:
353,26,61120,5,14,0:2:0:0:
396,123,61256,1,0,0:0:0:0:
396,123,61392,1,0,0:0:0:0:
267,64,61529,5,14,0:2:0:0:
310,161,61665,1,0,0:0:0:0:
310,161,61801,1,0,0:0:0:0:
181,102,61938,5,14,0:2:0:0:
224,199,62074,1,0,0:0:0:0:
224,199,62211,1,0,0:0:0:0:
95,140,62347,5,14,0:2:0:0:
138,237,62483,1,0,0:0:0:0:
138,237,62620,1,0,0:0:0:0:
267,64,62756,5,10,0:3:0:0:
233,382,63029,1,12,0:1:0:0:
446,206,63301,6,0,P|510:281|486:367,2,170.999994781494,6|8|0,0:2|0:0|0:0,0:0:0:0:
362,253,63983,1,2,0:2:0:0:
350,139,64120,2,0,L|457:122,1,85.4999973907472,8|0,0:0|0:0,0:0:0:0:
273,211,64392,2,0,L|238:6,1,170.999994781494,2|8,0:2|0:0,0:0:0:0:
244,42,64801,1,2,0:2:0:0:
160,101,64938,2,0,L|75:114,1,85.4999973907472
184,196,65211,2,0,L|197:280,1,85.4999973907472,8|0,0:0|0:0,0:0:0:0:
55,233,65483,6,0,P|7:297|15:389,1,170.999994781494,2|8,0:2|0:0,0:0:0:0:
184,302,65892,2,0,P|264:288|377:287,1,170.999994781494,2|0,0:2|0:0,0:0:0:0:
412,232,66301,1,8,0:0:0:0:
412,232,66574,1,2,0:2:0:0:
353,285,66711,1,0,0:0:0:0:
289,202,66847,1,8,0:0:0:0:
380,117,66983,1,0,0:0:0:0:
271,24,67120,2,0,L|359:20,1,85.4999973907472,2|0,0:2|0:0,0:0:0:0:
183,176,67392,2,0,L|179:90,1,85.4999973907472,8|0,0:2|0:0,0:0:0:0:
19,24,67665,5,14,0:2:0:0:
19,24,67801,1,0,0:0:0:0:
28,105,67938,1,8,0:0:0:0:
28,105,68074,1,0,0:0:0:0:
130,14,68211,5,10,0:2:0:0:
130,14,68347,1,0,0:0:0:0:
92,163,68483,1,8,0:0:0:0:
92,163,68620,1,0,0:0:0:0:
281,70,68756,5,10,0:1:0:0:
138,231,68892,1,0,0:0:0:0:
348,274,69029,1,8,0:0:0:0:
154,101,69165,5,2,0:1:0:0:
228,325,69301,1,8,0:0:0:0:
384,149,69438,1,0,0:0:0:0:
256,192,69574,5,10,0:1:0:0:
256,192,69711,1,8,0:0:0:0:
384,149,69847,6,2,L|470:125,1,71.2500027179719,4|0,0:1|0:0,0:1:0:0:
127,234,70256,2,2,L|41:258,1,71.2500027179719,4|0,0:1|0:0,0:1:0:0:
356,282,70665,2,2,L|420:345,1,71.2500027179719,4|0,0:1|0:0,0:1:0:0:
155,101,71074,2,2,L|91:38,1,71.2500027179719,4|0,0:1|0:0,0:1:0:0:
256,192,71483,5,10,0:3:0:0:
171,259,71756,5,0,0:0:0:0:
171,259,71824,1,0,0:0:0:0:
171,259,71892,1,0,0:0:0:0:
171,259,71961,1,0,0:0:0:0:
171,259,72029,2,0,P|120:265|62:277,1,104.500003189087,6|0,0:1|0:0,0:0:0:0:
341,125,72301,2,0,P|392:119|450:107,1,104.500003189087,10|0,0:2|0:0,0:0:0:0:
168,133,72574,5,2,0:1:0:0:
291,227,72711,1,0,0:0:0:0:
196,8,72847,1,8,0:0:0:0:
49,187,72983,2,2,P|12:288|37:391,1,209.000006378174,6|0,0:2|0:0,0:1:0:0:
297,241,73392,2,0,P|250:249|194:263,1,104.500003189087,8|0,0:0|0:0,0:0:0:0:
466,384,73665,2,0,P|415:371|363:362,1,104.500003189087
512,210,73938,5,8,0:1:0:0:
512,210,74074,1,0,0:0:0:0:
430,113,74211,2,2,L|460:9,1,104.500003189087,6|0,0:1|0:0,0:1:0:0:
297,241,74483,2,2,L|401:271,1,104.500003189087,10|0,0:2|0:0,0:1:0:0:
179,96,74756,2,2,P|128:147|132:315,1,209.000006378174,2|0,0:1|0:1,0:1:0:0:
429,202,75165,2,2,P|428:304|363:384,1,209.000006378174,6|0,0:2|0:0,0:1:0:0:
287,109,75574,2,0,L|402:90,1,104.500003189087,8|0,0:0|0:0,0:0:0:0:
201,0,75847,5,2,0:2:0:0:
124,244,75983,1,0,0:0:0:0:
92,69,76120,5,10,0:2:0:0:
234,270,76256,1,0,0:0:0:0:
49,172,76392,6,0,P|6:245|15:398,2,209.000006378174,6|8|0,0:1|0:0|0:0,0:1:0:0:
294,308,77074,2,0,P|239:309|181:329,1,104.500003189087,2|8,0:2|0:0,0:0:0:0:
424,148,77347,2,0,P|467:221|458:374,1,209.000006378174,6|0,0:2|0:0,0:1:0:0:
181,37,77756,6,2,P|236:36|294:16,1,104.500003189087,10|0,0:1|0:0,0:1:0:0:
92,270,78029,2,2,P|91:215|71:157,1,104.500003189087,2|0,0:1|0:0,0:1:0:0:
331,347,78301,2,2,P|276:348|218:368,1,104.500003189087,10|0,0:1|0:0,0:1:0:0:
414,118,78574,5,6,0:1:0:0:
446,217,78711,1,0,0:0:0:0:
512,140,78847,1,10,0:2:0:0:
346,193,78983,1,0,0:0:0:0:
391,21,79120,1,2,0:2:0:0:
391,21,79256,1,0,0:0:0:0:
136,176,79392,5,10,0:1:0:0:
305,86,79529,1,6,0:2:0:0:
162,2,79665,1,2,0:2:0:0:
254,233,79801,5,8,0:3:0:0:
254,233,79870,1,8,0:3:0:0:
254,233,79938,1,8,0:3:0:0:
35,266,80074,1,4,0:3:0:0:
211,95,80211,5,10,0:1:0:0:
149,349,80347,1,8,0:0:0:0:
396,53,80483,5,10,0:1:0:0:
476,368,80620,1,8,0:0:0:0:
351,164,80756,6,2,P|409:153|483:150,1,113.999996520996,6|0,0:1|0:0,0:1:0:0:
246,364,81029,2,2,P|302:367|358:378,1,113.999996520996,10|0,0:2|0:0,0:1:0:0:
177,178,81301,5,2,0:1:0:0:
61,258,81438,1,0,0:0:0:0:
150,46,81574,1,8,0:0:0:0:
290,263,81711,2,2,P|400:260|465:171,1,227.999993041992,6|0,0:2|0:0,0:1:0:0:
278,116,82120,6,0,P|272:55|249:2,1,113.999996520996,10|0,0:1|0:0,0:0:0:0:
251,6,82324,1,0,0:0:0:0:
251,6,82392,1,2,0:2:0:0:
45,126,82529,1,0,0:0:0:0:
177,178,82665,1,10,0:2:0:0:
61,258,82801,1,0,0:0:0:0:
244,269,82938,6,2,P|251:320|250:383,1,113.999996520996,6|0,0:1|0:0,0:1:0:0:
386,192,83211,2,2,P|439:173|501:164,1,113.999996520996,10|0,0:1|0:0,0:1:0:0:
157,66,83483,2,2,P|100:45|42:38,1,113.999996520996,2|0,0:1|0:0,0:1:0:0:
326,15,83756,5,10,0:1:0:0:
184,186,83892,1,6,0:2:0:0:
184,186,83961,1,0,0:0:0:0:
184,186,84029,1,0,0:2:0:0:
278,186,84165,5,2,0:1:0:0:
151,274,84301,1,10,0:2:0:0:
291,340,84438,1,0,0:0:0:0:
184,186,84574,5,2,0:1:0:0:
198,357,84711,1,2,0:2:0:0:
338,259,84847,1,8,0:0:0:0:
338,259,84983,1,0,0:0:0:0:
471,271,85120,6,2,P|478:321|477:401,1,113.999996520996,6|0,0:1|0:0,0:1:0:0:
338,259,85392,1,10,0:2:0:0:
456,151,85529,1,0,0:0:0:0:
318,70,85665,1,2,0:2:0:0:
200,178,85801,1,0,0:0:0:0:
338,259,85938,1,10,0:2:0:0:
112,271,86074,6,2,P|104:327|104:384,1,113.999996520996,6|0,0:1|0:0,0:1:0:0:
232,266,86347,1,2,0:2:0:0:
35,184,86483,1,8,0:0:0:0:
199,68,86620,1,2,0:2:0:0:
199,68,86688,1,0,0:0:0:0:
199,68,86756,1,0,0:0:0:0:
97,25,86892,5,2,0:1:0:0:
112,271,87029,1,10,0:2:0:0:
358,256,87165,1,2,0:2:0:0:
441,200,87301,5,6,0:1:0:0:
441,200,87438,1,0,0:0:0:0:
413,342,87574,1,10,0:2:0:0:
413,342,87711,1,0,0:0:0:0:
371,122,87847,5,6,0:2:0:0:
316,384,87983,1,2,0:2:0:0:
54,329,88120,1,10,0:2:0:0:
109,67,88256,1,14,1:1:0:0:
109,67,88324,1,8,1:1:0:0:
109,67,88392,1,8,1:1:0:0:
217,6,88529,5,8,3:3:0:0:
227,51,88597,1,8,3:3:0:0:
257,85,88665,1,8,3:3:0:0:
301,95,88733,1,8,3:3:0:0:
346,86,88801,1,8,3:3:0:0:
373,47,88870,1,8,3:3:0:0:
412,23,88938,1,4,3:3:0:0:
458,23,89006,1,4,3:3:0:0:
498,44,89074,1,4,3:3:0:0:
512,87,89142,1,4,3:3:0:0:
508,133,89211,2,0,B|494:178|494:178|498:195|498:195|479:259,1,106.875004076958,8|0,3:2|2:0,0:0:0:0:
490,261,89483,6,0,B|411:227|425:288|344:253,1,142.500005435944,6|8,0:1|0:0,0:0:0:0:
282,381,89892,2,0,P|275:295|243:228,1,142.500005435944,2|0,0:2|0:0,0:0:0:0:
185,310,90301,2,0,P|150:301|98:301,1,71.2500027179719,8|0,0:0|0:0,0:0:0:0:
0,312,90574,5,2,0:2:0:0:
0,312,90711,1,0,0:0:0:0:
62,374,90847,1,8,0:0:0:0:
52,233,90983,2,0,P|67:166|111:90,1,142.500005435944,2|0,0:2|0:0,0:0:0:0:
198,161,91392,2,0,L|179:81,1,71.2500027179719,8|0,0:0|0:0,0:0:0:0:
312,49,91665,6,0,B|259:55|259:55|231:12|186:9,1,142.500005435944,2|8,0:2|0:0,0:0:0:0:
284,134,92074,2,0,B|337:128|337:128|364:170|409:173,1,142.500005435944,2|0,0:2|0:0,0:0:0:0:
510,253,92483,2,0,P|505:216|493:181,1,71.2500027179719,8|0,0:0|0:0,0:0:0:0:
461,103,92756,5,2,0:2:0:0:
409,173,92892,1,0,0:0:0:0:
357,89,93029,1,0,0:0:0:0:
299,204,93165,2,0,B|229:181|261:136|170:121,1,142.500005435944,2|0,0:2|0:0,0:0:0:0:
127,61,93574,5,8,0:0:0:0:
127,61,93847,2,0,L|140:224,1,142.500005435944,6|0,0:2|0:0,0:0:0:0:
0,276,94256,2,0,B|26:247|70:251|70:251|89:278|126:283,1,142.500005435944,2|0,0:2|0:0,0:0:0:0:
200,384,94665,2,0,P|205:345|226:292,1,71.2500027179719,8|0,0:0|0:0,0:0:0:0:
296,246,94938,5,2,0:2:0:0:
375,293,95074,1,0,0:0:0:0:
448,235,95211,1,8,0:0:0:0:
369,188,95347,2,0,B|340:133|392:113|362:49,1,142.500005435944,2|0,0:2|0:0,0:0:0:0:
442,149,95756,2,0,B|477:154|477:154|510:127,1,71.2500027179719,8|0,0:0|0:0,0:0:0:0:
289,86,96029,6,0,P|236:65|137:69,1,142.500005435944,2|8,0:2|0:0,0:0:0:0:
267,240,96438,2,0,P|196:242|129:219,1,142.500005435944,2|0,0:2|0:0,0:0:0:0:
0,268,96847,5,8,0:0:0:0:
49,130,96983,1,8,0:0:0:0:
91,361,97120,1,14,0:1:0:0:
