osu file format v14

[General]
AudioFilename: audio.mp3
AudioLeadIn: 0
PreviewTime: 35904
Countdown: 0
SampleSet: Normal
StackLeniency: 0.7
Mode: 1
LetterboxInBreaks: 0
WidescreenStoryboard: 0

[Editor]
Bookmarks: 11192,16244,26350,36455,46560,56665,66771
DistanceSpacing: 1
BeatDivisor: 4
GridSize: 32
TimelineZoom: 1

[Metadata]
Title:JUST LIVE MORE (TV Size)
TitleUnicode:JUST LIVE MORE (TV Size)
Artist:Gaim no Kaze
ArtistUnicode:鎧武乃風
Creator:DakeDekaane
Version:Oni
Source:仮面ライダー鎧武
Tags:Kamen Rider Gaim opening tokusatsu ガイム Shōnan no Kaze 湘南乃風 pop rock japanese jrock jpop j-rock j-pop
BeatmapID:2039079
BeatmapSetID:974111

[Difficulty]
HPDrainRate:6
CircleSize:2
OverallDifficulty:6
ApproachRate:10
SliderMultiplier:1.4
SliderTickRate:1

[Events]
//Background and Video events
0,0,"52288775_p0.png",0,0
//Break Periods
//Storyboard Layer 0 (Background)
//Storyboard Layer 1 (Fail)
//Storyboard Layer 2 (Pass)
//Storyboard Layer 3 (Foreground)
//Storyboard Layer 4 (Overlay)
//Storyboard Sound Samples

[TimingPoints]
1110,315.789473684211,4,1,0,80,1,0
36478,-100,4,1,0,80,0,1
56688,-100,4,1,0,80,0,0

[HitObjects]
256,192,1110,5,0,0:0:0:0:
256,192,3636,1,0,0:0:0:0:
256,192,4741,1,8,0:0:0:0:
256,192,4820,1,8,0:0:0:0:
256,192,4899,1,8,0:0:0:0:
256,192,5057,1,8,0:0:0:0:
256,192,5373,1,8,0:0:0:0:
256,192,5531,1,8,0:0:0:0:
256,192,5846,1,8,0:0:0:0:
256,192,6004,1,8,0:0:0:0:
256,192,6162,1,0,0:0:0:0:
256,192,7425,1,8,0:0:0:0:
256,192,8057,1,8,0:0:0:0:
256,192,8688,1,0,0:0:0:0:
256,192,9162,1,0,0:0:0:0:
256,192,9952,2,0,B|512:192|512:192|512:0,1,420
256,192,11215,5,4,0:0:0:0:
256,192,11373,1,4,0:0:0:0:
256,192,11688,1,4,0:0:0:0:
256,192,12004,1,0,0:0:0:0:
256,192,12083,1,0,0:0:0:0:
256,192,12162,1,0,0:0:0:0:
256,192,12478,1,12,0:0:0:0:
256,192,12636,1,12,0:0:0:0:
256,192,12952,1,12,0:0:0:0:
256,192,13267,1,8,0:0:0:0:
256,192,13346,1,8,0:0:0:0:
256,192,13425,1,8,0:0:0:0:
256,192,13741,1,4,0:0:0:0:
256,192,13899,1,4,0:0:0:0:
256,192,14215,1,4,0:0:0:0:
256,192,14531,1,0,0:0:0:0:
256,192,14610,1,0,0:0:0:0:
256,192,14688,1,0,0:0:0:0:
256,192,15004,1,12,0:0:0:0:
256,192,15162,1,12,0:0:0:0:
256,192,15478,1,12,0:0:0:0:
256,192,15794,1,8,0:0:0:0:
256,192,15873,1,8,0:0:0:0:
256,192,15952,1,8,0:0:0:0:
256,192,16110,1,8,0:0:0:0:
256,192,16267,5,4,0:0:0:0:
256,192,16583,1,0,0:0:0:0:
256,192,16899,1,0,0:0:0:0:
256,192,17215,1,0,0:0:0:0:
256,192,17373,1,0,0:0:0:0:
256,192,17531,1,0,0:0:0:0:
256,192,18004,1,0,0:0:0:0:
256,192,18636,1,0,0:0:0:0:
256,192,18794,1,0,0:0:0:0:
256,192,18952,1,0,0:0:0:0:
256,192,19110,1,8,0:0:0:0:
256,192,19188,1,8,0:0:0:0:
256,192,19267,1,0,0:0:0:0:
256,192,19425,1,0,0:0:0:0:
256,192,19583,1,8,0:0:0:0:
256,192,19662,1,8,0:0:0:0:
256,192,19741,1,0,0:0:0:0:
256,192,19899,1,0,0:0:0:0:
256,192,20057,1,0,0:0:0:0:
256,192,20531,1,0,0:0:0:0:
256,192,20846,1,0,0:0:0:0:
256,192,21004,1,8,0:0:0:0:
256,192,21320,1,0,0:0:0:0:
256,192,21636,1,0,0:0:0:0:
256,192,21952,1,0,0:0:0:0:
256,192,22267,1,0,0:0:0:0:
256,192,22425,1,0,0:0:0:0:
256,192,22583,1,0,0:0:0:0:
256,192,22899,1,0,0:0:0:0:
256,192,23057,1,0,0:0:0:0:
256,192,23688,1,0,0:0:0:0:
256,192,23846,1,0,0:0:0:0:
256,192,24004,1,0,0:0:0:0:
256,192,24162,1,8,0:0:0:0:
256,192,24241,1,8,0:0:0:0:
256,192,24320,1,0,0:0:0:0:
256,192,24478,1,0,0:0:0:0:
256,192,24636,1,8,0:0:0:0:
256,192,24715,1,8,0:0:0:0:
256,192,24794,1,0,0:0:0:0:
256,192,24952,1,0,0:0:0:0:
256,192,25110,1,0,0:0:0:0:
256,192,25425,1,8,0:0:0:0:
256,192,25583,1,0,0:0:0:0:
256,192,25899,1,8,0:0:0:0:
256,192,26057,1,8,0:0:0:0:
256,192,26215,1,8,0:0:0:0:
256,192,26373,5,4,0:0:0:0:
256,192,26531,1,4,0:0:0:0:
256,192,26846,1,4,0:0:0:0:
256,192,27162,1,0,0:0:0:0:
256,192,27241,1,0,0:0:0:0:
256,192,27320,1,0,0:0:0:0:
256,192,27636,1,12,0:0:0:0:
256,192,27794,1,12,0:0:0:0:
256,192,28110,1,12,0:0:0:0:
256,192,28425,1,8,0:0:0:0:
256,192,28504,1,8,0:0:0:0:
256,192,28583,1,8,0:0:0:0:
256,192,28741,1,8,0:0:0:0:
256,192,28899,1,4,0:0:0:0:
256,192,29057,1,4,0:0:0:0:
256,192,29373,1,4,0:0:0:0:
256,192,29688,1,0,0:0:0:0:
256,192,29767,1,0,0:0:0:0:
256,192,29846,1,0,0:0:0:0:
256,192,30162,1,12,0:0:0:0:
256,192,30320,1,12,0:0:0:0:
256,192,30636,1,12,0:0:0:0:
256,192,30952,1,8,0:0:0:0:
256,192,31031,1,8,0:0:0:0:
256,192,31110,1,8,0:0:0:0:
256,192,31267,1,8,0:0:0:0:
256,192,31425,1,0,0:0:0:0:
256,192,31741,1,0,0:0:0:0:
256,192,31899,1,8,0:0:0:0:
256,192,32057,1,0,0:0:0:0:
256,192,32215,1,8,0:0:0:0:
256,192,32373,1,0,0:0:0:0:
256,192,32531,1,8,0:0:0:0:
256,192,32688,1,0,0:0:0:0:
256,192,32846,1,8,0:0:0:0:
256,192,32925,1,8,0:0:0:0:
256,192,33004,1,0,0:0:0:0:
256,192,33162,1,8,0:0:0:0:
256,192,33320,1,0,0:0:0:0:
256,192,33478,1,8,0:0:0:0:
256,192,33557,1,8,0:0:0:0:
256,192,33636,1,0,0:0:0:0:
256,192,33794,1,8,0:0:0:0:
256,192,33952,1,0,0:0:0:0:
256,192,34110,1,0,0:0:0:0:
256,192,34188,1,0,0:0:0:0:
256,192,34267,1,0,0:0:0:0:
256,192,34425,1,0,0:0:0:0:
256,192,34504,1,0,0:0:0:0:
256,192,34583,1,0,0:0:0:0:
256,192,34741,1,0,0:0:0:0:
256,192,34820,1,0,0:0:0:0:
256,192,34899,1,0,0:0:0:0:
256,192,35057,1,0,0:0:0:0:
256,192,35215,1,4,0:0:0:0:
256,192,35373,1,4,0:0:0:0:
256,192,35688,1,4,0:0:0:0:
256,192,36478,5,4,0:0:0:0:
256,192,36636,1,8,0:0:0:0:
256,192,36715,1,8,0:0:0:0:
256,192,36794,1,8,0:0:0:0:
256,192,36952,1,4,0:0:0:0:
256,192,37267,1,0,0:0:0:0:
256,192,37425,1,8,0:0:0:0:
256,192,37583,1,8,0:0:0:0:
256,192,37662,1,8,0:0:0:0:
256,192,37741,1,0,0:0:0:0:
256,192,37899,1,8,0:0:0:0:
256,192,37978,1,8,0:0:0:0:
256,192,38057,1,8,0:0:0:0:
256,192,38215,1,4,0:0:0:0:
256,192,38531,1,0,0:0:0:0:
256,192,38688,1,8,0:0:0:0:
256,192,38846,1,8,0:0:0:0:
256,192,39004,1,0,0:0:0:0:
256,192,39162,1,0,0:0:0:0:
256,192,39320,1,8,0:0:0:0:
256,192,39478,1,8,0:0:0:0:
256,192,39557,1,8,0:0:0:0:
256,192,39636,1,0,0:0:0:0:
256,192,39794,1,0,0:0:0:0:
256,192,39952,1,8,0:0:0:0:
256,192,40110,1,0,0:0:0:0:
256,192,40425,1,0,0:0:0:0:
256,192,40583,1,8,0:0:0:0:
256,192,40741,1,8,0:0:0:0:
256,192,40899,1,0,0:0:0:0:
256,192,40978,1,0,0:0:0:0:
256,192,41057,1,0,0:0:0:0:
256,192,41136,1,0,0:0:0:0:
256,192,41215,1,8,0:0:0:0:
256,192,41531,1,4,0:0:0:0:
256,192,41688,1,0,0:0:0:0:
256,192,41846,1,8,0:0:0:0:
256,192,42004,1,8,0:0:0:0:
256,192,42083,1,8,0:0:0:0:
256,192,42162,1,0,0:0:0:0:
256,192,42320,1,0,0:0:0:0:
256,192,42399,1,0,0:0:0:0:
256,192,42478,1,8,0:0:0:0:
256,192,42636,1,8,0:0:0:0:
256,192,42794,1,0,0:0:0:0:
256,192,42873,1,0,0:0:0:0:
256,192,42952,1,0,0:0:0:0:
256,192,43110,1,8,0:0:0:0:
256,192,43267,1,0,0:0:0:0:
256,192,43583,1,0,0:0:0:0:
256,192,43741,1,8,0:0:0:0:
256,192,43899,1,0,0:0:0:0:
256,192,44057,1,0,0:0:0:0:
256,192,44136,1,0,0:0:0:0:
256,192,44215,1,0,0:0:0:0:
256,192,44373,1,12,0:0:0:0:
256,192,44688,1,0,0:0:0:0:
256,192,44767,1,0,0:0:0:0:
256,192,44846,1,0,0:0:0:0:
256,192,45004,1,12,0:0:0:0:
256,192,45320,1,0,0:0:0:0:
256,192,45399,1,0,0:0:0:0:
256,192,45478,1,0,0:0:0:0:
256,192,45636,1,8,0:0:0:0:
256,192,45794,1,0,0:0:0:0:
256,192,45952,1,0,0:0:0:0:
256,192,46031,1,0,0:0:0:0:
256,192,46110,1,8,0:0:0:0:
256,192,46267,1,0,0:0:0:0:
256,192,46346,1,0,0:0:0:0:
256,192,46425,1,8,0:0:0:0:
256,192,46583,5,4,0:0:0:0:
256,192,46741,1,8,0:0:0:0:
256,192,46820,1,8,0:0:0:0:
256,192,46899,1,8,0:0:0:0:
256,192,47057,1,4,0:0:0:0:
256,192,47373,1,0,0:0:0:0:
256,192,47531,1,8,0:0:0:0:
256,192,47688,1,8,0:0:0:0:
256,192,47767,1,8,0:0:0:0:
256,192,47846,1,0,0:0:0:0:
256,192,48004,1,8,0:0:0:0:
256,192,48083,1,8,0:0:0:0:
256,192,48162,1,8,0:0:0:0:
256,192,48320,1,4,0:0:0:0:
256,192,48636,1,0,0:0:0:0:
256,192,48794,1,8,0:0:0:0:
256,192,48952,1,8,0:0:0:0:
256,192,49110,1,0,0:0:0:0:
256,192,49188,1,0,0:0:0:0:
256,192,49267,1,0,0:0:0:0:
256,192,49425,1,8,0:0:0:0:
256,192,49583,1,0,0:0:0:0:
256,192,49741,1,0,0:0:0:0:
256,192,49820,1,0,0:0:0:0:
256,192,49899,1,0,0:0:0:0:
256,192,50057,1,8,0:0:0:0:
256,192,50215,1,0,0:0:0:0:
256,192,50373,1,0,0:0:0:0:
256,192,50452,1,0,0:0:0:0:
256,192,50531,1,0,0:0:0:0:
256,192,50688,1,8,0:0:0:0:
256,192,50846,1,0,0:0:0:0:
256,192,51004,1,0,0:0:0:0:
256,192,51083,1,0,0:0:0:0:
256,192,51162,1,0,0:0:0:0:
256,192,51320,1,8,0:0:0:0:
256,192,51636,1,4,0:0:0:0:
256,192,51794,1,0,0:0:0:0:
256,192,51952,1,8,0:0:0:0:
256,192,52110,1,8,0:0:0:0:
256,192,52188,1,8,0:0:0:0:
256,192,52267,1,0,0:0:0:0:
256,192,52425,1,0,0:0:0:0:
256,192,52504,1,0,0:0:0:0:
256,192,52583,1,8,0:0:0:0:
256,192,52741,1,8,0:0:0:0:
256,192,52899,1,0,0:0:0:0:
256,192,52978,1,0,0:0:0:0:
256,192,53057,1,0,0:0:0:0:
256,192,53215,1,8,0:0:0:0:
256,192,53373,1,0,0:0:0:0:
256,192,53531,1,8,0:0:0:0:
256,192,53610,1,8,0:0:0:0:
256,192,53688,1,0,0:0:0:0:
256,192,53767,1,0,0:0:0:0:
256,192,53846,1,8,0:0:0:0:
256,192,54162,1,0,0:0:0:0:
256,192,54241,1,0,0:0:0:0:
256,192,54320,1,0,0:0:0:0:
256,192,54478,1,12,0:0:0:0:
256,192,54794,1,0,0:0:0:0:
256,192,54873,1,0,0:0:0:0:
256,192,54952,1,0,0:0:0:0:
256,192,55110,1,12,0:0:0:0:
256,192,55425,1,0,0:0:0:0:
256,192,55504,1,0,0:0:0:0:
256,192,55583,1,0,0:0:0:0:
256,192,55741,1,8,0:0:0:0:
256,192,55899,1,0,0:0:0:0:
256,192,56057,1,8,0:0:0:0:
256,192,56136,1,8,0:0:0:0:
256,192,56215,1,0,0:0:0:0:
256,192,56294,1,0,0:0:0:0:
256,192,56373,1,8,0:0:0:0:
256,192,56531,1,0,0:0:0:0:
256,192,56688,5,4,0:0:0:0:
256,192,57004,1,8,0:0:0:0:
256,192,57162,1,0,0:0:0:0:
256,192,57241,1,0,0:0:0:0:
256,192,57320,1,0,0:0:0:0:
256,192,57478,1,8,0:0:0:0:
256,192,57636,1,0,0:0:0:0:
256,192,57715,1,0,0:0:0:0:
256,192,57794,1,0,0:0:0:0:
256,192,57952,1,8,0:0:0:0:
256,192,58110,1,0,0:0:0:0:
256,192,58188,1,0,0:0:0:0:
256,192,58267,1,8,0:0:0:0:
256,192,58425,1,0,0:0:0:0:
256,192,58583,1,0,0:0:0:0:
256,192,58662,1,0,0:0:0:0:
256,192,58741,1,0,0:0:0:0:
256,192,58820,1,0,0:0:0:0:
256,192,58899,1,8,0:0:0:0:
256,192,59215,1,4,0:0:0:0:
256,192,59531,1,8,0:0:0:0:
256,192,59688,1,0,0:0:0:0:
256,192,59767,1,0,0:0:0:0:
256,192,59846,1,0,0:0:0:0:
256,192,60004,1,8,0:0:0:0:
256,192,60162,1,0,0:0:0:0:
256,192,60241,1,0,0:0:0:0:
256,192,60320,1,0,0:0:0:0:
256,192,60478,1,8,0:0:0:0:
256,192,60636,1,0,0:0:0:0:
256,192,60715,1,0,0:0:0:0:
256,192,60794,1,8,0:0:0:0:
256,192,60952,1,0,0:0:0:0:
256,192,61110,1,8,0:0:0:0:
256,192,61188,1,8,0:0:0:0:
256,192,61267,1,0,0:0:0:0:
256,192,61346,1,0,0:0:0:0:
256,192,61425,1,8,0:0:0:0:
256,192,61583,1,0,0:0:0:0:
256,192,61741,1,4,0:0:0:0:
256,192,62057,1,8,0:0:0:0:
256,192,62215,1,0,0:0:0:0:
256,192,62294,1,0,0:0:0:0:
256,192,62373,1,0,0:0:0:0:
256,192,62531,1,0,0:0:0:0:
256,192,62610,1,0,0:0:0:0:
256,192,62688,1,8,0:0:0:0:
256,192,62846,1,0,0:0:0:0:
256,192,63004,1,0,0:0:0:0:
256,192,63083,1,0,0:0:0:0:
256,192,63162,1,0,0:0:0:0:
256,192,63320,1,8,0:0:0:0:
256,192,63478,1,0,0:0:0:0:
256,192,63557,1,0,0:0:0:0:
256,192,63636,1,0,0:0:0:0:
256,192,63794,1,0,0:0:0:0:
256,192,63873,1,0,0:0:0:0:
256,192,63952,1,8,0:0:0:0:
256,192,64267,1,0,0:0:0:0:
256,192,64583,1,0,0:0:0:0:
256,192,64741,1,0,0:0:0:0:
256,192,64820,1,0,0:0:0:0:
256,192,64899,1,0,0:0:0:0:
256,192,65057,1,0,0:0:0:0:
256,192,65136,1,0,0:0:0:0:
256,192,65215,1,0,0:0:0:0:
256,192,65373,1,0,0:0:0:0:
256,192,65452,1,0,0:0:0:0:
256,192,65531,1,0,0:0:0:0:
256,192,65846,1,4,0:0:0:0:
256,192,66162,1,4,0:0:0:0:
256,192,66478,1,4,0:0:0:0:
256,192,66794,5,4,0:0:0:0:
256,192,66952,1,4,0:0:0:0:
256,192,67267,1,4,0:0:0:0:
256,192,67583,1,0,0:0:0:0:
256,192,67662,1,0,0:0:0:0:
256,192,67741,1,0,0:0:0:0:
256,192,68057,1,12,0:0:0:0:
256,192,68215,1,12,0:0:0:0:
256,192,68531,1,12,0:0:0:0:
