osu file format v14

[General]
AudioFilename: audio.mp3
AudioLeadIn: 0
PreviewTime:35904
Countdown: 0
SampleSet: Normal
StackLeniency: 0.7
Mode: 1
LetterboxInBreaks: 0
WidescreenStoryboard: 1

[Editor]
Bookmarks: 11192,16244,26350,36455,46560,56665,66771
DistanceSpacing: 1
BeatDivisor: 2
GridSize: 32
TimelineZoom: 1

[Metadata]
Title:JUST LIVE MORE (TV Size)
TitleUnicode:JUST LIVE MORE (TV Size)
Artist:Gaim no Kaze
ArtistUnicode:鎧武乃風
Creator:DakeDekaane
Version:Kantan
Source:仮面ライダー鎧武
Tags:Kamen Rider Gaim opening tokusatsu ガイム Shōnan no Kaze 湘南乃風 pop rock japanese jrock jpop j-rock j-pop
BeatmapID:2039077
BeatmapSetID:974111

[Difficulty]
HPDrainRate:7.5
CircleSize:2
OverallDifficulty:3
ApproachRate:10
SliderMultiplier:1.4
SliderTickRate:1

[Events]
//Background and Video events
0,0,"52288775_p0.png",0,0
//Break Periods
//Storyboard Layer 0 (Background)
//Storyboard Layer 1 (Fail)
//Storyboard Layer 2 (Pass)
//Storyboard Layer 3 (Foreground)
//Storyboard Layer 4 (Overlay)
//Storyboard Sound Samples

[TimingPoints]
1110,315.789473684211,4,1,0,80,1,0
36478,-100,4,1,0,80,0,1
56688,-100,4,1,0,80,0,0

[HitObjects]
256,192,1110,5,0,0:0:0:0:
256,192,3636,1,0,0:0:0:0:
256,192,4899,1,8,0:0:0:0:
256,192,5531,1,8,0:0:0:0:
256,192,6162,5,0,0:0:0:0:
256,192,8688,12,0,10583,0:0:0:0:
256,192,11215,5,4,0:0:0:0:
256,192,12478,1,12,0:0:0:0:
256,192,13741,1,4,0:0:0:0:
256,192,15004,1,12,0:0:0:0:
256,192,16267,5,0,0:0:0:0:
256,192,16899,1,0,0:0:0:0:
256,192,17531,1,0,0:0:0:0:
256,192,18794,1,0,0:0:0:0:
256,192,19425,1,0,0:0:0:0:
256,192,20057,1,8,0:0:0:0:
256,192,21320,1,0,0:0:0:0:
256,192,21952,1,0,0:0:0:0:
256,192,22583,1,0,0:0:0:0:
256,192,23846,1,0,0:0:0:0:
256,192,24478,1,0,0:0:0:0:
256,192,25110,1,8,0:0:0:0:
256,192,26373,5,4,0:0:0:0:
256,192,27636,1,12,0:0:0:0:
256,192,28899,1,4,0:0:0:0:
256,192,30162,1,12,0:0:0:0:
256,192,31425,1,0,0:0:0:0:
256,192,31741,1,0,0:0:0:0:
256,192,32057,1,0,0:0:0:0:
256,192,32688,1,0,0:0:0:0:
256,192,33004,1,0,0:0:0:0:
256,192,33320,1,0,0:0:0:0:
256,192,33952,12,0,35215,0:0:0:0:
256,192,36478,5,0,0:0:0:0:
256,192,36794,1,8,0:0:0:0:
256,192,37110,1,0,0:0:0:0:
256,192,37741,1,0,0:0:0:0:
256,192,38057,1,8,0:0:0:0:
256,192,38373,1,0,0:0:0:0:
256,192,39004,1,0,0:0:0:0:
256,192,39320,1,0,0:0:0:0:
256,192,39636,1,0,0:0:0:0:
256,192,40267,1,0,0:0:0:0:
256,192,41531,1,0,0:0:0:0:
256,192,41846,1,0,0:0:0:0:
256,192,42162,1,0,0:0:0:0:
256,192,42794,1,8,0:0:0:0:
256,192,44373,1,12,0:0:0:0:
256,192,45004,1,12,0:0:0:0:
256,192,45320,12,0,45952,0:0:0:0:
256,192,46583,5,0,0:0:0:0:
256,192,46899,1,8,0:0:0:0:
256,192,47215,1,0,0:0:0:0:
256,192,47846,1,0,0:0:0:0:
256,192,48162,1,8,0:0:0:0:
256,192,48478,1,0,0:0:0:0:
256,192,49110,2,0,L|416:192,1,140
256,192,49741,2,0,L|416:192,1,140
256,192,50373,2,0,L|416:192,1,140
256,192,51004,2,0,L|416:192,1,140
256,192,51636,1,0,0:0:0:0:
256,192,51952,1,0,0:0:0:0:
256,192,52267,1,0,0:0:0:0:
256,192,52899,1,8,0:0:0:0:
256,192,53215,1,8,0:0:0:0:
256,192,53531,1,8,0:0:0:0:
256,192,54478,1,12,0:0:0:0:
256,192,55110,1,12,0:0:0:0:
256,192,55425,12,0,56057,0:0:0:0:
256,192,56688,5,0,0:0:0:0:
256,192,57636,1,0,0:0:0:0:
256,192,57952,1,0,0:0:0:0:
256,192,58583,1,8,0:0:0:0:
256,192,59215,1,0,0:0:0:0:
256,192,60162,1,0,0:0:0:0:
256,192,60478,1,0,0:0:0:0:
256,192,61110,1,8,0:0:0:0:
256,192,61741,1,0,0:0:0:0:
256,192,62688,1,8,0:0:0:0:
256,192,63004,1,0,0:0:0:0:
256,192,63636,1,0,0:0:0:0:
256,192,64267,12,0,65531,0:0:0:0:
256,192,65846,5,4,0:0:0:0:
256,192,66162,1,4,0:0:0:0:
256,192,66478,1,4,0:0:0:0:
256,192,66794,5,4,0:0:0:0:
256,192,68057,1,12,0:0:0:0:
