osu file format v14

[General]
AudioFilename: audio.mp3
AudioLeadIn: 0
PreviewTime: 55037
Countdown: 0
SampleSet: Soft
StackLeniency: 0.4
Mode: 0
LetterboxInBreaks: 0
WidescreenStoryboard: 0

[Editor]
DistanceSpacing: 1.6
BeatDivisor: 4
GridSize: 4
TimelineZoom: 2

[Metadata]
Title:Running
TitleUnicode:Running
Artist:Gaho
ArtistUnicode:가호
Creator:FunnyA
Version:Start Up
Source:스타트업
Tags:Start Up Start-Up OST Original Television Soundtrack Pt. 5 배수지 Bae Suzy 서달미 Seo Dal Mi Dalmi 남주혁 Nam Joo Hyuk 남도산 Nam Do San Dosan 김선호 Kim Seon Ho 한지평 Han Ji Pyeong Jipyeong Good Boy 강한나 Kang Hanna 원인재 Won In Jae Injae Korean Drama 2020 HISTORY D&C tvN Pop K-pop Kpop ulfanirahmi
BeatmapID:2691691
BeatmapSetID:1297488

[Difficulty]
HPDrainRate:6
CircleSize:4.2
OverallDifficulty:7.7
ApproachRate:8.8
SliderMultiplier:1.55
SliderTickRate:1

[Events]
//Background and Video events
0,0,"Start Up 3.jpg",0,0
Video,300,"Gaho - Running [START-UP OST Part. 5].mp4"
//Break Periods
2,85237,97050
//Storyboard Layer 0 (Background)
//Storyboard Layer 1 (Fail)
//Storyboard Layer 2 (Pass)
//Storyboard Layer 3 (Foreground)
//Storyboard Layer 4 (Overlay)
//Storyboard Sound Samples

[TimingPoints]
1037,428.571428571429,4,2,1,65,1,0
10894,-100,4,2,5,65,0,0
11537,-100,4,2,2,75,0,0
12179,-100,4,2,2,85,0,0
13894,-125,4,2,1,60,0,0
14751,-125,4,2,1,70,0,0
27394,-125,4,2,5,70,0,0
27823,-125,4,2,10,70,0,0
28466,-125,4,2,5,70,0,0
28894,-125,4,2,1,70,0,0
34680,-125,4,2,10,70,0,0
35323,-125,4,2,1,70,0,0
40466,-100,4,2,2,70,0,0
40679,-100,4,2,2,75,0,0
42179,-100,4,2,2,70,0,0
47537,-100,4,2,2,75,0,0
49037,-100,4,2,2,70,0,0
49894,-100,4,2,2,30,0,0
50001,-100,4,2,2,70,0,0
51823,-100,4,2,10,70,0,0
52680,-100,4,2,2,75,0,0
55465,-100,4,2,2,75,0,0
55894,-83.3333333333333,4,2,2,80,0,1
67679,-83.3333333333333,4,2,2,80,0,0
69179,-83.3333333333333,4,2,2,75,0,0
69608,-83.3333333333333,4,2,2,80,0,1
80966,-83.3333333333333,4,2,10,80,0,1
81608,-125,4,2,2,70,0,0
84180,-125,4,2,1,70,0,0
97679,-125,4,2,5,70,0,0
98108,-125,4,2,10,70,0,0
98751,-125,4,2,5,70,0,0
99179,-125,4,2,1,70,0,0
104966,-125,4,2,10,70,0,0
105608,-125,4,2,1,70,0,0
110751,-100,4,2,2,80,0,0
110965,-100,4,2,2,75,0,0
112465,-100,4,2,2,70,0,0
117822,-100,4,2,2,75,0,0
119322,-100,4,2,2,70,0,0
120179,-100,4,2,2,30,0,0
120287,-100,4,2,2,70,0,0
122108,-100,4,2,10,70,0,0
122966,-100,4,2,2,75,0,0
124251,-142.857142857143,4,2,2,75,0,0
124679,-142.857142857143,4,2,2,5,0,0
124894,-142.857142857143,4,2,2,60,0,0
125322,-100,4,2,2,70,0,0
125751,-100,4,2,2,75,0,0
126179,-83.3333333333333,4,2,2,80,0,1
137965,-83.3333333333333,4,2,2,80,0,0
139465,-83.3333333333333,4,2,2,75,0,0
139894,-83.3333333333333,4,2,2,80,0,1
153180,-83.3333333333333,4,2,10,80,0,1
153608,-142.857142857143,4,2,2,65,0,0
159823,-142.857142857143,4,2,10,65,0,0
160466,-142.857142857143,4,2,2,65,0,0
163894,-111.111111111111,4,2,2,70,0,0
164537,-111.111111111111,4,2,10,70,0,0
166251,-111.111111111111,4,2,2,70,0,0
166680,-111.111111111111,4,2,10,70,0,0
167537,-83.3333333333333,4,2,2,75,0,0
168822,-200,4,2,2,70,0,0
169037,-200,4,2,2,5,0,0
169894,-200,4,2,2,5,0,0
170108,-200,4,2,2,60,0,0
170322,-100,4,2,2,75,0,0
170751,-83.3333333333333,4,2,2,80,0,1
176751,-83.3333333333333,4,2,2,30,0,1
176858,-83.3333333333333,4,2,2,80,0,1
180179,-83.3333333333333,4,2,2,30,0,1
180287,-83.3333333333333,4,2,2,80,0,1
182322,-83.3333333333333,4,2,2,80,0,0
182537,-83.3333333333333,4,2,2,80,0,1
182965,-83.3333333333333,4,2,2,80,0,0
184037,-83.3333333333333,4,2,2,75,0,0
184465,-83.3333333333333,4,2,2,80,0,1
195823,-83.3333333333333,4,2,10,80,0,1
196465,465.116279069767,4,2,2,75,1,0
197162,458.015267175573,4,2,2,60,1,0
197162,-142.857142857143,4,2,2,60,0,0
197391,-142.857142857143,4,2,2,30,0,0
197620,437.956204379562,4,2,2,60,1,0
197620,-142.857142857143,4,2,2,60,0,0
197838,-142.857142857143,4,2,2,30,0,0
198057,582.52427184466,4,2,2,60,1,0
198057,-142.857142857143,4,2,2,60,0,0
198348,-142.857142857143,4,2,2,5,0,0
199804,750,4,2,2,30,1,0
200554,638.297872340426,4,2,2,60,1,0
200554,-181.818181818182,4,2,2,60,0,0
200873,-181.818181818182,4,2,2,5,0,0
208213,-181.818181818182,4,2,2,5,0,0

[Colours]
Combo1 : 255,255,102
Combo2 : 255,0,128
Combo3 : 0,217,108
Combo4 : 0,128,192

[HitObjects]
223,192,1037,5,14,0:3:0:0:
223,192,1251,2,0,P|186:202|148:193,1,77.5,0|8,0:3|0:3,0:0:0:0:
181,33,1679,1,2,0:3:0:0:
181,33,1894,2,0,P|191:70|183:107,1,77.5,8|2,0:3|0:3,0:0:0:0:
22,74,2322,5,8,0:3:0:0:
22,74,2537,2,4,P|59:63|96:72,1,77.5,2|8,0:3|0:3,0:0:0:0:
63,233,2965,1,0,0:3:0:0:
63,233,3179,2,0,P|52:195|61:158,1,77.5,8|2,0:3|0:3,0:0:0:0:
184,108,3608,6,0,L|266:117,1,77.5,8|2,0:3|0:3,0:0:0:0:
370,28,4037,2,0,L|293:37,1,77.5,8|0,0:3|0:3,0:0:0:0:
184,108,4465,5,10,0:3:0:0:
184,108,4679,2,0,L|189:186,1,77.5,0|8,0:3|0:3,0:0:0:0:
309,228,5108,1,2,0:3:0:0:
309,228,5322,2,0,L|314:150,1,77.5,8|2,0:3|0:3,0:0:0:0:
225,265,5751,5,8,0:3:0:0:
225,265,5965,2,0,L|230:343,1,77.5,2|8,0:3|0:3,0:0:0:0:
348,382,6394,1,0,0:3:0:0:
348,382,6608,2,0,L|353:304,1,77.5,8|2,0:3|0:3,0:0:0:0:
225,265,7037,6,0,P|181:272|140:272,1,77.5,8|2,0:3|0:3,0:0:0:0:
80,133,7465,2,0,P|118:133|156:140,1,77.5,8|0,0:3|0:3,0:0:0:0:
283,176,7894,5,14,0:3:0:0:
283,176,8108,2,0,B|321:183|321:183|364:171,1,77.5,0|8,0:3|0:3,0:0:0:0:
315,12,8537,1,2,0:3:0:0:
315,12,8751,2,0,B|307:50|307:50|318:88,1,77.5,8|2,0:3|0:3,0:0:0:0:
475,41,9179,5,8,0:3:0:0:
475,41,9394,2,0,B|437:34|437:34|394:46,1,77.5,2|8,0:3|0:3,0:0:0:0:
444,205,9822,1,0,0:3:0:0:
444,204,10037,2,0,B|452:166|452:166|441:128,1,77.5,8|2,0:3|0:3,0:0:0:0:
327,256,10465,6,0,B|320:294|320:294|331:336,1,77.5,8|2,0:3|0:3,0:0:0:0:
462,375,10894,1,12,0:3:0:0:
435,238,11108,1,0,0:3:0:0:
435,238,11537,5,8,0:1:0:0:
327,149,11751,1,8,0:1:0:0:
223,242,11965,1,8,0:1:0:0:
203,57,12179,5,10,0:1:0:0:
226,265,12394,1,10,0:1:0:0:
336,0,12608,1,10,0:1:0:0:
118,176,12822,1,10,0:1:0:0:
2,152,13894,6,0,B|52:182|52:182|137:173,1,124,0|0,1:3|1:3,0:0:0:0:
326,116,14751,6,0,P|312:182|331:234,1,124,6|2,1:2|1:2,0:0:0:0:
401,304,15394,2,0,L|462:294,1,62,0|2,1:0|0:2,0:0:0:0:
331,233,15822,2,0,L|269:242,1,62,0|2,1:0|0:2,0:0:0:0:
77,205,16251,2,0,P|129:173|190:181,1,124,0|0,1:0|0:0,0:0:0:0:
166,315,16894,2,0,P|151:288|149:258,1,62,2|0,0:2|0:0,0:0:0:0:
270,242,17322,2,0,L|395:255,1,124,2|2,1:2|1:2,0:0:0:0:
367,57,18179,6,0,L|242:70,1,124,2|2,1:2|1:2,0:0:0:0:
166,132,18822,2,0,L|156:203,1,62,0|2,1:0|0:2,0:0:0:0:
70,230,19251,2,0,L|61:168,1,62,0|2,1:0|0:2,0:0:0:0:
140,299,19679,2,0,P|190:300|246:247,1,124,0|0,1:0|0:0,0:0:0:0:
276,159,20322,2,0,P|307:154|341:160,1,62,2|0,0:0|0:0,0:0:0:0:
368,253,20751,2,0,B|384:312|384:312|363:374,1,124,2|2,1:2|1:2,0:0:0:0:
165,377,21608,6,0,L|162:305,1,62,2|0,1:2|1:0,0:0:0:0:
116,226,22037,1,2,1:2:0:0:
214,234,22251,2,0,P|245:233|276:227,1,62,0|2,1:0|0:2,0:0:0:0:
322,140,22679,2,0,P|352:141|383:149,1,62,0|2,1:0|0:2,0:0:0:0:
430,61,23108,2,0,P|371:45|301:44,1,124,0|0,1:0|0:0,0:0:0:0:
209,48,23751,1,2,0:0:0:0:
184,143,23965,1,0,1:0:0:0:
225,298,24179,2,0,P|272:264|257:208,1,124,2|2,1:2|1:2,0:0:0:0:
119,63,25037,6,0,P|54:82|-4:75,1,124,2|2,1:2|1:2,0:0:0:0:
43,164,25679,2,0,P|51:197|52:230,1,62,0|2,1:0|0:2,0:0:0:0:
132,322,26108,2,0,P|134:291|144:262,1,62,0|2,1:0|0:2,0:0:0:0:
234,221,26537,2,0,P|286:235|354:197,1,124,0|0,1:0|0:0,0:0:0:0:
420,139,27179,1,2,0:2:0:0:
347,206,27394,2,0,P|344:217|343:227,3,20.6666666666667,0|0|0|2,1:0|1:0|1:0|1:2,0:0:0:0:
419,288,27822,1,8,0:3:0:0:
337,355,28037,1,4,0:3:0:0:
263,286,28251,1,4,0:3:0:0:
61,299,28465,6,0,P|112:332|174:331,1,124,6|2,1:2|1:2,0:0:0:0:
142,175,29108,2,0,P|139:206|139:237,1,62,0|10,1:0|0:2,0:0:0:0:
257,97,29537,2,0,P|246:126|239:156,1,62,0|2,1:0|0:2,0:0:0:0:
357,97,29965,2,0,P|384:175|384:230,1,124,0|0,1:0|0:0,0:0:0:0:
353,309,30608,2,0,P|383:315|413:312,1,62,2|0,0:0|0:0,0:0:0:0:
265,260,31037,2,0,P|201:257|143:291,1,124,10|2,1:2|1:2,0:0:0:0:
21,132,31894,6,0,P|75:160|136:156,1,124,2|2,1:2|1:2,0:0:0:0:
215,24,32537,2,0,P|207:53|206:84,1,62,0|10,1:0|0:2,0:0:0:0:
285,216,32965,2,0,P|285:185|275:155,1,62,0|2,1:0|0:2,0:0:0:0:
370,246,33394,2,0,P|370:184|356:123,1,124,0|0,1:0|0:0,0:0:0:0:
325,29,34037,2,0,L|386:33,1,62,2|0,0:0|0:0,0:0:0:0:
233,67,34465,6,0,L|171:71,1,62,10|8,1:2|0:3,0:0:0:0:
122,172,34894,1,6,0:3:0:0:
170,272,35108,1,4,0:3:0:0:
279,292,35322,6,0,B|327:282|327:282|358:291|358:291|411:279,1,124,2|2,1:2|1:2,0:0:0:0:
374,143,35965,2,0,P|362:171|361:202,1,62,0|10,1:0|0:2,0:0:0:0:
400,282,36394,1,0,1:0:0:0:
479,222,36608,1,2,1:2:0:0:
421,73,36822,2,0,P|369:59|307:93,1,124,0|0,1:0|0:0,0:0:0:0:
223,163,37465,1,2,1:2:0:0:
314,227,37679,2,0,L|319:296,1,62,0|10,1:0|0:2,0:0:0:0:
239,368,38108,1,0,1:0:0:0:
117,302,38322,2,0,P|148:301|179:305,1,62,2|0,1:2|1:0,0:0:0:0:
149,173,38751,6,0,B|89:197|89:197|21:188,1,124,2|2,1:2|1:2,0:0:0:0:
65,49,39394,2,0,P|75:80|78:115,1,62,0|10,1:0|0:2,0:0:0:0:
152,9,39822,2,0,P|156:40|155:71,1,62,0|2,1:0|0:2,0:0:0:0:
259,0,40251,2,0,P|253:28|241:56,1,62,0|2,1:0|0:0,0:0:0:0:
149,173,40679,5,10,0:1:0:0:
293,144,40894,1,10,0:1:0:0:
155,71,41108,1,10,0:1:0:0:
300,242,41322,5,8,0:0:0:0:
335,257,41429,1,8,0:0:0:0:
373,260,41537,1,8,0:0:0:0:
410,250,41644,1,8,0:0:0:0:
441,227,41751,1,8,0:0:0:0:
462,194,41858,1,8,0:0:0:0:
470,157,41965,1,8,0:0:0:0:
465,118,42072,1,8,0:0:0:0:
447,85,42179,6,0,P|408:94|370:98,1,77.5,6|0,1:2|0:0,0:0:0:0:
251,24,42608,1,8,1:2:0:0:
147,117,42822,2,0,P|154:156|159:201,1,77.5,0|8,1:2|0:2,0:0:0:0:
240,327,43251,2,0,P|242:288|249:250,1,77.5,2|8,1:2|0:2,0:0:0:0:
350,210,43679,1,2,1:2:0:0:
148,290,43894,5,8,0:2:0:0:
148,290,44322,2,0,P|140:328|138:366,1,77.5,8|2,0:2|0:2,0:0:0:0:
55,205,44751,2,0,L|49:122,1,77.5,8|2,1:2|0:0,0:0:0:0:
46,81,45072,1,0,1:2:0:0:
46,81,45179,1,8,0:2:0:0:
156,23,45394,1,2,1:2:0:0:
330,80,45608,6,0,P|294:94|256:95,1,77.5,8|0,1:2|0:0,0:0:0:0:
156,23,46037,1,8,1:2:0:0:
165,161,46251,2,0,L|170:238,1,77.5,2|8,1:2|0:2,0:0:0:0:
284,361,46679,2,0,B|292:323|292:323|279:287,1,77.5,2|8,1:2|0:2,0:0:0:0:
84,326,47108,1,6,0:2:0:0:
84,326,47537,5,10,0:1:0:0:
170,238,47751,1,10,0:1:0:0:
279,287,47965,1,8,0:2:0:0:
151,141,48179,1,8,0:2:0:0:
184,330,48394,1,8,0:2:0:0:
366,244,48608,2,0,P|406:245|458:262,1,77.5,12|0,0:2|0:0,0:0:0:0:
503,99,49037,6,0,P|463:98|411:81,1,77.5,6|2,0:2|0:2,0:0:0:0:
309,13,49465,1,8,0:2:0:0:
241,134,49679,1,2,0:0:0:0:
225,164,49787,1,0,3:0:0:0:
220,197,49894,1,0,3:0:0:0:
226,230,50001,1,0,3:0:0:0:
242,260,50108,1,2,1:0:0:0:
361,334,50322,2,0,P|399:334|435:320,1,77.5,8|0,1:2|1:2,0:0:0:0:
242,260,50751,6,0,P|203:259|167:273,1,77.5,2|2,1:2|0:2,0:0:0:0:
78,380,51179,1,8,1:2:0:0:
27,249,51394,1,2,0:0:0:0:
24,210,51501,1,2,0:2:0:0:
22,171,51608,1,8,0:0:0:0:
112,87,51822,1,4,0:3:0:0:
270,176,52037,1,8,0:3:0:0:
231,182,52144,1,8,0:3:0:0:
193,183,52251,1,4,0:3:0:0:
193,183,52679,5,2,0:1:0:0:
249,311,52894,1,10,0:1:0:0:
415,234,53108,2,0,P|380:218|342:220,1,77.5,10|10,0:1|0:1,0:0:0:0:
100,281,53537,5,10,0:1:0:0:
182,80,53751,1,10,0:1:0:0:
342,220,53965,1,10,0:1:0:0:
444,364,55037,6,0,B|404:375|404:375|368:365,1,77.5,0|0,1:3|1:3,0:0:0:0:
245,302,55465,1,8,0:3:0:0:
198,290,55572,1,8,0:3:0:0:
151,301,55679,1,8,0:3:0:0:
113,330,55787,1,8,0:3:0:0:
92,374,55894,5,6,1:3:0:0:
25,220,56108,2,0,P|25:172|33:117,1,92.9999971618653,0|8,1:0|0:0,0:0:0:0:
278,172,56537,2,0,P|233:184|187:190,1,92.9999971618653,0|0,1:0|0:0,0:0:0:0:
155,6,56965,2,0,P|200:18|246:24,1,92.9999971618653,2|8,1:2|0:0,0:0:0:0:
376,118,57394,6,0,B|390:161|390:161|382:215,1,92.9999971618653,2|0,1:3|0:0,0:0:0:0:
236,318,57822,2,0,B|266:284|266:284|311:267,1,92.9999971618653,2|8,1:3|0:3,0:0:0:0:
479,339,58251,2,0,B|435:329|435:329|398:300,1,92.9999971618653,2|0,1:3|0:0,0:0:0:0:
286,175,58679,1,2,1:3:0:0:
332,362,58894,1,8,0:3:0:0:
136,287,59108,1,0,0:0:0:0:
101,290,59215,1,0,3:0:0:0:
66,294,59322,5,2,1:3:0:0:
81,85,59537,2,0,P|110:98|145:156,1,92.9999971618653,0|8,1:0|0:3,0:0:0:0:
66,294,59965,1,0,1:0:0:0:
229,118,60179,2,0,P|234:163|214:205,1,92.9999971618653,0|2,1:0|0:3,0:0:0:0:
182,40,60608,5,8,1:3:0:0:
320,163,60822,2,0,L|412:170,1,92.9999971618653,2|0,1:0|0:0,0:0:0:0:
326,31,61251,1,2,1:0:0:0:
214,205,61465,1,8,0:0:0:0:
343,327,61679,1,2,1:0:0:0:
347,292,61787,1,0,3:0:0:0:
341,258,61894,1,0,0:0:0:0:
224,378,62108,2,0,L|128:370,1,92.9999971618653,2|8,1:0|0:0,0:0:0:0:
35,243,62537,1,0,1:0:0:0:
129,37,62751,6,0,B|136:111|136:111|114:144|114:144|121:215,1,185.999994323731,6|8,0:3|0:3,0:0:0:0:
224,378,63394,1,0,1:0:0:0:
385,307,63608,1,0,1:0:0:0:
351,296,63715,1,0,3:0:0:0:
318,286,63822,1,2,1:0:0:0:
121,216,64037,1,8,1:3:0:0:
251,132,64251,6,0,L|359:121,1,92.9999971618653,2|0,1:0|0:0,0:0:0:0:
465,190,64679,1,2,0:0:0:0:
382,1,64894,1,8,1:3:0:0:
472,121,65108,1,2,1:0:0:0:
468,155,65215,1,0,3:0:0:0:
465,190,65322,1,0,0:0:0:0:
370,328,65537,2,0,L|361:235,1,92.9999971618653,2|8,1:3|0:3,0:0:0:0:
251,132,65965,1,0,1:0:0:0:
216,128,66072,1,0,3:0:0:0:
181,124,66179,6,0,L|172:217,1,92.9999971618653,2|0,0:3|0:3,0:0:0:0:
64,345,66608,1,8,1:2:0:0:
7,177,66822,2,0,B|51:165|51:165|98:176,1,92.9999971618653,0|0,1:0|0:0,0:0:0:0:
202,341,67251,1,2,1:2:0:0:
290,156,67465,1,8,0:2:0:0:
453,246,67679,6,0,B|386:243|386:243|359:260|359:260|271:256,1,185.999994323731,2|2,1:3|0:3,0:0:0:0:
96,87,68322,2,0,B|82:131|82:131|97:176,1,92.9999971618653,8|2,0:0|0:0,0:0:0:0:
202,341,68751,1,0,1:0:0:0:
366,255,68965,1,8,1:2:0:0:
281,39,69179,5,8,0:3:0:0:
233,42,69287,1,8,0:3:0:0:
187,46,69394,1,8,0:3:0:0:
141,50,69501,1,8,0:3:0:0:
94,54,69608,5,6,0:3:0:0:
211,173,69822,2,0,L|237:261,1,92.9999971618653,0|8,1:0|0:0,0:0:0:0:
408,251,70251,2,0,L|318:230,1,92.9999971618653,0|0,1:0|0:0,0:0:0:0:
100,360,70679,2,0,L|190:338,1,92.9999971618653,2|8,1:3|0:3,0:0:0:0:
318,230,71108,6,0,B|324:184|324:184|299:138,1,92.9999971618653,2|0,1:3|0:0,0:0:0:0:
70,214,71537,2,0,B|106:242|106:242|153:243,1,92.9999971618653,2|8,1:3|0:3,0:0:0:0:
206,4,71965,2,0,B|163:21|163:21|138:61,1,92.9999971618653,2|0,1:3|0:0,0:0:0:0:
302,143,72394,1,2,1:3:0:0:
154,243,72608,1,8,0:3:0:0:
302,143,72822,1,0,0:0:0:0:
336,145,72929,1,0,3:0:0:0:
371,148,73037,5,2,1:3:0:0:
510,322,73251,2,0,B|510:274|510:274|489:223,1,92.9999971618653,0|8,1:0|0:3,0:0:0:0:
371,148,73679,1,0,1:0:0:0:
389,380,73894,2,0,B|398:333|398:333|385:279,1,92.9999971618653,0|2,1:0|0:3,0:0:0:0:
268,228,74322,5,8,1:3:0:0:
61,290,74537,1,2,1:0:0:0:
97,300,74644,1,0,3:0:0:0:
134,301,74751,1,0,0:0:0:0:
133,140,74965,2,0,P|87:143|44:160,1,92.9999971618653,2|8,1:3|0:3,0:0:0:0:
268,228,75394,1,2,1:0:0:0:
302,242,75501,1,0,3:0:0:0:
338,248,75608,1,0,0:0:0:0:
321,58,75822,2,0,P|274:61|231:77,1,92.9999971618653,2|8,1:3|0:3,0:0:0:0:
134,301,76251,1,0,1:0:0:0:
382,330,76465,6,0,B|426:247|426:247|372:153,1,185.999994323731,6|8,0:3|0:3,0:0:0:0:
231,76,77108,1,0,0:0:0:0:
23,156,77322,1,0,0:0:0:0:
57,150,77429,1,0,3:0:0:0:
91,154,77537,1,2,0:0:0:0:
217,285,77751,1,8,1:3:0:0:
380,167,77965,6,0,L|288:161,1,92.9999971618653,2|0,1:3|0:0,0:0:0:0:
195,19,78394,2,0,L|287:12,1,92.9999971618653,2|8,1:3|0:3,0:0:0:0:
380,167,78822,1,2,1:0:0:0:
388,203,78929,1,0,3:0:0:0:
386,240,79037,1,0,0:0:0:0:
229,310,79251,2,0,P|217:262|224:205,1,92.9999971618653,2|8,1:3|0:3,0:0:0:0:
346,70,79679,1,0,1:0:0:0:
380,73,79787,1,0,3:0:0:0:
415,76,79894,5,6,0:3:0:0:
216,127,80108,1,0,1:0:0:0:
386,240,80322,1,8,1:2:0:0:
229,310,80537,1,0,1:0:0:0:
194,303,80644,1,0,3:0:0:0:
160,297,80751,1,8,1:2:0:0:
75,152,80965,1,10,1:3:0:0:
212,46,81179,2,0,P|210:93|204:139,1,92.9999971618653,4|0,1:3|1:0,0:0:0:0:
40,308,81608,5,6,0:0:0:0:
256,192,81715,12,6,85037,1:2:0:0:
106,129,97679,6,0,L|102:165,3,20.6666666666667,0|0|0|2,1:0|1:0|1:0|1:2,0:0:0:0:
164,224,98108,1,8,0:3:0:0:
265,178,98322,1,6,1:3:0:0:
207,83,98537,1,4,0:3:0:0:
164,224,98751,6,0,B|128:280|169:341,1,124,6|2,1:2|1:2,0:0:0:0:
246,278,99394,2,0,L|308:282,1,62,0|10,1:0|0:2,0:0:0:0:
372,357,99822,2,0,L|434:353,1,62,0|2,1:0|0:2,0:0:0:0:
490,271,100251,2,0,B|510:209|510:209|488:153,1,124,0|0,1:0|0:0,0:0:0:0:
407,96,100894,1,2,0:2:0:0:
501,65,101108,1,0,0:0:0:0:
395,194,101322,2,0,B|353:200|353:200|327:191|327:191|273:200,1,124,10|2,1:2|1:2,0:0:0:0:
115,44,102179,6,0,B|157:50|157:50|183:41|183:41|237:50,1,124,2|2,1:2|1:2,0:0:0:0:
279,139,102822,2,0,P|283:163|274:200,1,62,0|10,1:0|0:2,0:0:0:0:
174,195,103251,2,0,P|171:164|179:134,1,62,0|2,1:0|0:2,0:0:0:0:
230,276,103679,2,0,P|291:284|346:248,1,124,0|0,1:0|0:0,0:0:0:0:
433,293,104322,2,0,B|439:326|439:326|432:353,1,62,2|0,0:2|0:0,0:0:0:0:
413,194,104751,6,0,B|407:161|407:161|413:133,1,62,10|8,1:2|0:3,0:0:0:0:
432,23,105179,1,6,0:3:0:0:
512,95,105394,1,4,0:3:0:0:
339,70,105608,6,0,B|286:101|286:101|219:91,1,124,2|2,1:2|1:2,0:0:0:0:
142,149,106251,2,0,L|153:228,1,62,0|10,1:0|0:2,0:0:0:0:
245,238,106679,1,0,1:0:0:0:
174,307,106894,1,2,1:2:0:0:
245,238,107108,2,0,B|306:223|302:263|377:238,1,124,0|0,1:0|0:0,0:0:0:0:
452,190,107751,1,2,1:2:0:0:
339,85,107965,2,0,P|334:115|340:145,1,62,0|10,1:0|0:2,0:0:0:0:
367,241,108394,1,0,1:0:0:0:
468,342,108608,2,0,P|473:312|469:282,1,62,2|0,1:2|1:0,0:0:0:0:
287,319,109037,6,0,B|225:331|225:331|160:297,1,124,2|2,1:2|1:2,0:0:0:0:
231,154,109679,2,0,L|241:216,1,62,0|10,1:0|0:2,0:0:0:0:
317,77,110108,2,0,L|316:139,1,62,0|2,1:0|0:2,0:0:0:0:
423,40,110537,2,0,L|401:98,1,62,0|2,1:0|0:0,0:0:0:0:
317,272,110965,5,10,0:1:0:0:
231,154,111179,1,10,0:1:0:0:
112,228,111394,1,10,0:1:0:0:
314,370,111608,5,10,0:3:0:0:
351,363,111715,1,8,0:3:0:0:
384,342,111822,1,10,0:3:0:0:
406,311,111929,1,8,0:3:0:0:
414,273,112037,1,10,0:3:0:0:
406,235,112144,1,8,0:3:0:0:
384,203,112251,1,10,0:3:0:0:
352,182,112358,1,8,0:3:0:0:
314,176,112465,6,0,L|231:198,1,77.5,6|0,1:2|0:0,0:0:0:0:
103,230,112894,1,8,1:3:0:0:
156,28,113108,2,0,P|166:65|163:104,1,77.5,0|8,1:0|0:3,0:0:0:0:
109,306,113537,2,0,P|99:269|103:231,1,77.5,2|8,1:3|0:3,0:0:0:0:
239,256,113965,1,2,1:3:0:0:
163,103,114179,5,8,0:3:0:0:
163,103,114608,2,0,B|196:108|196:108|243:110,1,77.5,8|2,0:3|0:3,0:0:0:0:
377,210,115037,2,0,P|344:215|297:217,1,77.5,8|2,1:3|0:0,0:0:0:0:
253,217,115358,1,0,1:0:0:0:
253,217,115465,1,8,0:3:0:0:
163,103,115679,1,2,1:3:0:0:
128,254,115894,6,0,L|132:337,1,77.5,8|0,1:3|0:0,0:0:0:0:
264,375,116322,1,8,1:3:0:0:
414,293,116537,2,0,P|373:299|336:307,1,77.5,2|8,1:3|0:3,0:0:0:0:
264,187,116965,2,0,P|305:193|342:201,1,77.5,2|8,1:3|0:3,0:0:0:0:
509,324,117394,1,6,0:2:0:0:
509,324,117822,5,10,0:1:0:0:
475,174,118037,1,10,0:1:0:0:
337,306,118251,1,8,0:3:0:0:
286,114,118465,1,8,0:3:0:0:
427,261,118679,1,8,0:3:0:0:
229,221,118894,2,0,L|312:216,1,77.5,12|0,0:2|0:0,0:0:0:0:
176,301,119322,6,0,L|98:296,1,77.5,6|2,0:2|0:3,0:0:0:0:
26,176,119751,1,8,0:3:0:0:
128,40,119965,1,2,0:0:0:0:
146,73,120072,1,0,3:0:0:0:
153,111,120179,1,0,3:0:0:0:
148,149,120287,1,0,3:0:0:0:
131,184,120394,1,2,1:0:0:0:
128,40,120608,2,0,L|205:44,1,77.5,8|0,1:3|1:0,0:0:0:0:
336,128,121037,6,0,L|259:132,1,77.5,2|2,1:3|0:3,0:0:0:0:
131,184,121465,1,8,1:3:0:0:
254,320,121679,1,2,0:0:0:0:
262,282,121787,1,2,3:0:0:0:
255,245,121894,1,8,3:0:0:0:
139,349,122108,1,4,0:3:0:0:
7,265,122322,1,8,0:3:0:0:
45,267,122429,1,8,0:3:0:0:
84,269,122537,1,4,0:3:0:0:
84,269,122965,5,2,0:1:0:0:
255,245,123179,1,10,0:1:0:0:
151,89,123394,2,0,P|146:127|152:165,1,77.5,10|10,0:1|0:1,0:0:0:0:
188,351,123822,5,10,0:1:0:0:
359,229,124037,1,10,0:1:0:0:
151,89,124251,2,0,B|32:92|32:92|64:136,1,162.749995033264,10|0,0:1|0:0,0:0:0:0:
349,242,125322,6,0,P|348:199|345:165,1,77.5,0|0,1:3|1:3,0:0:0:0:
281,328,125751,1,8,0:3:0:0:
324,349,125858,1,8,0:3:0:0:
372,349,125965,1,8,0:3:0:0:
415,328,126072,1,8,0:3:0:0:
445,290,126179,5,6,0:3:0:0:
482,124,126394,2,0,P|488:75|488:28,1,92.9999971618653,0|8,1:3|0:3,0:0:0:0:
345,161,126822,2,0,P|299:155|253:153,1,92.9999971618653,0|0,1:0|0:0,0:0:0:0:
131,52,127251,2,0,P|177:46|224:44,1,92.9999971618653,2|8,1:3|0:3,0:0:0:0:
345,161,127679,6,0,L|307:258,1,92.9999971618653,2|0,1:3|0:0,0:0:0:0:
111,190,128108,2,0,L|202:176,1,92.9999971618653,2|8,1:3|0:3,0:0:0:0:
253,375,128537,2,0,L|194:302,1,92.9999971618653,2|0,1:3|0:0,0:0:0:0:
204,135,128965,1,2,1:3:0:0:
332,269,129179,1,8,0:3:0:0:
482,158,129394,1,0,0:0:0:0:
447,154,129501,1,0,3:0:0:0:
412,150,129608,5,2,1:3:0:0:
283,15,129822,2,0,L|377:7,1,92.9999971618653,0|8,1:0|0:3,0:0:0:0:
412,150,130251,1,0,1:0:0:0:
213,100,130465,2,0,L|306:108,1,92.9999971618653,0|2,1:0|0:3,0:0:0:0:
170,207,130894,5,8,1:3:0:0:
281,331,131108,2,0,B|295:285|281:240,1,92.9999971618653,2|0,1:3|0:0,0:0:0:0:
114,292,131537,2,0,B|100:338|115:385,1,92.9999971618653,2|8,1:3|0:3,0:0:0:0:
170,207,131965,1,2,1:0:0:0:
174,172,132072,1,0,3:0:0:0:
168,138,132179,1,0,0:0:0:0:
3,168,132394,2,0,B|-11:214|4:261,1,92.9999971618653,2|8,1:3|0:3,0:0:0:0:
114,383,132822,1,0,1:0:0:0:
348,223,133037,6,0,B|285:229|285:229|242:202|242:202|171:207,1,185.999994323731,6|8,0:3|0:3,0:0:0:0:
4,259,133679,1,0,1:0:0:0:
85,86,133894,1,0,1:0:0:0:
79,122,134001,1,0,3:0:0:0:
75,160,134108,1,2,1:0:0:0:
165,301,134322,1,8,1:3:0:0:
269,193,134537,6,0,L|366:205,1,92.9999971618653,2|0,1:0|0:0,0:0:0:0:
451,345,134965,1,2,0:3:0:0:
474,137,135179,1,8,1:3:0:0:
318,5,135394,1,2,1:0:0:0:
320,43,135501,1,0,3:0:0:0:
325,79,135608,1,0,0:0:0:0:
462,229,135822,2,0,P|468:183|474:137,1,92.9999971618653,2|8,1:3|0:0,0:0:0:0:
338,200,136251,1,0,1:0:0:0:
303,196,136358,1,0,3:0:0:0:
268,192,136465,6,0,P|276:238|286:284,1,92.9999971618653,2|0,0:0|0:0,0:0:0:0:
179,119,136894,1,8,1:3:0:0:
58,242,137108,2,0,L|150:226,1,92.9999971618653,0|0,1:0|0:0,0:0:0:0:
296,96,137537,1,2,1:0:0:0:
445,258,137751,1,8,0:0:0:0:
268,192,137965,6,0,B|237:280|237:280|273:365,1,185.999994323731,6|2,1:3|0:3,0:0:0:0:
444,257,138608,2,0,P|402:276|356:276,1,92.9999971618653,8|2,0:2|0:0,0:0:0:0:
506,112,139037,1,0,1:0:0:0:
438,284,139251,1,8,1:2:0:0:
219,124,139465,5,8,0:3:0:0:
176,105,139572,1,8,0:3:0:0:
130,104,139679,1,8,0:3:0:0:
86,119,139787,1,8,0:3:0:0:
51,149,139894,5,6,0:3:0:0:
106,340,140108,2,0,P|106:294|101:248,1,92.9999971618653,0|8,1:0|0:0,0:0:0:0:
300,264,140537,2,0,L|196:254,1,92.9999971618653,0|0,1:0|0:0,0:0:0:0:
347,163,140965,2,0,L|451:153,1,92.9999971618653,2|8,1:3|0:3,0:0:0:0:
300,264,141394,6,0,P|275:308|259:358,1,92.9999971618653,2|0,1:3|0:0,0:0:0:0:
206,109,141822,2,0,P|252:109|298:100,1,92.9999971618653,2|8,1:3|0:3,0:0:0:0:
113,267,142251,2,0,P|90:227|60:192,1,92.9999971618653,2|0,1:3|0:0,0:0:0:0:
69,359,142679,1,2,1:3:0:0:
205,261,142894,1,8,0:3:0:0:
409,341,143108,1,0,0:0:0:0:
377,353,143215,1,0,3:0:0:0:
342,356,143322,5,2,1:0:0:0:
205,261,143537,2,0,P|252:260|299:264,1,92.9999971618653,0|8,1:0|0:3,0:0:0:0:
342,356,143965,1,0,1:0:0:0:
207,177,144179,2,0,P|253:176|300:180,1,92.9999971618653,0|2,1:0|0:3,0:0:0:0:
451,263,144608,5,8,1:3:0:0:
452,95,144822,1,2,1:0:0:0:
448,57,144929,1,0,3:0:0:0:
443,21,145037,1,0,0:0:0:0:
300,180,145251,2,0,P|300:230|308:279,1,92.9999971618653,2|8,1:0|0:0,0:0:0:0:
247,82,145679,1,2,1:0:0:0:
243,45,145787,1,0,3:0:0:0:
239,10,145894,1,0,0:0:0:0:
95,167,146108,2,0,P|95:217|103:266,1,92.9999971618653,2|8,1:0|0:3,0:0:0:0:
247,341,146537,1,0,1:0:0:0:
407,172,146751,6,0,B|337:176|337:176|294:202|294:202|228:205,1,185.999994323731,6|8,0:3|0:3,0:0:0:0:
129,384,147394,1,0,0:0:0:0:
19,245,147608,1,0,0:0:0:0:
13,208,147715,1,0,3:0:0:0:
11,171,147822,1,2,0:0:0:0:
131,53,148037,1,8,1:3:0:0:
228,205,148251,6,0,B|276:211|276:211|336:197,1,92.9999971618653,2|0,1:3|0:3,0:0:0:0:
378,57,148679,2,0,B|330:51|330:51|270:65,1,92.9999971618653,2|8,1:3|0:3,0:0:0:0:
112,93,149108,1,2,1:0:0:0:
115,130,149215,1,0,3:0:0:0:
119,167,149322,1,0,0:0:0:0:
219,297,149537,2,0,L|228:204,1,92.9999971618653,2|8,1:3|0:3,0:0:0:0:
124,333,149965,1,0,1:0:0:0:
308,355,150179,6,0,B|354:361|354:361|407:341,1,92.9999971618653,6|0,0:3|1:0,0:0:0:0:
500,212,150608,1,8,1:3:0:0:
382,93,150822,1,0,1:0:0:0:
372,260,151037,1,0,1:0:0:0:
487,127,151251,1,2,1:3:0:0:
477,303,151465,1,8,1:3:0:0:
341,169,151679,6,0,B|275:155|208:160|208:160|166:199,1,185.999994323731,2|2,1:3|0:3,0:0:0:0:
82,328,152322,1,8,1:3:0:0:
237,358,152537,2,0,P|241:303|251:263,1,92.9999971618653,2|0,1:3|0:0,0:0:0:0:
329,80,152965,1,8,1:3:0:0:
335,124,153072,1,8,0:3:0:0:
341,169,153179,1,8,0:3:0:0:
367,333,153394,1,4,1:3:0:0:
250,266,153608,6,0,P|200:257|140:267,1,108.499996688843,6|0,0:2|0:0,0:0:0:0:
70,313,154251,1,2,0:3:0:0:
30,200,154465,2,0,P|36:169|36:140,1,54.2499983444214,8|0,1:1|1:0,0:0:0:0:
109,57,154894,2,0,P|109:84|115:110,1,54.2499983444214,2|0,1:0|1:0,0:0:0:0:
194,72,155322,6,0,B|247:55|247:55|300:73,1,108.499996688843,2|0,0:3|0:0,0:0:0:0:
375,110,155965,1,2,0:3:0:0:
302,204,156179,2,0,P|292:228|291:259,1,54.2499983444214,8|0,1:3|1:0,0:0:0:0:
388,303,156608,2,0,P|387:276|377:252,1,54.2499983444214,0|0,1:3|1:0,0:0:0:0:
226,310,157037,6,0,B|174:326|174:326|122:310,1,108.499996688843,2|0,1:3|0:0,0:0:0:0:
56,253,157679,1,2,0:3:0:0:
147,171,157894,2,0,L|138:225,1,54.2499983444214,8|0,0:1|1:0,0:0:0:0:
87,108,158322,1,2,1:3:0:0:
172,91,158537,6,0,L|234:82,1,54.2499983444214,0|2,1:0|0:0,0:0:0:0:
330,159,158965,2,0,L|277:152,1,54.2499983444214,0|0,1:0|0:0,0:0:0:0:
225,222,159394,1,2,1:0:0:0:
385,93,159608,5,8,0:3:0:0:
441,279,159822,1,8,1:3:0:0:
330,324,160037,2,0,L|326:266,1,54.2499983444214,4|0,0:3|1:0,0:0:0:0:
276,151,160465,6,0,P|329:182|387:181,1,108.499996688843,6|0,1:2|0:0,0:0:0:0:
451,141,161108,1,2,0:3:0:0:
363,26,161322,2,0,P|354:50|353:85,1,54.2499983444214,8|0,1:1|1:0,0:0:0:0:
451,141,161751,2,0,P|461:167|462:194,1,54.2499983444214,2|0,1:1|1:0,0:0:0:0:
440,277,162179,6,0,P|387:299|331:288,1,108.499996688843,2|0,0:3|0:0,0:0:0:0:
286,221,162822,1,2,0:3:0:0:
219,69,163037,2,0,L|215:124,1,54.2499983444214,8|0,1:3|1:0,0:0:0:0:
298,0,163465,2,0,L|304:53,1,54.2499983444214,0|0,1:3|1:0,0:0:0:0:
495,116,163894,6,0,P|427:100|361:119,1,139.499995742798,6|0,0:2|0:0,0:0:0:0:
180,198,164537,2,0,P|247:213|313:196,1,139.499995742798,10|0,0:3|1:0,0:0:0:0:
372,265,165179,2,0,P|378:301|369:342,1,69.749997871399,4|0,1:3|1:0,0:0:0:0:
455,370,165608,1,0,1:0:0:0:
503,246,165822,2,0,B|513:177|513:177|502:109,1,139.499995742798,8|2,0:3|1:3,0:3:0:0:
267,10,166465,5,8,0:3:0:0:
213,197,166679,1,8,1:3:0:0:
115,51,166894,1,6,0:3:0:0:
28,160,167108,1,2,1:3:0:0:
28,160,167537,5,2,0:3:0:0:
124,371,167751,1,10,0:1:0:0:
122,92,167965,5,10,0:1:0:0:
140,323,168179,1,10,0:1:0:0:
218,54,168394,5,10,0:1:0:0:
155,277,168608,1,10,0:1:0:0:
390,164,168822,6,0,B|310:148|230:180|230:180|262:156|270:124,1,232.5,10|0,0:1|0:0,0:0:0:0:
477,181,170322,5,8,0:0:0:0:
503,219,170429,1,8,0:0:0:0:
512,265,170537,1,8,0:0:0:0:
504,310,170644,1,8,0:0:0:0:
479,349,170751,6,0,P|393:331|286:360,1,185.999994323731,6|8,0:3|0:3,0:0:0:0:
197,230,171394,1,0,0:0:0:0:
337,125,171608,1,0,0:0:0:0:
334,162,171715,1,0,3:0:0:0:
331,199,171822,1,2,0:0:0:0:
173,370,172037,1,8,0:3:0:0:
27,221,172251,1,2,0:0:0:0:
62,211,172358,1,0,3:0:0:0:
99,211,172465,5,0,0:0:0:0:
245,311,172679,1,2,0:0:0:0:
205,138,172894,2,0,P|199:182|197:230,1,92.9999971618653,8|2,0:3|0:3,0:0:0:0:
274,61,173322,1,0,1:0:0:0:
339,255,173537,1,2,1:3:0:0:
122,127,173751,1,8,1:3:0:0:
324,156,173965,1,0,1:0:0:0:
360,160,174072,1,0,3:0:0:0:
397,165,174179,5,2,1:0:0:0:
256,313,174394,1,0,1:0:0:0:
122,127,174608,2,0,P|114:79|111:33,1,92.9999971618653,8|0,1:2|0:0,0:0:0:0:
201,176,175037,1,0,0:0:0:0:
198,213,175144,1,0,3:0:0:0:
193,249,175251,1,2,0:0:0:0:
65,357,175465,1,8,0:3:0:0:
256,313,175679,6,0,P|347:311|417:368,1,185.999994323731,2|2,0:3|0:3,0:0:0:0:
198,213,176322,1,8,0:3:0:0:
308,49,176537,1,2,0:0:0:0:
317,83,176644,1,0,3:0:0:0:
325,117,176751,1,0,3:0:0:0:
315,150,176858,1,0,3:0:0:0:
306,184,176965,1,2,0:0:0:0:
135,297,177179,2,0,P|89:292|51:266,1,92.9999971618653,8|0,1:3|1:0,0:0:0:0:
306,184,177608,6,0,B|369:174|369:174|423:203|423:203|483:193,1,185.999994323731,6|8,0:3|0:3,0:0:0:0:
329,368,178251,1,0,0:0:0:0:
438,278,178465,1,0,0:0:0:0:
402,285,178572,1,0,3:0:0:0:
365,292,178679,1,2,0:0:0:0:
200,204,178894,1,8,0:0:0:0:
272,32,179108,1,2,0:0:0:0:
273,69,179215,1,0,3:0:0:0:
275,106,179322,5,0,0:0:0:0:
365,292,179537,1,2,0:0:0:0:
402,110,179751,1,8,0:0:0:0:
200,204,179965,1,2,0:0:0:0:
163,211,180072,1,0,3:0:0:0:
126,208,180179,1,0,0:0:0:0:
92,194,180287,1,0,3:0:0:0:
63,171,180394,1,2,0:0:0:0:
146,338,180608,1,8,0:0:0:0:
365,292,180822,1,0,0:0:0:0:
328,289,180929,1,0,3:0:0:0:
293,299,181037,6,0,L|300:200,1,92.9999971618653,2|0,0:0|0:0,0:0:0:0:
193,76,181465,1,8,1:3:0:0:
88,237,181679,2,0,P|145:240|192:225,1,92.9999971618653,0|0,1:0|0:0,0:0:0:0:
124,359,182108,2,0,P|67:362|20:347,1,92.9999971618653,2|8,1:3|0:3,0:0:0:0:
79,58,182537,6,0,B|91:134|91:134|76:159|76:159|89:238,2,185.999994323731,6|2|2,1:3|1:3|1:3,0:0:0:0:
216,1,183608,2,0,L|229:92,1,92.9999971618653,0|8,1:0|1:3,0:0:0:0:
335,199,184037,5,8,0:3:0:0:
379,209,184144,1,8,0:3:0:0:
424,197,184251,1,8,0:3:0:0:
458,166,184358,1,8,0:3:0:0:
473,122,184465,6,0,L|489:230,1,92.9999971618653,6|0,1:3|1:0,0:0:0:0:
386,348,184894,1,8,0:3:0:0:
255,243,185108,2,0,P|209:251|157:252,1,92.9999971618653,0|0,1:0|0:0,0:0:0:0:
28,353,185537,2,0,P|74:354|120:362,1,92.9999971618653,2|8,1:3|0:3,0:0:0:0:
255,243,185965,6,0,L|302:154,1,92.9999971618653,2|0,1:3|0:0,0:0:0:0:
83,167,186394,2,0,L|132:245,1,92.9999971618653,2|8,1:3|0:3,0:0:0:0:
233,47,186822,2,0,L|140:50,1,92.9999971618653,2|0,1:3|0:0,0:0:0:0:
299,161,187251,1,2,1:3:0:0:
133,246,187465,1,8,0:3:0:0:
283,352,187679,1,0,0:0:0:0:
286,314,187787,1,0,3:0:0:0:
289,277,187894,5,2,1:0:0:0:
506,355,188108,2,0,P|464:376|406:379,1,92.9999971618653,0|8,1:0|0:3,0:0:0:0:
289,277,188537,1,0,1:0:0:0:
483,278,188751,2,0,P|441:299|383:302,1,92.9999971618653,0|2,1:0|0:3,0:0:0:0:
212,213,189179,5,8,1:3:0:0:
346,59,189394,2,0,B|360:104|360:104|345:148,1,92.9999971618653,2|0,1:3|0:0,0:0:0:0:
212,213,189822,2,0,B|198:168|198:168|213:124,1,92.9999971618653,2|8,1:3|0:3,0:0:0:0:
302,289,190251,1,2,1:0:0:0:
339,287,190358,1,0,3:0:0:0:
376,286,190465,1,0,0:0:0:0:
438,143,190679,2,0,L|345:146,1,92.9999971618653,2|8,1:3|0:3,0:0:0:0:
212,213,191108,1,0,1:0:0:0:
68,92,191322,6,0,B|161:56|161:136|266:86,2,185.999994323731,6|8|0,0:3|0:3|0:0,0:0:0:0:
4,206,192394,1,2,0:3:0:0:
110,335,192608,1,8,1:3:0:0:
203,196,192822,5,2,1:0:0:0:
165,197,192929,1,0,3:0:0:0:
128,198,193037,1,0,0:0:0:0:
262,308,193251,2,0,L|362:312,1,92.9999971618653,2|8,1:3|0:3,0:0:0:0:
243,109,193679,1,2,1:0:0:0:
205,110,193787,1,0,3:0:0:0:
168,111,193894,1,0,0:0:0:0:
302,221,194108,2,0,L|402:225,1,92.9999971618653,2|8,1:3|0:3,0:0:0:0:
503,96,194537,1,0,1:0:0:0:
362,5,194751,5,6,0:3:0:0:
396,134,194965,2,0,P|405:179|395:224,1,92.9999971618653,0|8,1:0|1:3,0:0:0:0:
248,64,195394,1,0,1:0:0:0:
210,65,195501,1,0,3:0:0:0:
173,67,195608,1,8,0:0:0:0:
46,160,195822,1,8,1:3:0:0:
198,277,196037,2,0,P|206:225|199:181,1,92.9999971618653,4|0,1:3|1:0,0:0:0:0:
86,336,196465,5,6,0:2:0:0:
86,336,197162,6,0,P|110:344|155:338,1,54.2499983444214,0|0,1:0|0:0,0:0:0:0:
198,277,197620,6,0,P|226:269|258:271,1,54.2499983444214,0|0,1:0|0:0,0:0:0:0:
322,320,198057,6,0,P|294:234|398:312,1,325.499990066529,0|0,1:0|0:0,0:0:0:0:
172,115,200554,6,0,B|149:193|149:312|183:342|183:342|255:397|327:341|327:341|360:315|360:191|343:111|326:57|326:57|259:57|259:57|335:-18|335:-18|411:57|411:57|336:57,1,1023.00003121948,4|0,0:0|0:0,0:0:0:0:
