osu file format v14

[General]
AudioFilename: audio.mp3
AudioLeadIn: 0
PreviewTime: 55037
Countdown: 0
SampleSet: Soft
StackLeniency: 0.7
Mode: 0
LetterboxInBreaks: 0
WidescreenStoryboard: 0

[Editor]
DistanceSpacing: 1.1
BeatDivisor: 4
GridSize: 4
TimelineZoom: 1.3

[Metadata]
Title:Running
TitleUnicode:Running
Artist:Gaho
ArtistUnicode:가호
Creator:FunnyA
Version:Normal
Source:스타트업
Tags:Start Up Start-Up OST Original Television Soundtrack Pt. 5 배수지 Bae Suzy 서달미 Seo Dal Mi Dalmi 남주혁 Nam Joo Hyuk 남도산 Nam Do San Dosan 김선호 Kim Seon Ho 한지평 Han Ji Pyeong Jipyeong Good Boy 강한나 Kang Hanna 원인재 Won In Jae Injae Korean Drama 2020 HISTORY D&C tvN Pop K-pop Kpop ulfanirahmi
BeatmapID:2691690
BeatmapSetID:1297488

[Difficulty]
HPDrainRate:4
CircleSize:3
OverallDifficulty:4
ApproachRate:5.5
SliderMultiplier:1.3
SliderTickRate:1

[Events]
//Background and Video events
0,0,"Start Up 1.jpg",0,0
Video,300,"Gaho - Running [START-UP OST Part. 5].mp4"
//Break Periods
2,85237,96769
//Storyboard Layer 0 (Background)
//Storyboard Layer 1 (Fail)
//Storyboard Layer 2 (Pass)
//Storyboard Layer 3 (Foreground)
//Storyboard Layer 4 (Overlay)
//Storyboard Sound Samples

[TimingPoints]
1037,428.571428571429,4,2,1,65,1,0
1465,-100,4,2,1,65,0,0
10894,-100,4,2,5,65,0,0
11537,-100,4,2,2,75,0,0
13894,-100,4,2,1,60,0,0
14751,-100,4,2,1,70,0,0
27608,-100,4,2,5,70,0,0
27823,-100,4,2,10,70,0,0
28466,-100,4,2,5,70,0,0
28894,-100,4,2,1,70,0,0
34680,-100,4,2,10,70,0,0
35323,-100,4,2,1,70,0,0
40466,-100,4,2,2,80,0,0
40679,-100,4,2,2,75,0,0
42179,-100,4,2,2,70,0,0
47537,-100,4,2,2,75,0,0
49037,-100,4,2,2,70,0,0
51823,-100,4,2,10,70,0,0
52894,-100,4,2,2,75,0,0
55894,-100,4,2,2,80,0,1
67679,-100,4,2,2,80,0,0
69608,-100,4,2,2,80,0,1
80966,-100,4,2,10,80,0,1
81608,-100,4,2,2,70,0,0
84180,-100,4,2,1,70,0,0
97894,-100,4,2,5,70,0,0
98108,-100,4,2,10,70,0,0
98751,-100,4,2,5,70,0,0
99179,-100,4,2,1,70,0,0
104966,-100,4,2,10,70,0,0
105608,-100,4,2,1,70,0,0
110965,-100,4,2,2,75,0,0
112465,-100,4,2,2,70,0,0
117822,-100,4,2,2,75,0,0
119322,-100,4,2,2,70,0,0
122108,-100,4,2,10,70,0,0
123179,-100,4,2,2,75,0,0
125322,-100,4,2,2,70,0,0
125751,-100,4,2,2,75,0,0
126179,-100,4,2,2,80,0,1
137965,-100,4,2,2,80,0,0
139465,-100,4,2,2,75,0,0
139894,-100,4,2,2,80,0,1
153394,-100,4,2,10,80,0,1
153608,-100,4,2,2,65,0,0
159823,-100,4,2,10,65,0,0
160466,-100,4,2,2,65,0,0
163894,-100,4,2,2,70,0,0
164537,-100,4,2,10,70,0,0
166251,-100,4,2,2,70,0,0
166680,-100,4,2,10,70,0,0
167751,-100,4,2,2,75,0,0
168822,-100,4,2,2,70,0,0
170322,-100,4,2,2,75,0,0
170751,-100,4,2,2,80,0,1
182322,-100,4,2,2,80,0,0
182537,-100,4,2,2,80,0,1
182965,-100,4,2,2,80,0,0
184037,-100,4,2,2,75,0,0
184465,-100,4,2,2,80,0,1
195823,-100,4,2,10,80,0,1
196465,465.116279069767,4,2,2,70,1,0
197162,458.015267175573,4,2,2,60,1,0
197620,437.956204379562,4,2,2,60,1,0
198057,582.52427184466,4,2,2,60,1,0
198348,-100,4,2,2,5,0,0
199804,750,4,2,2,30,1,0
200554,638.297872340426,4,2,2,60,1,0
201830,-100,4,2,2,60,0,0
203107,-100,4,2,2,50,0,0
204383,-100,4,2,2,40,0,0
205660,-100,4,2,2,30,0,0
206936,-100,4,2,2,20,0,0
208213,-100,4,2,2,5,0,0

[Colours]
Combo1 : 255,255,102
Combo2 : 255,0,128
Combo3 : 0,217,108
Combo4 : 0,128,192

[HitObjects]
285,17,1037,6,0,L|415:28,2,130,14|8|8,0:3|0:3|0:3,0:0:0:0:
176,110,2322,1,8,0:3:0:0:
301,178,2751,2,0,P|308:236|298:322,1,130,8|8,0:3|0:3,0:0:0:0:
177,239,3608,2,0,P|170:181|180:95,1,130,8|8,0:3|0:3,0:0:0:0:
301,178,4465,6,0,B|355:170|355:170|379:180|379:180|429:173,2,130,10|8|8,0:3|0:3|0:3,0:0:0:0:
193,272,5751,1,8,0:3:0:0:
66,206,6179,2,0,B|47:143|47:143|65:64,1,130,8|8,0:3|0:3,0:0:0:0:
198,37,7037,2,0,B|217:100|217:100|199:179,1,130,8|8,0:3|0:3,0:0:0:0:
135,288,7894,6,0,P|199:307|266:288,1,130,14|8,0:3|0:3,0:0:0:0:
375,209,8751,1,8,0:3:0:0:
443,83,9179,2,0,P|379:64|312:83,1,130,8|8,0:3|0:3,0:0:0:0:
205,167,10037,1,8,0:3:0:0:
86,246,10465,2,0,B|69:309|69:309|86:371,1,130,8|12,0:3|0:3,0:0:0:0:
262,248,11537,6,0,L|338:254,2,65,8|8|8,0:1|0:1|0:1,0:0:0:0:
238,180,12179,2,0,P|232:146|240:114,1,65,10|10,0:1|0:1,0:0:0:0:
274,56,12608,1,10,0:1:0:0:
274,56,12822,1,10,0:1:0:0:
13,301,13894,2,0,P|77:317|139:301,1,130,0|0,1:3|1:3,0:0:0:0:
227,190,14751,6,0,P|289:174|351:190,1,130,6|2,1:2|1:2,0:0:0:0:
399,243,15394,2,0,P|414:305|397:369,1,130,0|0,1:0|1:0,0:0:0:0:
269,304,16251,2,0,P|175:275|86:306,1,195,0|2,1:0|0:2,0:0:0:0:
18,179,17322,1,2,1:2:0:0:
114,73,17751,1,2,1:2:0:0:
244,131,18179,6,0,B|309:149|309:149|369:129,1,130,2|2,1:2|1:2,0:0:0:0:
432,162,18822,2,0,P|441:226|432:293,1,130,0|0,1:0|1:0,0:0:0:0:
299,342,19679,2,0,B|228:355|228:355|196:336|196:336|108:348,1,195,0|2,1:0|0:0,0:0:0:0:
28,230,20751,2,0,L|160:214,1,130,2|2,1:2|1:2,0:0:0:0:
271,128,21608,6,0,P|277:92|265:56,2,65,2|0|2,1:2|1:0|1:2,0:0:0:0:
242,193,22251,2,0,P|234:251|245:322,1,130,0|0,1:0|1:0,0:0:0:0:
104,349,23108,2,0,P|85:246|101:158,1,195,0|2,1:0|0:0,0:0:0:0:
144,102,23965,1,0,1:0:0:0:
144,102,24179,2,0,L|274:97,1,130,2|2,1:2|1:2,0:0:0:0:
370,203,25037,6,0,L|241:208,1,130,2|2,1:2|1:2,0:0:0:0:
178,243,25679,2,0,P|165:308|181:368,1,130,0|0,1:0|1:0,0:0:0:0:
308,301,26537,2,0,B|401:274|408:343|498:306,1,195,0|2,1:0|0:2,0:0:0:0:
402,198,27608,2,0,P|395:164|403:134,1,65,2|8,1:2|0:3,0:0:0:0:
426,67,28037,1,4,0:3:0:0:
287,103,28465,6,0,P|210:110|163:91,1,130,6|2,1:2|1:2,0:0:0:0:
95,116,29108,2,0,P|92:147|96:183,1,65,0|10,1:0|0:2,0:0:0:0:
160,211,29537,2,0,P|163:243|160:275,1,65,0|2,1:0|0:2,0:0:0:0:
220,314,29965,2,0,P|314:333|410:315,1,195,0|2,1:0|0:0,0:0:0:0:
478,188,31037,1,10,1:2:0:0:
414,59,31465,1,2,1:2:0:0:
270,63,31894,6,0,B|205:68|205:68|148:103,1,130,2|2,1:2|1:2,0:0:0:0:
110,162,32537,2,0,L|114:234,1,65,0|10,1:0|0:2,0:0:0:0:
168,272,32965,2,0,L|164:338,1,65,0|2,1:0|0:2,0:0:0:0:
234,351,33394,2,0,B|330:371|330:371|426:350,1,195,0|2,1:0|0:0,0:0:0:0:
499,228,34465,2,0,L|434:239,1,65,10|8,1:2|0:3,0:0:0:0:
370,207,34894,1,6,0:3:0:0:
256,119,35322,6,0,L|128:95,1,130,2|2,1:2|1:2,0:0:0:0:
72,49,35965,1,0,1:0:0:0:
48,190,36394,2,0,P|43:225|48:259,1,65,0|2,1:0|1:2,0:0:0:0:
93,308,36822,2,0,B|183:349|183:349|277:326,1,195,0|2,1:0|1:2,0:0:0:0:
338,289,37679,1,0,1:0:0:0:
275,166,38108,1,0,1:0:0:0:
275,166,38322,2,0,P|268:135|274:100,1,65,2|0,1:2|1:0,0:0:0:0:
295,34,38751,6,0,P|239:7|170:20,1,130,2|2,1:2|1:2,0:0:0:0:
143,82,39394,2,0,P|79:93|22:65,1,130,0|0,1:0|1:0,0:0:0:0:
71,199,40251,2,0,P|85:264|69:326,1,130,0|10,1:0|0:1,0:0:0:0:
131,360,40894,1,10,0:1:0:0:
131,360,41108,1,10,0:1:0:0:
183,311,41322,2,0,L|252:307,1,65,8|8,0:0|0:0,0:0:0:0:
296,254,41751,1,8,0:0:0:0:
236,124,42179,6,0,P|305:104|362:125,1,130,6|8,1:2|1:2,0:0:0:0:
418,160,42822,2,0,P|420:194|412:240,1,65,0|8,1:2|0:2,0:0:0:0:
352,258,43251,2,0,P|354:292|346:338,1,65,2|8,1:2|0:2,0:0:0:0:
288,354,43679,1,2,1:2:0:0:
288,354,43894,1,8,0:2:0:0:
154,303,44322,1,8,0:2:0:0:
130,161,44751,2,0,P|75:175|15:167,2,97.5,8|0|2,1:2|1:2|1:2,0:0:0:0:
169,101,45608,6,0,P|232:84|296:86,1,130,8|8,1:2|1:2,0:0:0:0:
345,137,46251,2,0,P|353:166|350:206,1,65,2|8,1:2|0:2,0:0:0:0:
315,262,46679,2,0,P|313:294|321:325,1,65,2|8,1:2|0:2,0:0:0:0:
368,379,47108,1,6,0:2:0:0:
232,332,47537,2,0,L|168:335,1,65,10|10,0:1|0:1,0:0:0:0:
119,281,47965,2,0,L|55:284,1,65,8|8,0:2|0:2,0:0:0:0:
15,230,48394,1,8,0:2:0:0:
15,230,48608,1,12,0:2:0:0:
100,115,49037,6,0,L|179:120,1,65,6|2,0:2|0:2,0:0:0:0:
212,66,49465,1,8,0:2:0:0:
212,66,49679,1,2,0:0:0:0:
330,155,50108,1,2,1:0:0:0:
330,155,50322,2,0,P|335:188|330:224,1,65,8|0,1:2|1:2,0:0:0:0:
286,275,50751,2,0,P|223:305|166:294,1,130,2|8,1:2|1:2,0:0:0:0:
113,244,51394,2,0,P|108:211|113:175,1,65,2|8,0:0|0:0,0:0:0:0:
156,124,51822,2,0,P|159:91|154:59,1,65,4|8,0:3|0:3,0:0:0:0:
99,13,52251,1,4,0:3:0:0:
9,210,52894,5,10,0:1:0:0:
9,210,53108,2,0,L|88:216,1,65,10|10,0:1|0:1,0:0:0:0:
120,269,53537,2,0,L|188:274,1,65,10|10,0:1|0:1,0:0:0:0:
233,326,53965,1,10,0:1:0:0:
482,69,55037,6,0,P|446:76|415:68,1,65,0|0,1:3|1:3,0:0:0:0:
356,47,55465,1,8,0:3:0:0:
356,47,55679,1,8,0:3:0:0:
286,63,55894,6,0,L|283:129,1,65,6|0,1:3|1:0,0:0:0:0:
180,228,56537,2,0,B|159:291|159:291|182:351,1,130,0|2,1:0|1:2,0:0:0:0:
248,325,57179,1,8,0:0:0:0:
248,325,57394,2,0,P|313:310|377:327,1,130,2|2,1:3|1:3,0:0:0:0:
439,293,58037,1,8,0:3:0:0:
439,293,58251,2,0,P|454:230|439:167,1,130,2|2,1:3|1:3,0:0:0:0:
378,130,58894,1,8,0:3:0:0:
260,59,59322,5,2,1:3:0:0:
260,59,59537,2,0,B|198:47|198:47|130:60,1,130,0|0,1:0|1:0,0:0:0:0:
79,107,60179,1,0,1:0:0:0:
57,251,60608,1,8,1:3:0:0:
57,251,60822,2,0,B|112:259|112:259|130:249|130:249|183:255,1,130,2|2,1:0|1:0,0:0:0:0:
284,356,61679,2,0,B|231:362|231:362|213:352|213:352|158:360,2,130,2|2|0,1:0|1:0|1:0,0:0:0:0:
334,304,62751,6,0,P|353:241|333:176,1,130,6|8,0:3|0:3,0:0:0:0:
288,45,63608,2,0,L|220:50,2,65,0|2|8,1:0|1:0|1:3,0:0:0:0:
336,97,64251,2,0,L|472:90,1,130,2|2,1:0|0:0,0:0:0:0:
447,162,64894,1,8,1:3:0:0:
447,162,65108,2,0,P|429:218|452:283,1,130,2|2,1:0|1:3,0:0:0:0:
326,351,65965,6,0,L|197:340,1,130,0|0,1:0|0:3,0:0:0:0:
171,272,66608,1,8,1:2:0:0:
171,272,66822,2,0,B|156:206|156:206|173:145,1,130,0|2,1:0|1:2,0:0:0:0:
311,112,67679,2,0,L|440:127,2,130,2|2|2,1:3|0:3|0:0,0:0:0:0:
266,55,68751,2,0,L|199:60,1,65,0|8,1:0|1:2,0:0:0:0:
153,15,69179,1,8,0:3:0:0:
153,15,69394,1,8,0:3:0:0:
116,76,69608,6,0,B|109:110|109:110|115:139,1,65,6|0,0:3|1:0,0:0:0:0:
222,234,70251,2,0,B|281:263|281:263|339:234,1,130,0|2,1:0|1:3,0:0:0:0:
400,195,70894,1,8,0:3:0:0:
400,195,71108,2,0,P|413:129|388:52,1,130,2|2,1:3|1:3,0:0:0:0:
342,32,71751,1,8,0:3:0:0:
342,32,71965,2,0,B|283:3|283:3|225:32,1,130,2|2,1:3|1:3,0:0:0:0:
166,72,72608,1,8,0:3:0:0:
233,204,73037,5,2,1:3:0:0:
233,204,73251,2,0,B|163:240|107:204,1,130,0|0,1:0|1:0,0:0:0:0:
88,136,73894,1,0,1:0:0:0:
7,254,74322,1,8,1:3:0:0:
7,254,74537,2,0,B|0:315|0:315|34:374,1,130,2|2,1:0|1:3,0:0:0:0:
161,309,75394,2,0,B|168:248|168:248|134:189,2,130,2|2|0,1:0|1:3|1:0,0:0:0:0:
229,329,76465,6,0,B|284:339|326:317|326:317|377:354|377:354|426:331|481:345,1,260,6|0,0:3|0:0,0:0:0:0:
488,204,77751,1,8,1:3:0:0:
488,204,77965,2,0,P|497:138|498:70,1,130,2|2,1:3|1:3,0:0:0:0:
357,100,78822,2,0,P|292:110|227:111,2,130,2|2|0,1:0|1:3|1:0,0:0:0:0:
407,49,79894,5,6,0:3:0:0:
473,175,80322,2,0,P|480:207|473:240,1,65,8|0,1:2|1:0,0:0:0:0:
439,301,80751,1,8,1:2:0:0:
439,301,80965,1,10,1:3:0:0:
372,274,81179,2,0,B|340:267|340:267|307:274,1,65,4|0,1:3|1:0,0:0:0:0:
256,192,81608,12,6,85037,1:2:0:0:
60,140,97894,6,0,P|92:134|130:142,1,65,2|8,1:2|0:3,0:0:0:0:
177,186,98322,1,6,1:3:0:0:
221,321,98751,6,0,P|286:335|348:321,1,130,6|2,1:2|1:2,0:0:0:0:
401,274,99394,2,0,B|406:242|406:242|399:201,1,65,0|10,1:0|0:2,0:0:0:0:
345,164,99822,2,0,B|339:131|339:131|344:99,1,65,0|2,1:0|0:2,0:0:0:0:
290,51,100251,2,0,B|225:42|225:42|164:66|164:66|99:58,1,195,0|2,1:0|0:2,0:0:0:0:
58,194,101322,1,10,1:2:0:0:
163,290,101751,1,2,1:2:0:0:
287,359,102179,6,0,P|302:291|288:224,1,130,2|2,1:2|1:2,0:0:0:0:
261,167,102822,2,0,P|224:160|191:156,1,65,0|10,1:0|0:2,0:0:0:0:
154,98,103251,2,0,P|121:94|89:88,1,65,0|2,1:0|0:2,0:0:0:0:
31,129,103679,2,0,B|-2:222|-2:222|35:311,1,195,0|2,1:0|0:2,0:0:0:0:
143,217,104751,2,0,B|175:209|175:209|207:216,1,65,10|8,1:2|0:3,0:0:0:0:
263,258,105179,1,4,0:3:0:0:
375,346,105608,6,0,B|439:365|439:365|503:345,1,130,2|2,1:2|1:2,0:0:0:0:
511,275,106251,1,0,1:0:0:0:
396,190,106679,2,0,P|389:158|397:126,1,65,0|2,1:0|1:2,0:0:0:0:
428,61,107108,2,0,B|331:101|229:60,1,195,0|2,1:0|1:2,0:0:0:0:
183,16,107965,1,0,1:0:0:0:
67,100,108394,1,0,1:0:0:0:
67,100,108608,2,0,P|60:132|68:167,1,65,2|0,1:2|1:0,0:0:0:0:
89,231,109037,6,0,P|153:239|218:232,1,130,2|2,1:2|1:2,0:0:0:0:
239,163,109679,2,0,P|303:156|367:164,1,130,0|0,1:0|1:0,0:0:0:0:
496,98,110537,2,0,P|511:169|496:225,1,130,0|10,1:0|0:1,0:0:0:0:
463,288,111179,1,10,0:1:0:0:
463,288,111394,1,10,0:1:0:0:
399,320,111608,2,0,L|326:308,1,65,10|10,0:3|0:3,0:0:0:0:
273,345,112037,1,10,0:3:0:0:
145,281,112465,6,0,B|125:219|125:219|143:157,1,130,6|8,1:2|1:3,0:0:0:0:
175,92,113108,2,0,P|210:84|246:91,1,65,0|8,1:0|0:3,0:0:0:0:
276,148,113537,2,0,P|308:152|339:144,1,65,2|8,1:3|0:3,0:0:0:0:
371,82,113965,1,2,1:3:0:0:
371,82,114179,1,8,0:3:0:0:
466,188,114608,1,8,0:3:0:0:
365,289,115037,2,0,P|382:328|378:384,2,97.5,8|0|2,1:3|1:0|1:3,0:0:0:0:
319,233,115894,6,0,P|258:252|190:250,1,130,8|8,1:3|1:3,0:0:0:0:
145,196,116537,2,0,P|141:160|142:121,1,65,2|8,1:3|0:3,0:0:0:0:
99,73,116965,2,0,P|66:72|34:76,1,65,2|8,1:3|0:3,0:0:0:0:
1,139,117394,1,6,0:2:0:0:
42,275,117822,2,0,P|74:271|106:272,1,65,10|10,0:1|0:1,0:0:0:0:
148,330,118251,2,0,P|180:331|212:327,1,65,8|8,0:3|0:3,0:0:0:0:
248,267,118679,1,8,0:3:0:0:
248,267,118894,1,12,0:2:0:0:
268,125,119322,6,0,L|200:130,1,65,6|2,0:2|0:3,0:0:0:0:
140,95,119751,1,8,0:3:0:0:
140,95,119965,1,2,0:0:0:0:
256,10,120394,1,2,1:0:0:0:
256,10,120608,2,0,L|320:5,1,65,8|0,1:3|1:0,0:0:0:0:
362,63,121037,2,0,P|380:119|355:197,1,130,2|8,1:3|1:3,0:0:0:0:
327,248,121679,2,0,L|262:243,1,65,2|8,0:0|3:0,0:0:0:0:
222,303,122108,2,0,L|157:298,1,65,4|8,0:3|0:3,0:0:0:0:
112,353,122537,1,4,0:3:0:0:
68,148,123179,5,10,0:1:0:0:
68,148,123394,2,0,L|79:74,1,65,10|10,0:1|0:1,0:0:0:0:
148,89,123822,2,0,L|183:23,1,65,10|10,0:1|0:1,0:0:0:0:
249,21,124251,1,10,0:1:0:0:
39,310,125322,6,0,P|67:305|104:313,1,65,0|0,1:3|1:3,0:0:0:0:
152,369,125751,1,8,0:3:0:0:
152,369,125965,1,8,0:3:0:0:
210,328,126179,6,0,P|213:294|208:262,1,65,6|0,0:3|1:3,0:0:0:0:
145,134,126822,2,0,P|210:151|279:128,1,130,0|2,1:0|1:3,0:0:0:0:
301,70,127465,1,8,0:3:0:0:
301,70,127679,2,0,P|363:53|425:70,1,130,2|2,1:3|1:3,0:0:0:0:
451,137,128322,1,8,0:3:0:0:
451,137,128537,2,0,B|470:199|470:199|451:261,1,130,2|2,1:3|1:3,0:0:0:0:
430,329,129179,1,8,0:3:0:0:
323,242,129608,5,2,1:3:0:0:
323,242,129822,2,0,B|261:224|261:224|197:241,1,130,0|0,1:0|1:0,0:0:0:0:
129,262,130465,1,0,1:0:0:0:
19,179,130894,1,8,1:3:0:0:
19,179,131108,2,0,B|1:117|1:117|18:53,1,130,2|2,1:3|1:3,0:0:0:0:
154,95,131965,2,0,P|223:97|284:83,2,130,2|2|0,1:0|1:3|1:0,0:0:0:0:
90,128,133037,6,0,B|73:192|73:192|91:254,1,130,6|8,0:3|0:3,0:0:0:0:
225,300,133894,2,0,P|237:333|245:369,2,65,0|2|8,1:0|1:0|1:3,0:0:0:0:
290,271,134537,2,0,P|351:257|421:275,1,130,2|2,1:0|0:3,0:0:0:0:
485,248,135179,1,8,1:3:0:0:
485,248,135394,2,0,P|501:185|487:122,1,130,2|2,1:0|1:3,0:0:0:0:
364,58,136251,6,0,B|341:119|341:119|366:179,1,130,0|0,1:0|0:0,0:0:0:0:
294,170,136894,1,8,1:3:0:0:
294,170,137108,2,0,P|228:161|158:178,1,130,0|2,1:0|1:0,0:0:0:0:
47,253,137965,2,0,B|30:316|30:316|48:379,2,130,6|2|2,1:3|0:3|0:0,0:0:0:0:
110,286,139037,2,0,P|146:298|181:292,1,65,0|8,1:0|1:2,0:0:0:0:
243,273,139465,1,8,0:3:0:0:
243,273,139679,1,8,0:3:0:0:
283,213,139894,6,0,P|289:181|282:149,1,65,6|0,0:3|1:0,0:0:0:0:
209,26,140537,2,0,L|80:37,1,130,0|2,1:0|1:3,0:0:0:0:
15,62,141179,1,8,0:3:0:0:
15,62,141394,2,0,P|0:118|15:189,1,130,2|2,1:3|1:3,0:0:0:0:
80,214,142037,1,8,0:3:0:0:
80,214,142251,2,0,P|94:276|79:339,1,130,2|2,1:3|1:3,0:0:0:0:
147,360,142894,1,8,0:3:0:0:
273,289,143322,5,2,1:0:0:0:
273,289,143537,2,0,B|416:283,1,130,0|0,1:0|1:0,0:0:0:0:
448,228,144179,1,0,1:0:0:0:
331,152,144608,1,8,1:3:0:0:
331,152,144822,2,0,B|318:88|318:88|333:26,1,130,2|2,1:0|1:0,0:0:0:0:
217,109,145679,2,0,B|232:171|232:171|219:235,2,130,2|2|0,1:0|1:0|1:0,0:0:0:0:
157,68,146751,6,0,P|100:48|130:171,1,260,6|0,0:3|0:0,0:0:0:0:
203,294,148037,1,8,1:3:0:0:
203,294,148251,2,0,B|269:319|336:306,1,130,2|2,1:3|1:3,0:0:0:0:
394,178,149108,2,0,B|328:203|261:190,2,130,2|2|0,1:0|1:3|1:0,0:0:0:0:
418,110,150179,5,6,0:3:0:0:
501,226,150608,2,0,B|509:258|509:258|499:304,1,65,8|0,1:3|1:0,0:0:0:0:
461,348,151037,2,0,B|430:355|430:355|398:347,1,65,0|2,1:0|1:3,0:0:0:0:
367,288,151465,1,8,1:3:0:0:
367,288,151679,1,2,1:3:0:0:
186,180,152322,1,8,1:3:0:0:
186,180,152537,2,0,P|142:177|61:206,2,130,2|8|4,1:3|1:3|1:3,0:0:0:0:
254,203,153608,1,6,0:2:0:0:
500,347,154465,6,0,P|506:317|496:277,1,65,8|0,1:1|1:0,0:0:0:0:
458,224,154894,2,0,P|452:193|458:161,1,65,2|0,1:0|1:0,0:0:0:0:
419,100,155322,2,0,P|349:88|291:101,1,130,2|0,0:3|0:0,0:0:0:0:
167,171,156179,2,0,L|172:242,1,65,8|0,1:3|1:0,0:0:0:0:
234,269,156608,2,0,L|239:338,1,65,0|0,1:3|1:0,0:0:0:0:
302,366,157037,6,0,B|370:382|357:338|428:357,2,130,2|0|8,1:3|0:0|0:1,0:0:0:0:
330,229,158322,1,2,1:3:0:0:
330,229,158537,2,0,P|334:157|325:89,1,130,0|0,1:0|1:0,0:0:0:0:
199,164,159394,2,0,P|137:183|70:178,2,130,2|8|0,1:0|1:3|1:0,0:0:0:0:
228,229,160465,1,6,1:2:0:0:
421,18,161322,6,0,P|452:14|493:23,1,65,8|0,1:1|1:0,0:0:0:0:
508,87,161751,2,0,L|504:155,1,65,2|0,1:1|1:0,0:0:0:0:
459,207,162179,2,0,P|442:262|448:335,1,130,2|0,0:3|0:0,0:0:0:0:
304,323,163037,2,0,L|237:319,1,65,8|0,1:3|1:0,0:0:0:0:
191,265,163465,2,0,L|124:261,1,65,0|0,1:3|1:0,0:0:0:0:
83,203,163894,6,0,B|57:104|118:112|95:12,2,195,6|10|4,0:2|0:3|1:3,0:0:0:0:
203,126,165608,2,0,P|269:110|331:125,1,130,0|0,1:0|1:0,0:0:0:0:
388,162,166251,2,0,P|382:197|389:229,1,65,2|8,1:3|0:3,0:0:0:0:
450,259,166679,2,0,P|456:290|450:322,1,65,8|6,1:3|0:3,0:0:0:0:
390,363,167108,1,2,1:3:0:0:
225,235,167751,5,10,0:1:0:0:
225,235,167965,2,0,L|160:243,1,65,10|10,0:1|0:1,0:0:0:0:
121,302,168394,2,0,L|52:295,1,65,10|10,0:1|0:1,0:0:0:0:
9,349,168822,1,10,0:1:0:0:
412,52,170322,6,0,B|419:84|419:84|415:116,1,65,8|8,0:0|0:0,0:0:0:0:
352,150,170751,6,0,L|221:160,2,130,6|8|0,0:3|0:3|0:0,0:0:0:0:
481,223,172037,1,8,0:3:0:0:
481,223,172251,2,0,B|491:289|491:289|476:353,1,130,2|2,0:0|0:0,0:0:0:0:
409,324,172894,2,0,L|341:332,1,65,8|2,0:3|0:3,0:0:0:0:
279,301,173322,2,0,L|213:308,2,65,0|2|8,1:0|1:3|1:3,0:0:0:0:
341,172,174179,6,0,P|347:138|339:105,1,65,2|0,1:0|1:0,0:0:0:0:
310,43,174608,2,0,B|251:62|251:62|184:51,1,130,8|0,1:2|0:0,0:0:0:0:
103,171,175465,1,8,0:3:0:0:
103,171,175679,2,0,B|161:151|161:151|228:162,1,130,2|2,0:3|0:3,0:0:0:0:
292,195,176322,1,8,0:3:0:0:
292,195,176536,2,0,B|311:253|311:253|290:323,1,130,2|2,0:0|0:0,0:0:0:0:
231,359,177179,2,0,P|195:360|163:350,1,65,8|0,1:3|1:0,0:0:0:0:
128,292,177608,6,0,P|56:287|3:313,2,130,6|8|0,0:3|0:3|0:0,0:0:0:0:
261,233,178894,1,8,0:0:0:0:
261,233,179108,2,0,B|278:168|278:168|257:96,1,130,2|2,0:0|0:0,0:0:0:0:
220,47,179751,1,8,0:0:0:0:
220,47,179965,2,0,P|154:60|87:67,1,130,2|2,0:0|0:0,0:0:0:0:
43,13,180608,1,8,0:0:0:0:
23,154,181037,6,0,L|32:284,1,130,2|8,0:0|1:3,0:0:0:0:
90,325,181679,2,0,P|152:339|213:319,1,130,0|2,1:0|1:3,0:0:0:0:
270,187,182537,2,0,P|207:172|146:192,2,130,6|2|2,1:3|1:3|1:3,0:0:0:0:
306,248,183608,2,0,L|388:260,1,65,0|8,1:0|1:3,0:0:0:0:
421,207,184037,1,8,0:3:0:0:
421,207,184251,1,8,0:3:0:0:
458,146,184465,6,0,B|464:115|464:115|457:80,1,65,6|0,1:3|1:0,0:0:0:0:
322,130,185108,2,0,P|245:138|194:122,1,130,0|2,1:0|1:3,0:0:0:0:
138,164,185751,1,8,0:3:0:0:
138,164,185965,2,0,P|122:226|131:290,1,130,2|2,1:3|1:3,0:0:0:0:
179,343,186608,1,8,0:3:0:0:
179,343,186822,2,0,P|241:359|305:350,1,130,2|2,1:3|1:3,0:0:0:0:
357,301,187465,1,8,0:3:0:0:
433,181,187894,5,2,1:0:0:0:
433,181,188108,2,0,B|451:119|451:119|432:57,1,130,0|0,1:0|1:0,0:0:0:0:
376,11,188751,1,0,1:0:0:0:
268,104,189179,1,8,1:3:0:0:
268,104,189394,2,0,P|207:121|143:106,1,130,2|2,1:3|1:3,0:0:0:0:
37,202,190251,2,0,P|23:264|40:326,2,130,2|2|0,1:0|1:3|1:0,0:0:0:0:
108,197,191322,6,0,B|155:193|155:193|189:208|189:208|235:204,2,130,6|8|0,0:3|0:3|0:0,0:0:0:0:
55,69,192608,1,8,1:3:0:0:
55,69,192822,2,0,L|186:58,1,130,2|2,1:0|1:3,0:0:0:0:
317,111,193679,2,0,L|448:122,2,130,2|2|0,1:0|1:3|1:0,0:0:0:0:
269,164,194751,5,6,0:3:0:0:
177,273,195179,2,0,P|171:304|176:337,1,65,8|0,1:3|1:0,0:0:0:0:
244,356,195608,1,8,0:0:0:0:
244,356,195822,1,8,1:3:0:0:
306,320,196037,2,0,P|337:313|370:318,1,65,4|0,1:3|1:0,0:0:0:0:
429,344,196465,1,6,0:2:0:0:
334,147,197162,6,0,P|336:82|347:9,1,130,0|0,1:0|1:0,0:0:0:0:
238,13,198057,2,0,B|226:92|227:175|227:175|143:122|63:182|63:182|92:240,1,390,0|0,1:0|0:0,0:0:0:0:
256,192,200554,12,0,208213,0:0:0:0:
