osu file format v14

[General]
AudioFilename: audio.mp3
AudioLeadIn: 0
PreviewTime: -1
Countdown: 0
SampleSet: None
StackLeniency: 0.7
Mode: 3
LetterboxInBreaks: 0
SpecialStyle: 0
WidescreenStoryboard: 1

[Editor]
DistanceSpacing: 1
BeatDivisor: 4
GridSize: 16
TimelineZoom: 2.1

[Metadata]
Title:Patora-chan-sama ga kra o furu dake
TitleUnicode:パトラちゃん様がコーラを振るだけ
Artist:Gagame
ArtistUnicode:ががめ
Creator:Verald
Version:Easy
Source:
Tags:
BeatmapID:2133076
BeatmapSetID:1018775

[Difficulty]
HPDrainRate:6
CircleSize:4
OverallDifficulty:6
ApproachRate:5
SliderMultiplier:1.4
SliderTickRate:1

[Events]
//Background and Video events
0,0,"EV2ACxbL8MZFqWm4Ja7ndwRb.jpeg",0,0
//Break Periods
//Storyboard Layer 0 (Background)
//Storyboard Layer 1 (Fail)
//Storyboard Layer 2 (Pass)
//Storyboard Layer 3 (Foreground)
//Storyboard Layer 4 (Overlay)
//Storyboard Sound Samples

[TimingPoints]
745,272.687609075044,4,1,0,35,1,0

[HitObjects]
448,192,5108,5,0,0:0:0:0:
192,192,5244,1,0,0:0:0:0:
64,192,5380,1,0,0:0:0:0:
448,192,5517,1,0,0:0:0:0:
192,192,5653,1,0,0:0:0:0:
448,192,5789,1,0,0:0:0:0:
320,192,5926,1,0,0:0:0:0:
192,192,6062,1,0,0:0:0:0:
64,192,6198,1,0,0:0:0:0:
448,192,6335,1,0,0:0:0:0:
320,192,6471,1,0,0:0:0:0:
64,192,6607,1,0,0:0:0:0:
320,192,6744,1,0,0:0:0:0:
448,192,6880,1,0,0:0:0:0:
192,192,7016,1,0,0:0:0:0:
64,192,7153,1,0,0:0:0:0:
320,192,7289,1,0,0:0:0:0:
448,192,7425,1,0,0:0:0:0:
192,192,7562,1,0,0:0:0:0:
448,192,7698,1,0,0:0:0:0:
64,192,7834,1,0,0:0:0:0:
320,192,7971,1,0,0:0:0:0:
448,192,8107,1,0,0:0:0:0:
64,192,8243,1,0,0:0:0:0:
320,192,8380,1,0,0:0:0:0:
448,192,8516,1,0,0:0:0:0:
448,192,8652,1,0,0:0:0:0:
320,192,8789,1,0,0:0:0:0:
320,192,8925,1,0,0:0:0:0:
192,192,9061,1,0,0:0:0:0:
192,192,9198,1,0,0:0:0:0:
64,192,9334,1,0,0:0:0:0:
64,192,9471,1,0,0:0:0:0:
320,192,9607,1,0,0:0:0:0:
448,192,9743,1,0,0:0:0:0:
64,192,9880,1,0,0:0:0:0:
320,192,10016,1,0,0:0:0:0:
448,192,10152,1,0,0:0:0:0:
192,192,10289,1,0,0:0:0:0:
64,192,10425,1,0,0:0:0:0:
448,192,10561,1,0,0:0:0:0:
192,192,10698,1,0,0:0:0:0:
64,192,10834,1,0,0:0:0:0:
448,192,10970,1,0,0:0:0:0:
192,192,11107,1,0,0:0:0:0:
320,192,11243,1,0,0:0:0:0:
448,192,11379,1,0,0:0:0:0:
64,192,11516,1,0,0:0:0:0:
320,192,11652,1,0,0:0:0:0:
448,192,11788,1,0,0:0:0:0:
192,192,11925,1,0,0:0:0:0:
448,192,12061,1,0,0:0:0:0:
64,192,12197,1,0,0:0:0:0:
320,192,12334,1,0,0:0:0:0:
448,192,12470,1,0,0:0:0:0:
192,192,12606,1,0,0:0:0:0:
64,192,12743,1,0,0:0:0:0:
320,192,12879,1,0,0:0:0:0:
320,192,13015,1,0,0:0:0:0:
192,192,13152,1,0,0:0:0:0:
192,192,13288,1,0,0:0:0:0:
320,192,13424,1,0,0:0:0:0:
320,192,13561,1,0,0:0:0:0:
192,192,13697,1,0,0:0:0:0:
192,192,13834,1,0,0:0:0:0:
448,192,13970,1,0,0:0:0:0:
64,192,14106,1,0,0:0:0:0:
320,192,14243,1,0,0:0:0:0:
448,192,14379,1,0,0:0:0:0:
192,192,14515,1,0,0:0:0:0:
320,192,14652,1,0,0:0:0:0:
64,192,14788,1,0,0:0:0:0:
192,192,14924,1,0,0:0:0:0:
320,192,15061,1,0,0:0:0:0:
448,192,15197,1,0,0:0:0:0:
64,192,15333,1,0,0:0:0:0:
448,192,15470,1,0,0:0:0:0:
320,192,15606,1,0,0:0:0:0:
64,192,15742,1,0,0:0:0:0:
448,192,15879,1,0,0:0:0:0:
192,192,16015,1,0,0:0:0:0:
320,192,16151,1,0,0:0:0:0:
448,192,16288,1,0,0:0:0:0:
64,192,16424,1,0,0:0:0:0:
320,192,16560,1,0,0:0:0:0:
448,192,16697,1,0,0:0:0:0:
192,192,16833,1,0,0:0:0:0:
448,192,16969,1,0,0:0:0:0:
64,192,17106,1,0,0:0:0:0:
448,192,17242,1,0,0:0:0:0:
448,192,17378,1,0,0:0:0:0:
64,192,17515,1,0,0:0:0:0:
64,192,17651,1,0,0:0:0:0:
320,192,17787,1,0,0:0:0:0:
320,192,17924,1,0,0:0:0:0:
192,192,18060,1,0,0:0:0:0:
192,192,18197,1,0,0:0:0:0:
448,192,18333,1,0,0:0:0:0:
64,192,18469,1,0,0:0:0:0:
320,192,18606,1,0,0:0:0:0:
448,192,18742,1,0,0:0:0:0:
192,192,18878,1,0,0:0:0:0:
448,192,19015,1,0,0:0:0:0:
64,192,19151,1,0,0:0:0:0:
320,192,19287,1,0,0:0:0:0:
448,192,19424,1,0,0:0:0:0:
64,192,19560,1,0,0:0:0:0:
320,192,19696,1,0,0:0:0:0:
192,192,19833,1,0,0:0:0:0:
448,192,19969,1,0,0:0:0:0:
64,192,20105,1,0,0:0:0:0:
192,192,20242,1,0,0:0:0:0:
320,192,20378,1,0,0:0:0:0:
448,192,20514,1,0,0:0:0:0:
192,192,20651,1,0,0:0:0:0:
64,192,20787,1,0,0:0:0:0:
448,192,20923,1,0,0:0:0:0:
192,192,21060,1,0,0:0:0:0:
320,192,21196,1,0,0:0:0:0:
64,192,21332,1,0,0:0:0:0:
448,192,21469,1,0,0:0:0:0:
192,192,21605,1,0,0:0:0:0:
192,192,21741,1,0,0:0:0:0:
320,192,21878,1,0,0:0:0:0:
320,192,22014,1,0,0:0:0:0:
448,192,22150,1,0,0:0:0:0:
448,192,22287,1,0,0:0:0:0:
64,192,22423,1,0,0:0:0:0:
64,192,22560,1,0,0:0:0:0:
448,192,22696,1,0,0:0:0:0:
192,192,22696,1,0,0:0:0:0:
64,192,22969,1,0,0:0:0:0:
320,192,22969,1,0,0:0:0:0:
192,192,23241,1,0,0:0:0:0:
320,192,23241,1,0,0:0:0:0:
448,192,23514,1,0,0:0:0:0:
320,192,23514,1,0,0:0:0:0:
64,192,23787,1,0,0:0:0:0:
192,192,23787,1,0,0:0:0:0:
448,192,24059,1,0,0:0:0:0:
192,192,24059,1,0,0:0:0:0:
64,192,24332,1,0,0:0:0:0:
192,192,24332,1,0,0:0:0:0:
192,192,24605,1,0,0:0:0:0:
448,192,24605,1,0,0:0:0:0:
320,192,24877,1,0,0:0:0:0:
192,192,24877,1,0,0:0:0:0:
64,192,25150,1,0,0:0:0:0:
448,192,25150,1,0,0:0:0:0:
192,192,25286,1,0,0:0:0:0:
320,192,25286,1,0,0:0:0:0:
192,192,25559,1,0,0:0:0:0:
320,192,25559,1,0,0:0:0:0:
448,192,25832,1,0,0:0:0:0:
64,192,25832,1,0,0:0:0:0:
448,192,26104,1,0,0:0:0:0:
320,192,26104,1,0,0:0:0:0:
192,192,26241,1,0,0:0:0:0:
64,192,26241,1,0,0:0:0:0:
64,192,26923,1,0,0:0:0:0:
448,192,27059,1,0,0:0:0:0:
320,192,27195,1,0,0:0:0:0:
192,192,27332,1,0,0:0:0:0:
448,192,27332,1,0,0:0:0:0:
64,192,27604,1,0,0:0:0:0:
448,192,27741,1,0,0:0:0:0:
192,192,27877,1,0,0:0:0:0:
320,192,27877,1,0,0:0:0:0:
448,192,28150,1,0,0:0:0:0:
64,192,28286,1,0,0:0:0:0:
320,192,28422,1,0,0:0:0:0:
448,192,28422,1,0,0:0:0:0:
192,192,28695,1,0,0:0:0:0:
64,192,28831,1,0,0:0:0:0:
448,192,28968,1,0,0:0:0:0:
192,192,28968,1,0,0:0:0:0:
320,192,29240,1,0,0:0:0:0:
64,192,29377,1,0,0:0:0:0:
448,192,29513,1,0,0:0:0:0:
320,192,29513,1,0,0:0:0:0:
320,192,29786,1,0,0:0:0:0:
192,192,29922,1,0,0:0:0:0:
64,192,30058,1,0,0:0:0:0:
448,192,30058,1,0,0:0:0:0:
320,192,30331,1,0,0:0:0:0:
192,192,30467,1,0,0:0:0:0:
64,192,30604,1,0,0:0:0:0:
448,192,30740,1,0,0:0:0:0:
192,192,30876,1,0,0:0:0:0:
320,192,30876,1,0,0:0:0:0:
64,192,31286,1,0,0:0:0:0:
448,192,31422,1,0,0:0:0:0:
192,192,31558,1,0,0:0:0:0:
320,192,31695,1,0,0:0:0:0:
64,192,31695,1,0,0:0:0:0:
64,192,31967,1,0,0:0:0:0:
448,192,32104,1,0,0:0:0:0:
192,192,32240,1,0,0:0:0:0:
320,192,32240,1,0,0:0:0:0:
320,192,32513,1,0,0:0:0:0:
64,192,32649,1,0,0:0:0:0:
448,192,32785,1,0,0:0:0:0:
192,192,32785,1,0,0:0:0:0:
320,192,33058,1,0,0:0:0:0:
192,192,33194,1,0,0:0:0:0:
64,192,33331,1,0,0:0:0:0:
448,192,33331,1,0,0:0:0:0:
192,192,33603,1,0,0:0:0:0:
320,192,33740,1,0,0:0:0:0:
448,192,33876,1,0,0:0:0:0:
192,192,33876,1,0,0:0:0:0:
64,192,34149,1,0,0:0:0:0:
320,192,34285,1,0,0:0:0:0:
192,192,34421,1,0,0:0:0:0:
448,192,34421,1,0,0:0:0:0:
320,192,34694,1,0,0:0:0:0:
448,192,34830,1,0,0:0:0:0:
64,192,34967,1,0,0:0:0:0:
320,192,35103,1,0,0:0:0:0:
448,192,35239,1,0,0:0:0:0:
64,192,35239,1,0,0:0:0:0:
