osu file format v14

[General]
AudioFilename: audio.mp3
AudioLeadIn: 0
PreviewTime: -1
Countdown: 1
SampleSet: Normal
StackLeniency: 0.7
Mode: 0
LetterboxInBreaks: 0
WidescreenStoryboard: 0

[Editor]
Bookmarks: 15726,27154
DistanceSpacing: 1
BeatDivisor: 1
GridSize: 16
TimelineZoom: 1.7

[Metadata]
Title:Sweet dreams
TitleUnicode:Sweet dreams
Artist:GachiMuchi
ArtistUnicode:GachiMuchi
Creator:Rubiha
Version:Insane
Source:
Tags:
BeatmapID:1803727
BeatmapSetID:862291

[Difficulty]
HPDrainRate:7
CircleSize:4.2
OverallDifficulty:6
ApproachRate:7
SliderMultiplier:3
SliderTickRate:1

[Events]
//Background and Video events
0,0,"wall5.png",0,0
//Break Periods
//Storyboard Layer 0 (Background)
//Storyboard Layer 1 (Fail)
//Storyboard Layer 2 (Pass)
//Storyboard Layer 3 (Foreground)
//Storyboard Sound Samples

[TimingPoints]
506,476.190476190476,4,1,0,40,1,0

[HitObjects]
256,80,506,6,0,P|272:160|256:240,1,150,10|0,0:0|0:0,0:0:0:0:
112,208,982,2,0,P|105:254|112:288,1,75,4|0,0:0|0:0,0:0:0:0:
192,288,1220,2,0,P|199:334|192:368,1,75
304,288,1458,2,0,P|299:250|306:214,1,75,4|0,0:0|0:0,0:0:0:0:
388,208,1696,2,0,P|392:170|385:134,1,75
208,160,1934,2,0,P|203:122|186:89,1,75,4|0,0:0|0:0,0:0:0:0:
112,112,2172,2,0,P|97:77|73:49,1,75
16,224,2410,2,0,P|0:304|16:384,1,150,10|0,0:0|0:0,0:0:0:0:
208,336,2886,2,0,L|336:336,1,75,4|0,0:0|0:0,0:0:0:0:
352,256,3125,2,0,L|224:256,1,75
432,368,3363,2,0,L|432:293,1,75,4|0,0:0|0:0,0:0:0:0:
496,176,3601,2,0,L|496:251,1,75
352,331,3839,2,0,L|352:256,1,75,4|0,0:0|0:0,0:0:0:0:
416,96,4077,2,0,L|416:171,1,75
277,256,4315,2,0,L|277:96,1,150,10|0,0:0|0:0,0:0:0:0:
144,160,4791,2,0,P|116:197|87:216,1,75,4|0,2:0|2:0,2:0:0:0:
64,144,5029,2,0,P|26:171|7:200,1,75,0|0,2:0|2:0,2:0:0:0:
96,320,5267,2,0,P|123:282|152:263,1,75,4|0,2:0|2:0,2:0:0:0:
208,368,5505,2,0,P|251:351|277:328,1,75,0|0,2:0|2:0,2:0:0:0:
416,352,5744,2,0,P|388:314|359:295,1,75,4|0,2:0|2:0,2:0:0:0:
512,256,5982,2,0,P|468:239|442:216,1,75,0|0,2:0|2:0,2:0:0:0:
304,128,6220,2,0,P|241:87|196:27,1,150,10|0,0:0|0:0,0:0:0:0:
368,48,6696,2,0,L|480:32,1,75,4|0,0:0|0:0,0:0:0:0:
400,128,6934,2,0,P|434:141|472:143,1,75,0|0,2:0|2:0,2:0:0:0:
320,224,7172,2,0,L|215:267,1,75,4|0,0:0|0:0,0:0:0:0:
333,309,7410,2,0,P|310:338|279:359,1,75,0|0,2:0|2:0,2:0:0:0:
112,368,7648,2,0,P|134:338|165:317,1,75,4|0,2:0|2:0,2:0:0:0:
352,224,7886,2,0,L|247:267,1,75
80,160,8125,2,0,P|154:153|226:172,1,150,10|0,0:0|0:0,0:0:0:0:
352,112,8601,2,0,P|315:105|278:110,1,75,4|0,2:0|2:0,2:0:0:0:
128,80,8839,2,0,P|164:73|201:78,1,75,0|0,2:0|2:0,2:0:0:0:
368,80,9077,2,0,P|331:73|294:78,1,75,4|0,2:0|2:0,2:0:0:0:
112,48,9315,2,0,P|148:41|185:46,1,75,0|0,2:0|2:0,2:0:0:0:
384,48,9553,2,0,P|347:41|310:46,1,75,4|0,2:0|2:0,2:0:0:0:
96,16,9791,2,0,P|132:9|169:14,1,75,0|0,2:0|2:0,2:0:0:0:
320,176,10029,2,0,P|245:182|173:163,1,150,10|0,0:0|0:0,0:0:0:0:
160,272,10505,2,0,P|196:278|233:273,1,75,4|0,2:0|2:0,2:0:0:0:
384,304,10743,2,0,P|347:310|310:305,1,75,0|0,2:0|2:0,2:0:0:0:
144,304,10981,2,0,P|180:310|217:305,1,75,4|0,2:0|2:0,2:0:0:0:
400,336,11219,2,0,P|363:342|326:337,1,75,0|0,2:0|2:0,2:0:0:0:
128,336,11457,2,0,P|164:342|201:337,1,75,4|0,2:0|2:0,2:0:0:0:
416,368,11695,2,0,P|379:374|342:369,1,75,0|0,2:0|2:0,2:0:0:0:
176,240,11934,2,0,L|176:80,1,150,10|0,0:0|0:0,0:0:0:0:
272,272,12410,2,0,L|272:192,1,75,4|0,0:0|0:0,0:0:0:0:
80,208,12648,2,0,L|80:128,1,75
224,112,12886,2,0,L|304:112,1,75,4|0,0:0|0:0,0:0:0:0:
416,208,13125,2,0,L|496:208,1,75
176,192,13363,2,0,L|255:204,1,75,4|0,0:0|0:0,0:0:0:0:
349,316,13602,2,0,L|428:328,1,75
160,336,13839,2,0,L|0:349,1,150,10|0,0:0|0:0,0:0:0:0:
32,160,14315,2,0,P|23:196|26:233,1,75,4|0,2:0|2:0,2:0:0:0:
176,304,14553,2,0,L|256:304,1,75
64,112,14791,2,0,P|52:147|51:184,1,75,4|0,2:0|2:0,2:0:0:0:
192,256,15029,2,0,L|278:287,1,75
160,48,15267,2,0,P|171:83|172:120,1,75,4|0,2:0|2:0,2:0:0:0:
320,144,15505,2,0,L|233:175,1,75
352,240,15744,2,0,P|427:246|499:227,1,150,4|0,0:0|0:0,0:0:0:0:
224,352,16220,2,0,B|159:331|159:331|174:332|174:332|64:352,1,150,10|0,0:0|0:0,0:0:0:0:
160,192,16696,2,0,P|85:198|13:179,1,150,4|0,0:0|0:0,0:0:0:0:
336,128,17172,2,0,B|401:149|401:149|386:148|386:148|496:128,1,150,10|0,0:0|0:0,0:0:0:0:
336,288,17648,2,0,P|406:313|481:313,1,150,4|0,0:0|0:0,0:0:0:0:
144,320,18125,2,0,B|86:282|86:282|100:287|100:287|-10:278,1,150,10|0,0:0|0:0,0:0:0:0:
192,112,18601,2,0,P|266:111|336:86,1,150,4|0,0:0|0:0,0:0:0:0:
176,352,19077,2,0,B|130:301|130:301|142:309|142:309|37:272,1,150,10|0,0:0|0:0,0:0:0:0:
224,144,19553,2,0,P|296:162|370:156,1,150,4|0,0:0|0:0,0:0:0:0:
336,352,20029,2,0,B|381:301|381:301|369:309|369:309|474:272,1,150,10|0,0:0|0:0,0:0:0:0:
288,144,20505,2,0,P|215:162|141:156,1,150,4|0,0:0|0:0,0:0:0:0:
368,320,20982,2,0,B|425:282|425:282|411:287|411:287|522:278,1,150,10|0,0:0|0:0,0:0:0:0:
320,112,21458,2,0,P|245:111|175:86,1,150,4|0,0:0|0:0,0:0:0:0:
192,320,21934,2,8,B|177:253|177:253|184:266|184:266|112:181,1,150,2|8,0:0|0:0,0:0:0:0:
400,144,22410,2,0,P|347:90|315:23,1,150,4|0,0:0|0:0,0:0:0:0:
144,304,22886,2,8,B|147:235|147:235|150:250|150:250|102:149,1,150,2|8,0:0|0:0,0:0:0:0:
336,160,23363,2,0,P|299:95|285:21,1,150,4|0,0:0|0:0,0:0:0:0:
96,288,23839,2,8,B|117:223|117:223|115:237|115:237|96:128,1,150,2|8,0:0|0:0,0:0:0:0:
272,176,24315,2,0,P|253:103|259:29,1,150,4|0,0:0|0:0,0:0:0:0:
384,112,24791,2,8,B|363:176|363:176|364:162|364:162|383:271,1,150,2|8,0:0|0:0,0:0:0:0:
208,224,25267,2,0,P|226:296|220:370,1,150,4|0,0:0|0:0,0:0:0:0:
64,160,25744,2,8,B|75:94|75:94|76:109|76:109|55:44,1,150,10|8,0:0|0:0,0:0:0:0:
224,80,26220,2,0,P|205:152|211:226,1,150,4|0,0:0|0:0,0:0:0:0:
384,240,26696,2,8,B|366:305|366:305|373:292|373:292|327:341,1,150,10|8,0:0|0:0,0:0:0:0:
32,336,27172,2,0,L|128:208,1,150,10|0,0:0|0:0,0:0:0:0:
208,256,27648,2,0,L|272:208,1,75,4|0,0:0|0:0,0:0:0:0:
432,352,27886,2,0,L|506:322,1,75
208,368,28125,2,0,L|143:319,1,75,4|0,0:0|0:0,0:0:0:0:
352,336,28363,2,0,L|288:287,1,75
64,208,28601,2,0,L|128:256,1,75,4|0,0:0|0:0,0:0:0:0:
208,160,28839,2,0,L|272:208,1,75
416,224,29077,2,0,L|496:80,1,150,10|0,0:0|0:0,0:0:0:0:
336,96,29553,2,0,L|272:16,1,75,4|0,0:0|0:0,0:0:0:0:
144,224,29791,2,0,L|48:176,1,75
368,80,30029,2,0,L|288:0,1,75,4|0,0:0|0:0,0:0:0:0:
176,208,30267,2,0,L|64:160,1,75
400,64,30505,2,0,L|304:-16,1,75,4|0,0:0|0:0,0:0:0:0:
112,240,30744,2,0,L|182:266,1,75
464,368,30982,2,0,P|482:295|476:221,1,150,10|0,0:0|0:0,0:0:0:0:
352,160,31458,2,0,P|343:196|346:233,1,75,4|0,2:0|2:0,2:0:0:0:
256,160,31696,2,0,P|247:196|250:233,1,75,0|0,2:0|2:0,2:0:0:0:
48,96,31934,2,0,P|56:132|53:169,1,75,4|0,2:0|2:0,2:0:0:0:
144,96,32172,2,0,P|152:132|149:169,1,75,0|0,2:0|2:0,2:0:0:0:
304,368,32410,2,0,P|306:330|298:294,1,75,4|0,2:0|2:0,2:0:0:0:
208,368,32648,2,0,P|210:330|202:294,1,75,0|0,2:0|2:0,2:0:0:0:
16,368,32886,2,0,P|-2:295|3:221,1,150,10|0,0:0|0:0,0:0:0:0:
224,128,33363,2,0,P|215:164|218:201,1,75,4|0,2:0|2:0,2:0:0:0:
320,176,33601,2,0,P|328:212|325:249,1,75,0|0,2:0|2:0,2:0:0:0:
112,32,33839,2,0,P|120:68|117:105,1,75,4|0,2:0|2:0,2:0:0:0:
16,80,34077,2,0,P|7:116|10:153,1,75,0|0,2:0|2:0,2:0:0:0:
116,323,34315,2,0,P|107:286|110:249,1,75,4|0,2:0|2:0,2:0:0:0:
212,275,34553,2,0,P|220:238|217:201,1,75,0|0,2:0|2:0,2:0:0:0:
