osu file format v14

[General]
AudioFilename: audio.mp3
AudioLeadIn: 0
PreviewTime: 92755
Countdown: 1
SampleSet: Normal
StackLeniency: 0.7
Mode: 0
LetterboxInBreaks: 0
WidescreenStoryboard: 1

[Editor]
DistanceSpacing: 0.8
BeatDivisor: 4
GridSize: 4
TimelineZoom: 3.099999

[Metadata]
Title:Guong
TitleUnicode:Gương
Artist:Gac Mai
ArtistUnicode:Gác Mái
Creator:LMT
Version:PandaHero's Insane
Source:
Tags:alternative rock vietnamese indie pop đỏ tươi PandaHero
BeatmapID:1740195
BeatmapSetID:827156

[Difficulty]
HPDrainRate:6
CircleSize:4
OverallDifficulty:7
ApproachRate:8.2
SliderMultiplier:3.1
SliderTickRate:1

[Events]
//Background and Video events
0,0,"927873.jpg",0,0
//Break Periods
2,124479,136918
2,184279,190817
//Storyboard Layer 0 (Background)
//Storyboard Layer 1 (Fail)
//Storyboard Layer 2 (Pass)
//Storyboard Layer 3 (Foreground)
//Storyboard Sound Samples

[TimingPoints]
519,952.380952380952,4,2,0,30,1,0
519,-142.857142857143,4,2,1,30,0,0
1947,909.090909090909,4,2,0,30,1,0
1947,-142.857142857143,4,2,0,30,0,0
2401,944.88188976378,4,2,0,30,1,0
2401,-142.857142857143,4,2,0,30,0,0
3345,923.076923076923,4,2,0,30,1,0
3345,-142.857142857143,4,2,0,30,0,0
4267,930.232558139535,4,2,0,30,1,0
4267,-142.857142857143,4,2,0,30,0,0
4732,903.614457831325,4,2,0,30,1,0
4732,-142.857142857143,4,2,0,30,0,0
4957,967.741935483871,4,2,0,30,1,0
4957,-142.857142857143,4,2,0,30,0,0
5198,952.380952380952,4,2,0,30,1,0
5198,-142.857142857143,4,2,0,30,0,0
5674,895.522388059701,4,2,0,30,1,0
5674,-142.857142857143,4,2,0,30,0,0
5897,952.380952380952,4,2,0,30,1,0
5897,-142.857142857143,4,2,0,30,0,0
6135,934.579439252336,4,2,0,30,1,0
6135,-142.857142857143,4,2,0,30,0,0
6835,1000,4,2,0,30,1,0
6835,-142.857142857143,4,2,0,30,0,0
7085,952.380952380952,4,2,0,30,1,0
7085,-142.857142857143,4,2,0,30,0,0
7561,909.090909090909,4,2,0,30,1,0
7561,-142.857142857143,4,2,0,30,0,0
8015,952.380952380952,4,2,0,30,1,0
8015,-142.857142857143,4,2,0,30,0,0
8729,895.522388059701,4,2,0,30,1,0
8729,-142.857142857143,4,2,0,30,0,0
8952,937.5,4,2,0,30,1,0
8952,-142.857142857143,4,2,0,30,0,0
9420,967.741935483871,4,2,0,30,1,0
9420,-142.857142857143,4,2,0,30,0,0
9661,923.076923076923,4,2,0,30,1,0
9661,-142.857142857143,4,2,0,30,0,0
9891,937.5,4,2,0,30,1,0
9891,-142.857142857143,4,2,0,30,0,0
10594,909.090909090909,4,2,0,30,1,0
10594,-142.857142857143,4,2,0,30,0,0
10821,952.380952380952,4,2,0,30,1,0
10821,-142.857142857143,4,2,0,30,0,0
11769,1000,4,2,1,30,1,0
11769,-166.666666666667,4,2,1,30,0,0
12769,1052.63157894737,4,2,1,30,1,0
12769,-166.666666666667,4,2,1,30,0,0
13821,1153.84615384615,4,2,1,30,1,0
13821,-166.666666666667,4,2,1,30,0,0
14974,1111.11111111111,4,2,1,25,1,0
14974,-166.666666666667,4,2,1,25,0,0
15807,1153.84615384615,4,2,1,20,1,0
18147,1132.07547169811,4,2,1,25,1,0
18147,-166.666666666667,4,2,1,25,0,0
19279,937.5,4,2,1,40,1,0
34279,-125,4,2,1,45,0,0
64279,-100,4,2,1,45,0,0
94279,-76.9230769230769,4,1,1,60,0,0
122638,-76.9230769230769,4,1,1,30,0,0
137638,-142.857142857143,4,2,1,40,0,0
139279,-100,4,2,1,45,0,0
154279,-76.9230769230769,4,1,1,60,0,0
182404,-100,4,2,1,50,0,0
183341,-100,4,2,1,25,0,0
184279,967.741935483871,4,2,1,35,1,0
184279,-166.666666666667,4,2,1,35,0,0
185729,839.160839160839,4,2,0,30,1,0
185729,-166.666666666667,4,2,1,35,0,0
185938,923.076923076923,4,2,1,35,1,0
185938,-166.666666666667,4,2,1,35,0,0
186168,937.5,4,2,1,35,1,0
186168,-166.666666666667,4,2,1,35,0,0
187105,909.090909090909,4,2,1,35,1,0
187105,-166.666666666667,4,2,1,35,0,0
188018,937.5,4,2,1,35,1,0
188018,-166.666666666667,4,2,1,35,0,0
188721,1000,4,2,1,35,1,0
188721,-166.666666666667,4,2,1,35,0,0
188969,923.076923076923,4,2,0,30,1,0
188969,-166.666666666667,4,2,1,35,0,0
189661,956.175298804781,4,2,0,30,1,0
189661,-166.666666666667,4,2,1,35,0,0
189900,923.076923076923,4,2,1,35,1,0
189900,-166.666666666667,4,2,1,35,0,0
190592,1012.6582278481,4,2,0,30,1,0
190592,-166.666666666667,4,2,1,35,0,0
190845,923.076923076923,4,2,1,35,1,0
190845,-166.666666666667,4,2,1,35,0,0
191537,952.380952380952,4,2,1,35,1,0
191537,-166.666666666667,4,2,1,35,0,0
191775,944.88188976378,4,2,1,35,1,0
191775,-166.666666666667,4,2,1,35,0,0
192483,-164.609053497942,4,2,1,35,0,0
192719,923.076923076923,4,2,1,35,1,0
192719,-166.666666666667,4,2,1,35,0,0
193411,1000,4,2,1,35,1,0
193411,-156.862745098039,4,2,1,35,0,0
193661,923.076923076923,4,2,1,35,1,0
193661,-166.666666666667,4,2,1,35,0,0
194584,1000,4,2,0,30,1,0
194584,-166.666666666667,4,2,1,35,0,0
195084,827.586206896552,4,2,0,30,1,0
195084,-166.666666666667,4,2,1,35,0,0
195290,930.232558139535,4,2,0,30,1,0
195290,-166.666666666667,4,2,1,35,0,0
195521,952.380952380952,4,2,1,35,1,0
195521,-166.666666666667,4,2,1,35,0,0
196235,909.090909090909,4,2,1,35,1,0
196235,-171.673819742489,4,2,1,35,0,0
196462,952.380952380952,4,2,0,30,1,0
196462,-166.666666666667,4,2,1,35,0,0
196938,863.309352517986,4,2,0,30,1,0
196938,-166.666666666667,4,2,1,35,0,0
197154,1000,4,2,1,35,1,0
197154,-166.666666666667,4,2,1,35,0,0
197404,967.741935483871,4,2,1,35,1,0
197404,-166.666666666667,4,2,1,35,0,0
198129,-161.290322580645,4,2,1,35,0,0
198371,923.076923076923,4,2,1,35,1,0
198371,-166.666666666667,4,2,1,35,0,0
199982,937.5,4,2,1,60,1,0
199982,-166.666666666667,4,2,1,45,0,0
200216,937.5,4,3,1,60,1,0
200216,-166.666666666667,4,3,1,60,0,0
201154,937.5,4,1,1,65,1,0
201154,-58.8235294117647,4,1,1,65,0,0
261388,-58.8235294117647,4,2,1,40,0,0
273341,-58.8235294117647,4,2,1,30,0,0

[Colours]
Combo1 : 62,151,151
Combo2 : 129,129,129
Combo3 : 151,106,62
Combo4 : 151,151,62

[HitObjects]
40,152,519,6,0,P|67:167|106:181,1,54.2499983444215,4|0,3:0|0:0,0:0:0:0:
161,153,995,1,0,3:0:0:0:
278,205,1233,2,0,P|286:250|280:324,1,108.499996688843,2|2,3:2|0:0,0:0:0:0:
282,312,1947,1,0,3:0:0:0:
415,366,2174,1,2,3:2:0:0:
415,366,2637,1,0,0:0:0:0:
452,269,2873,1,0,3:0:0:0:
314,220,3109,1,2,3:2:0:0:
314,220,3345,2,0,L|371:202,1,54.2499983444215,0|2,3:0|0:0,0:0:0:0:
219,188,3806,2,0,L|138:208,1,54.2499983444214,0|0,3:0|0:0,0:0:0:0:
39,60,4267,6,0,P|87:64|162:69,1,108.499996688843,4|0,3:0|3:0,0:0:0:0:
236,118,4957,1,2,3:2:0:0:
236,118,5436,1,2,0:0:0:0:
144,155,5674,1,0,3:0:0:0:
155,287,5897,1,2,3:2:0:0:
155,287,6368,1,0,0:0:0:0:
253,306,6602,1,0,3:0:0:0:
288,163,6835,1,2,3:2:0:0:
288,163,7085,2,0,L|274:228,1,54.2499983444214,0|2,3:0|0:0,0:0:0:0:
184,134,7561,2,0,L|201:53,1,54.2499983444214,0|2,3:0|0:0,0:0:0:0:
139,207,8015,6,0,P|84:190|6:173,1,108.499996688843,4|0,3:0|3:0,3:0:0:0:
12,277,8729,1,2,3:2:0:0:
12,277,9186,1,2,0:0:0:0:
85,341,9420,1,0,3:0:0:0:
200,290,9661,1,2,3:2:0:0:
200,290,10125,1,0,0:0:0:0:
294,327,10359,1,0,3:0:0:0:
213,377,10594,1,2,3:2:0:0:
213,377,11059,2,0,L|141:369,2,54.2499983444214,2|2|0,3:2|0:0|0:0,0:0:0:0:
250,243,11769,6,0,L|245:289,2,46.4999985809327,4|0|0,3:0|0:0|0:0,0:0:0:0:
172,178,12519,1,2,0:0:0:0:
172,178,12769,2,0,L|165:234,2,46.4999985809327,0|0|0,3:0|0:0|0:0,0:0:0:0:
279,100,13558,1,2,0:0:0:0:
279,100,13821,2,0,L|294:153,2,46.4999985809327,4|0|0,3:0|0:0|0:0,0:0:0:0:
168,30,14686,1,2,0:0:0:0:
168,30,14974,2,0,L|162:94,1,46.4999985809327,0|2,3:0|0:0,0:0:0:0:
91,104,15529,2,0,L|57:62,1,46.4999985809327,0|2,3:0|0:0,0:0:0:0:
208,334,18147,2,0,P|143:337|53:349,1,139.499995742798,4|0,3:0|0:0,0:0:0:0:
36,351,19279,6,0,B|29:305|29:305|59:175,1,155,4|0,1:0|3:0,0:0:0:0:
86,105,19982,1,4,1:3:0:0:
185,170,20216,2,0,P|212:190|262:218,2,77.5,8|0|2,1:2|3:0|0:0,0:0:0:0:
355,193,20919,2,0,L|346:347,1,155,4|10,1:3|0:0,0:0:0:0:
459,245,21622,1,4,0:3:0:0:
432,330,21856,1,4,1:3:0:0:
351,256,22091,1,8,1:2:0:0:
259,300,22325,1,2,0:0:0:0:
140,139,22560,6,0,L|124:264,1,116.25,2|0,3:0|0:0,0:0:0:0:
93,277,23029,6,0,P|43:253|17:248,2,77.5,4|0|2,1:0|3:0|0:0,0:0:0:0:
166,345,23732,1,4,1:3:0:0:
275,282,23966,2,0,L|388:297,1,77.5,8|0,1:2|3:0,0:0:0:0:
438,330,24435,1,2,0:0:0:0:
482,147,24669,2,0,L|295:130,1,155,4|10,1:3|0:0,0:0:0:0:
85,49,25372,2,0,L|162:37,1,77.5,4|4,1:3|0:3,0:0:0:0:
70,208,25841,1,8,1:2:0:0:
70,208,26075,1,2,0:0:0:0:
156,147,26310,6,0,L|289:168,1,116.25,2|0,3:0|0:0,0:0:0:0:
302,188,26779,6,0,P|278:237|282:366,1,155,4|0,1:0|3:0,0:0:0:0:
177,306,27482,1,4,1:3:0:0:
355,357,27716,2,0,P|384:325|421:297,1,77.5,8|0,1:2|3:0,0:0:0:0:
483,236,28185,1,2,0:0:0:0:
443,92,28419,2,0,P|417:176|356:238,1,155,4|10,1:3|0:0,0:0:0:0:
123,126,29357,1,4,1:3:0:0:
39,177,29591,1,8,1:2:0:0:
121,225,29825,1,2,0:0:0:0:
209,170,30060,6,0,L|204:76,1,77.5,2|2,3:0|0:0,0:0:0:0:
232,24,30529,6,0,L|226:277,1,232.5,4|4,1:0|1:3,0:0:0:0:
202,348,31466,2,0,P|150:323|50:328,1,155,8|2,1:2|0:0,0:0:0:0:
281,364,32169,1,4,1:3:0:0:
324,274,32404,1,4,1:0:0:0:
217,214,32638,5,4,1:3:0:0:
174,124,32872,1,4,1:3:0:0:
267,91,33107,1,2,1:2:0:0:
84,254,33341,1,4,1:2:0:0:
35,142,33575,1,8,1:2:0:0:
35,142,33693,1,8,1:2:0:0:
35,142,33810,1,4,1:3:0:0:
155,98,34044,1,8,1:3:0:0:
206,217,34279,6,0,P|217:274|204:358,1,124,4|2,1:0|0:0,0:0:0:0:
127,355,34982,1,4,1:3:0:0:
287,377,35216,2,0,P|337:354|419:347,1,124,8|2,1:0|3:0,0:0:0:0:
405,346,35919,1,4,1:3:0:0:
475,169,36154,2,0,P|443:166|397:151,2,62,2|8|2,1:2|0:0|0:0,0:0:0:0:
301,75,36857,1,4,1:2:0:0:
301,75,37325,2,0,P|289:145|292:201,1,124,4|0,1:3|0:0,0:0:0:0:
142,251,38029,6,0,L|125:48,1,186,4|4,1:3|1:3,0:0:0:0:
126,65,38966,1,8,1:0:0:0:
97,352,39435,1,2,3:0:0:0:
97,352,39669,2,0,P|183:328|237:341,1,124,4|8,1:3|0:0,0:0:0:0:
215,333,40372,1,2,0:0:0:0:
387,230,40607,2,0,L|330:204,2,62,4|8|0,1:3|0:0|3:0,0:0:0:0:
240,238,41310,2,0,L|160:217,1,62,2|2,3:0|0:0,0:0:0:0:
237,41,41779,6,0,P|190:80|176:139,1,124,4|2,1:0|0:0,0:0:0:0:
20,83,42482,2,0,P|57:49|134:27,1,124,4|0,1:3|3:0,0:0:0:0:
257,75,43185,1,2,3:0:0:0:
292,157,43419,2,0,L|272:309,1,124,4|8,1:3|0:0,0:0:0:0:
275,279,44122,1,2,0:0:0:0:
402,112,44357,1,4,1:3:0:0:
402,112,44591,2,0,L|381:192,1,62,8|0,1:2|3:0,0:0:0:0:
485,201,45060,2,0,L|442:267,1,62,2|2,3:0|0:0,0:0:0:0:
357,373,45529,5,4,1:3:0:0:
303,267,45763,1,0,3:0:0:0:
383,294,45997,1,2,0:0:0:0:
275,352,46232,2,0,P|209:308|105:293,1,186,4|2,1:3|3:0,0:0:0:0:
8,309,47169,1,4,1:3:0:0:
69,375,47404,1,4,1:0:0:0:
70,217,47638,5,4,0:3:0:0:
70,217,47872,1,4,1:3:0:0:
113,134,48107,1,2,1:2:0:0:
268,201,48341,2,0,P|260:235|254:285,1,62,4|0,1:2|3:0,0:0:0:0:
264,274,48693,1,2,3:2:0:0:
274,285,48810,2,0,P|301:273|341:269,1,62,2|2,3:0|0:0,0:0:0:0:
479,182,49279,6,0,P|406:184|343:151,1,124,4|2,1:0|0:0,0:0:0:0:
338,75,49982,1,4,1:3:0:0:
225,185,50216,2,0,L|242:49,1,124,8|2,1:0|3:0,0:0:0:0:
240,61,50919,1,4,1:3:0:0:
128,178,51154,2,0,P|88:176|51:170,2,62,2|8|0,1:2|0:0|3:0,0:0:0:0:
279,329,51857,2,0,P|305:294|303:214,1,124,4|0,1:3|3:0,0:0:0:0:
304,216,52560,1,2,3:0:0:0:
232,170,52794,1,2,0:0:0:0:
461,194,53029,6,0,L|455:344,1,124,4|2,1:3|0:0,0:0:0:0:
316,331,53732,1,4,1:3:0:0:
392,372,53966,1,8,1:0:0:0:
301,124,54435,1,2,3:0:0:0:
301,124,54669,2,0,L|307:266,1,124,4|8,1:3|0:0,0:0:0:0:
306,247,55372,1,2,0:0:0:0:
185,135,55607,2,0,L|191:56,2,62,4|8|0,1:3|0:0|3:0,0:0:0:0:
100,155,56310,2,0,P|60:140|24:135,1,62,2|2,3:0|0:0,0:0:0:0:
122,307,56779,6,0,P|160:281|247:276,1,124,4|2,1:0|0:0,0:0:0:0:
236,273,57482,1,4,1:3:0:0:
345,347,57716,2,0,L|361:205,1,124,8|2,1:0|3:0,0:0:0:0:
321,46,58419,1,4,1:3:0:0:
321,46,58888,1,8,0:0:0:0:
249,80,59122,1,2,0:0:0:0:
191,27,59357,1,4,1:3:0:0:
305,167,59591,6,0,P|324:143|355:117,1,62,8|0,1:2|3:0,0:0:0:0:
213,249,60060,2,0,P|192:224|162:198,1,62,2|0,3:0|3:0,0:0:0:0:
154,202,60411,1,2,3:2:0:0:
140,209,60529,6,0,L|147:354,1,124,4|2,1:3|0:0,0:0:0:0:
145,332,61232,1,4,1:3:0:0:
19,160,61466,2,0,P|50:98|96:49,1,124,8|2,1:0|3:0,0:0:0:0:
221,124,62169,1,4,1:3:0:0:
318,115,62404,1,4,1:0:0:0:
446,225,62638,5,8,0:0:0:0:
415,222,62755,1,8,0:0:0:0:
384,217,62872,1,4,1:3:0:0:
230,235,63107,1,4,1:3:0:0:
202,328,63341,1,8,0:3:0:0:
358,309,63575,1,8,0:3:0:0:
320,166,63810,1,4,1:3:0:0:
291,370,64044,1,4,1:3:0:0:
424,350,64279,6,0,P|459:334|502:324,1,77.5,4|0,1:0|3:0,0:0:0:0:
356,294,64747,1,2,1:2:0:0:
191,347,64982,1,4,1:3:0:0:
121,277,65216,2,0,P|124:225|134:181,1,77.5,8|0,1:0|3:0,0:0:0:0:
14,252,65685,1,2,3:0:0:0:
60,135,65919,1,4,1:3:0:0:
244,202,66154,6,0,P|275:201|323:186,2,77.5,4|4|4,1:2|0:3|0:3,0:0:0:0:
156,70,66857,1,0,3:0:0:0:
228,34,67091,2,0,B|282:53|282:53|400:33,1,155,8|2,1:0|3:0,0:0:0:0:
459,103,67794,1,4,0:0:0:0:
459,103,68029,6,0,L|446:210,1,77.5,4|0,1:0|3:0,0:0:0:0:
363,279,68497,1,2,1:2:0:0:
363,279,68732,1,4,1:3:0:0:
221,151,68966,2,0,L|232:231,1,77.5,8|0,1:0|3:0,0:0:0:0:
231,227,69435,1,2,3:0:0:0:
321,115,69669,6,0,L|313:33,2,77.5,4|2|4,1:3|0:0|0:3,0:0:0:0:
337,220,70372,1,4,1:3:0:0:
271,305,70607,1,0,3:0:0:0:
86,293,70841,2,0,P|68:239|20:138,1,155,8|2,1:0|3:0,0:0:0:0:
26,150,71544,1,4,0:0:0:0:
176,289,71779,6,0,L|172:396,2,77.5,4|0|2,1:0|3:0|0:0,0:0:0:0:
312,178,72482,1,4,1:3:0:0:
312,178,72716,1,8,1:0:0:0:
355,261,72950,2,0,P|384:236|437:218,1,77.5,2|0,1:2|3:0,0:0:0:0:
230,214,73419,2,0,P|201:189|148:171,1,77.5,4|0,1:3|3:0,0:0:0:0:
267,297,73888,5,4,1:3:0:0:
337,362,74122,1,4,1:3:0:0:
267,297,74357,1,2,0:0:0:0:
317,207,74591,2,0,P|359:218|462:179,1,155,8|2,1:0|3:0,0:0:0:0:
460,180,75294,1,4,0:0:0:0:
245,55,75529,6,0,L|248:148,2,77.5,4|0|2,1:0|3:0|0:0,0:0:0:0:
65,33,76232,1,4,1:3:0:0:
13,116,76466,1,8,1:0:0:0:
205,125,76700,1,0,3:0:0:0:
159,38,76934,1,2,1:3:0:0:
54,200,77169,1,4,1:3:0:0:
152,203,77403,1,2,0:0:0:0:
109,121,77638,5,4,1:3:0:0:
109,121,77872,1,4,1:3:0:0:
58,204,78107,1,2,1:2:0:0:
58,204,78341,1,8,1:0:0:0:
130,276,78575,1,0,3:0:0:0:
130,276,78693,1,0,3:0:0:0:
130,276,78810,1,2,3:0:0:0:
215,226,79044,1,4,0:0:0:0:
329,276,79279,6,0,P|335:323|331:367,1,77.5,4|0,1:0|3:0,0:0:0:0:
235,359,79747,1,2,0:0:0:0:
437,373,79982,1,4,1:3:0:0:
437,373,80216,2,0,L|450:279,1,77.5,8|0,1:0|3:0,0:0:0:0:
356,175,80685,5,2,1:2:0:0:
436,129,80919,1,4,0:3:0:0:
349,86,81154,1,4,1:3:0:0:
169,133,81388,1,2,0:3:0:0:
89,87,81622,1,2,1:2:0:0:
176,44,81857,1,0,3:0:0:0:
278,201,82091,2,0,L|267:391,1,155,8|2,1:0|3:0,0:0:0:0:
269,355,82794,1,4,0:0:0:0:
157,226,83029,6,0,P|113:221|65:221,2,77.5,4|0|2,1:0|3:0|0:0,0:0:0:0:
158,345,83732,1,4,1:3:0:0:
158,345,83966,2,0,P|109:339|64:332,1,77.5,8|0,1:0|3:0,0:0:0:0:
295,344,84435,1,2,3:0:0:0:
359,292,84669,1,4,1:3:0:0:
330,216,84904,1,2,0:0:0:0:
468,353,85138,5,4,1:3:0:0:
468,353,85372,1,4,1:3:0:0:
451,251,85607,1,2,3:0:0:0:
243,324,85841,2,0,P|239:233|260:158,1,155,8|2,1:0|3:0,0:0:0:0:
168,192,86544,1,4,0:0:0:0:
318,95,86779,6,0,P|363:106|417:115,2,77.5,4|0|2,1:0|3:0|0:0,0:0:0:0:
250,49,87482,1,4,1:3:0:0:
250,49,87716,2,0,L|154:59,1,77.5,8|0,1:0|3:0,0:0:0:0:
52,35,88185,1,2,3:0:0:0:
25,182,88419,6,0,P|96:195|134:278,1,155,4|4,1:3|0:3,0:0:0:0:
46,312,89122,1,4,1:3:0:0:
46,312,89357,1,2,3:0:0:0:
206,365,89591,2,0,P|216:308|229:269,1,77.5,8|0,1:0|3:0,0:0:0:0:
295,215,90060,2,0,B|335:211|335:211|421:231,1,116.25,2|0,3:0|0:0,0:0:0:0:
440,250,90529,6,0,L|452:69,1,155,4|2,1:0|0:0,0:0:0:0:
299,126,91232,2,0,P|329:86|358:60,1,77.5,4|8,1:3|0:1,0:0:0:0:
198,107,91700,2,0,P|168:147|139:173,1,77.5,2|2,1:2|3:0,0:0:0:0:
300,352,92169,2,0,P|284:287|215:215,1,155,4|8,1:3|0:1,0:0:0:0:
132,273,92872,5,2,1:2:0:0:
39,251,93107,1,4,1:3:0:0:
164,154,93341,5,8,1:0:0:0:
284,113,93575,1,4,1:3:0:0:
477,302,93810,5,4,1:3:0:0:
317,365,94044,1,4,1:2:0:0:
420,360,94279,6,0,P|388:318|338:277,1,100.749995388031,4|0,1:0|3:0,0:0:0:0:
146,288,94747,1,2,0:2:0:0:
241,312,94982,1,4,0:3:0:0:
116,350,95216,2,0,P|114:290|108:233,1,100.749995388031,8|0,0:0|3:0,0:0:0:0:
0,183,95685,2,0,P|12:112|31:63,1,100.749995388031,2|8,0:2|3:0,0:0:0:0:
40,77,96036,1,8,3:0:0:0:
59,71,96154,1,4,0:3:0:0:
159,159,96388,5,4,0:3:0:0:
245,69,96622,1,2,0:2:0:0:
274,303,96857,1,4,0:3:0:0:
371,213,97091,2,0,P|329:167|297:147,1,100.749995388031,8|0,0:0|3:0,0:0:0:0:
471,112,97560,2,0,P|417:90|361:81,1,100.749995388031,2|2,0:2|3:0,0:0:0:0:
362,66,97911,1,2,3:0:0:0:
348,50,98029,1,4,1:0:0:0:
171,116,98263,6,0,P|105:92|56:89,1,100.749995388031,2|2,0:3|0:2,0:0:0:0:
223,213,98732,1,8,0:3:0:0:
315,266,98966,2,0,P|381:242|430:239,1,100.749995388031,8|0,0:0|3:0,0:0:0:0:
209,320,99435,2,0,P|289:347|337:378,1,100.749995388031,2|8,0:2|3:0,0:0:0:0:
105,342,99904,1,4,0:3:0:0:
44,271,100138,2,0,P|43:215|53:145,2,100.749995388031,8|2|0,0:3|0:2|3:0,0:0:0:0:
169,171,100841,1,8,0:0:0:0:
303,354,101075,5,4,3:0:0:0:
351,283,101310,5,4,3:0:0:0:
433,306,101544,5,4,3:0:0:0:
469,153,101779,5,4,0:2:0:0:
469,153,102013,1,4,0:2:0:0:
247,43,102247,1,2,3:2:0:0:
212,50,102364,1,0,3:0:0:0:
176,55,102482,1,2,3:0:0:0:
141,60,102599,1,2,3:0:0:0:
115,35,102716,6,0,L|130:242,1,201.499990776062,8|2,0:0|0:2,0:0:0:0:
129,235,103419,1,8,0:3:0:0:
77,330,103654,2,0,P|28:261|17:238,1,100.749995388031,4|8,0:2|0:3,0:0:0:0:
220,250,104122,2,0,P|269:319|280:342,1,100.749995388031,2|4,0:2|0:3,0:0:0:0:
436,351,104591,1,8,0:0:0:0:
498,265,104825,1,2,0:3:0:0:
437,173,105060,1,2,0:2:0:0:
320,200,105294,1,2,3:0:0:0:
300,195,105411,1,0,3:0:0:0:
279,192,105529,6,0,P|292:110|397:51,1,201.499990776062,4|2,0:0|0:2,0:0:0:0:
202,26,106232,1,4,0:3:0:0:
152,100,106466,2,0,P|175:168|170:212,1,100.749995388031,8|0,0:0|3:0,0:0:0:0:
57,177,106935,1,2,0:2:0:0:
202,302,107169,5,4,0:3:0:0:
279,195,107404,1,4,0:2:0:0:
218,321,107638,1,4,0:3:0:0:
262,173,107872,1,2,0:2:0:0:
235,338,108107,1,2,0:3:0:0:
244,153,108341,1,8,0:0:0:0:
253,358,108575,1,2,0:3:0:0:
199,139,108810,5,4,3:0:0:0:
151,155,108927,1,8,3:0:0:0:
112,187,109044,1,4,3:0:0:0:
61,188,109161,1,4,3:0:0:0:
23,153,109279,6,0,P|28:92|55:51,1,100.749995388031,4|0,0:0|3:0,0:0:0:0:
240,77,109747,1,2,0:2:0:0:
165,22,109982,1,4,0:3:0:0:
275,184,110216,2,0,P|256:245|265:307,1,100.749995388031,8|0,0:0|3:0,0:0:0:0:
409,89,110685,2,0,P|448:137|465:194,1,100.749995388031,2|8,0:2|3:0,0:0:0:0:
368,279,111154,1,4,0:3:0:0:
267,291,111388,5,2,0:3:0:0:
267,291,111505,1,0,3:0:0:0:
267,291,111622,1,2,0:2:0:0:
348,358,111857,1,4,0:3:0:0:
443,315,112091,2,0,L|435:158,1,151.124993082047,8|0,0:0|3:0,0:0:0:0:
406,153,112560,2,0,L|410:38,1,100.749995388031,2|8,0:2|0:3,0:0:0:0:
286,168,113029,5,4,0:0:0:0:
189,146,113263,1,0,3:0:0:0:
267,200,113497,1,2,0:2:0:0:
212,114,113732,1,4,0:3:0:0:
144,258,113966,2,0,P|157:352|160:385,1,100.749995388031,8|0,0:0|3:0,0:0:0:0:
37,259,114435,2,0,P|56:210|97:145,1,100.749995388031,2|8,0:2|3:0,0:0:0:0:
246,217,114904,5,4,0:2:0:0:
339,238,115138,1,8,0:3:0:0:
414,164,115372,2,0,P|372:115|338:91,2,100.749995388031,2|4|8,0:2|3:0|0:0,0:0:0:0:
381,331,116075,1,4,0:3:0:0:
278,295,116310,1,2,0:2:0:0:
163,364,116544,1,8,0:3:0:0:
73,322,116779,5,4,0:0:0:0:
73,322,117013,1,4,0:3:0:0:
150,222,117247,1,2,0:2:0:0:
73,322,117482,1,4,0:3:0:0:
150,222,117716,1,8,0:0:0:0:
73,322,117950,1,4,0:3:0:0:
13,169,118185,2,0,P|28:114|70:58,1,100.749995388031,2|8,0:2|3:0,0:0:0:0:
71,74,118536,1,8,3:0:0:0:
91,70,118654,1,4,0:3:0:0:
319,186,118888,5,8,0:3:0:0:
203,224,119122,1,2,0:2:0:0:
315,142,119357,1,8,0:3:0:0:
224,261,119591,2,0,L|200:370,1,100.749995388031,8|0,0:0|3:0,0:0:0:0:
290,111,120060,2,0,L|314:2,1,100.749995388031,2|8,0:2|3:0,0:0:0:0:
291,9,120411,1,8,3:0:0:0:
270,6,120529,1,4,0:0:0:0:
393,185,120763,5,2,0:2:0:0:
475,155,120997,1,2,0:2:0:0:
332,271,121232,1,4,0:3:0:0:
332,271,121349,1,4,3:0:0:0:
332,271,121466,1,8,0:3:0:0:
415,363,121700,1,4,0:3:0:0:
199,228,121935,1,2,0:2:0:0:
139,359,122169,1,4,0:3:0:0:
187,35,122404,1,4,0:0:0:0:
256,192,122638,12,4,124279,0:0:0:0:
243,208,137638,6,0,B|270:196|272:198|314:187,2,54.2499983444214,4|4|0,1:3|0:3|3:0,0:0:0:0:
165,181,138341,2,0,L|94:182,1,54.2499983444214,8|2,1:2|3:0,0:0:0:0:
93,188,138693,1,0,3:0:0:0:
77,198,138810,1,2,3:0:0:0:
19,140,139044,1,4,0:0:0:0:
117,39,139279,6,0,P|195:50|246:121,1,155,4|0,1:0|3:0,0:0:0:0:
241,105,139982,1,4,1:3:0:0:
157,302,140216,2,0,L|145:208,1,77.5,8|0,1:0|3:0,0:0:0:0:
51,297,140685,1,2,0:0:0:0:
263,283,140919,2,0,L|254:371,2,77.5,4|0|10,1:3|0:0|0:0,0:0:0:0:
303,201,141622,2,0,P|354:209|403:211,1,77.5,4|4,0:3|1:3,0:0:0:0:
475,88,142091,1,8,1:2:0:0:
375,63,142325,1,2,0:0:0:0:
380,211,142560,6,0,L|390:355,1,116.25,2|0,3:0|0:0,0:0:0:0:
366,363,143029,6,0,P|308:331|197:330,1,155,4|2,1:0|0:0,0:0:0:0:
220,324,143732,1,4,1:3:0:0:
38,293,143966,2,0,P|71:274|104:234,2,77.5,8|0|2,1:0|3:0|0:0,0:0:0:0:
210,214,144669,2,0,L|223:47,1,155,4|10,1:3|0:0,0:0:0:0:
343,180,145372,2,0,L|322:273,1,77.5,4|4,1:3|0:3,0:0:0:0:
448,246,145841,1,8,1:2:0:0:
509,159,146075,1,2,0:0:0:0:
432,58,146310,6,0,L|288:69,1,116.25,2|0,3:0|0:0,0:0:0:0:
282,87,146779,6,0,P|201:85|157:148,1,155,4|0,1:0|3:0,0:0:0:0:
158,138,147482,1,4,1:3:0:0:
244,321,147716,2,0,P|237:270|214:223,1,77.5,8|0,1:0|3:0,0:0:0:0:
45,195,148185,1,2,0:0:0:0:
45,195,148419,2,0,P|36:256|41:365,1,155,4|10,1:3|0:0,0:0:0:0:
137,361,149122,2,0,P|192:330|226:324,2,77.5,0|4|8,0:0|1:3|1:2,0:0:0:0:
121,236,149825,1,2,0:0:0:0:
195,186,150060,6,0,L|337:194,1,116.25,2|0,3:0|0:0,0:0:0:0:
340,218,150529,6,0,L|332:328,1,77.5,4|0,1:2|0:0,0:0:0:0:
450,162,150997,2,0,L|442:272,1,77.5,2|0,1:3|0:0,0:0:0:0:
330,37,151466,2,0,L|322:147,1,77.5,4|0,1:2|0:0,0:0:0:0:
215,342,151935,2,0,L|220:264,1,77.5,2|4,1:3|1:3,0:0:0:0:
303,212,152404,1,4,1:2:0:0:
105,244,152638,5,8,1:0:0:0:
52,126,152872,1,8,1:0:0:0:
159,31,153107,1,8,1:2:0:0:
204,37,153224,1,8,1:2:0:0:
249,44,153341,1,8,1:2:0:0:
295,48,153458,1,8,1:2:0:0:
324,84,153575,5,8,1:3:0:0:
347,84,153693,1,8,1:3:0:0:
370,84,153810,1,8,1:3:0:0:
393,83,153927,1,8,1:3:0:0:
426,116,154045,5,4,1:3:0:0:
441,117,154162,1,4,1:3:0:0:
477,151,154279,6,0,L|450:359,1,201.499990776062,4|2,1:0|0:2,0:0:0:0:
328,339,154982,1,4,0:3:0:0:
328,339,155099,1,0,0:0:0:0:
328,339,155216,1,8,0:0:0:0:
348,216,155450,1,0,3:0:0:0:
216,264,155685,2,0,P|204:327|167:363,1,100.749995388031,2|8,0:2|3:0,0:0:0:0:
34,296,156154,1,4,0:3:0:0:
106,193,156388,5,4,0:3:0:0:
224,177,156622,1,2,0:2:0:0:
32,91,156857,1,4,0:3:0:0:
32,91,156974,1,0,0:0:0:0:
32,91,157091,2,0,L|17:209,1,100.749995388031,8|0,0:0|3:0,0:0:0:0:
163,113,157560,2,0,L|178:1,1,100.749995388031,2|2,0:2|3:0,0:0:0:0:
201,15,157911,1,2,3:0:0:0:
218,33,158029,6,0,B|326:9|297:92|423:61,1,201.499990776062,4|2,1:0|0:2,0:0:0:0:
410,63,158732,1,8,0:3:0:0:
363,237,158966,2,0,P|436:200|474:191,1,100.749995388031,8|0,0:0|3:0,0:0:0:0:
243,253,159435,2,0,P|256:306|260:392,2,100.749995388031,2|8|4,0:2|3:0|0:3,0:0:0:0:
116,126,160138,1,8,0:3:0:0:
24,234,160372,1,2,0:2:0:0:
61,18,160607,1,0,3:0:0:0:
145,260,160841,1,8,0:0:0:0:
242,152,161075,5,4,3:0:0:0:
309,207,161310,5,4,3:0:0:0:
268,283,161544,5,4,3:0:0:0:
472,221,161779,5,4,0:2:0:0:
472,221,162013,1,4,0:2:0:0:
286,16,162247,1,2,3:2:0:0:
281,55,162364,1,0,3:0:0:0:
275,95,162482,1,2,3:0:0:0:
268,134,162599,1,2,3:0:0:0:
259,173,162716,6,0,B|202:133|202:133|55:154,1,201.499990776062,8|2,0:0|0:2,0:0:0:0:
22,322,163419,2,0,L|159:302,1,100.749995388031,8|4,0:3|0:2,0:0:0:0:
306,358,163888,1,8,0:3:0:0:
239,244,164122,1,2,0:2:0:0:
354,200,164357,1,4,0:3:0:0:
149,377,164591,2,0,L|162:255,1,100.749995388031,8|2,0:0|0:3,0:0:0:0:
107,197,164943,1,0,0:0:0:0:
107,197,165060,2,0,L|132:61,1,100.749995388031,2|2,0:2|3:0,0:0:0:0:
365,120,165529,6,0,P|265:102|221:-2,1,201.499990776062,4|2,0:0|0:2,0:0:0:0:
220,20,166232,1,4,0:3:0:0:
426,11,166466,1,8,0:0:0:0:
468,115,166700,1,2,3:0:0:0:
468,115,166935,1,2,0:2:0:0:
383,180,167169,1,4,0:3:0:0:
276,128,167404,6,0,P|232:175|247:311,1,201.499990776062,4|2,0:2|0:2,0:0:0:0:
241,304,168107,1,2,0:3:0:0:
119,189,168341,1,8,0:0:0:0:
31,206,168575,1,2,0:3:0:0:
17,357,168810,5,4,3:0:0:0:
54,323,168927,1,8,3:0:0:0:
104,319,169044,1,4,3:0:0:0:
144,349,169161,1,4,3:0:0:0:
194,351,169279,6,0,P|201:273|205:167,1,151.124993082047,4|0,0:0|3:0,0:0:0:0:
226,179,169747,2,0,P|278:193|351:196,1,100.749995388031,2|4,0:2|0:3,0:0:0:0:
500,304,170216,1,8,0:0:0:0:
379,354,170450,1,0,3:0:0:0:
379,354,170685,1,2,0:2:0:0:
408,230,170919,1,8,3:0:0:0:
440,106,171154,1,4,0:3:0:0:
234,158,171388,5,2,0:3:0:0:
234,158,171505,1,0,3:0:0:0:
234,158,171622,2,0,P|283:146|356:157,1,100.749995388031,2|4,0:2|0:3,0:0:0:0:
188,63,172091,2,0,P|106:90|94:162,1,151.124993082047,8|0,0:0|3:0,0:0:0:0:
118,158,172560,2,0,B|135:207|135:207|117:272,1,100.749995388031,2|8,0:2|0:3,0:0:0:0:
178,354,173029,6,0,P|215:339|296:333,2,100.749995388031,4|0|2,0:0|3:0|0:2,0:0:0:0:
58,348,173732,1,4,0:3:0:0:
38,223,173966,1,8,0:0:0:0:
147,177,174200,1,0,3:0:0:0:
38,223,174435,1,2,0:2:0:0:
58,348,174669,1,8,3:0:0:0:
178,354,174904,1,4,0:2:0:0:
126,271,175138,5,8,0:3:0:0:
126,271,175255,1,0,0:0:0:0:
126,271,175372,1,2,0:2:0:0:
147,177,175607,1,4,3:0:0:0:
348,220,175841,1,8,0:0:0:0:
428,289,176075,1,4,0:3:0:0:
484,174,176310,1,2,0:2:0:0:
418,95,176544,1,8,0:3:0:0:
239,254,176779,6,0,P|245:302|247:378,2,100.749995388031,4|4|2,0:0|0:3|0:2,0:0:0:0:
130,160,177482,1,4,0:3:0:0:
130,160,177599,1,0,0:0:0:0:
130,160,177716,2,0,P|108:200|86:264,1,100.749995388031,8|4,0:0|0:3,0:0:0:0:
303,54,178185,2,0,P|325:94|347:158,1,100.749995388031,2|8,0:2|3:0,0:0:0:0:
192,40,178654,5,4,0:3:0:0:
80,93,178888,1,8,0:3:0:0:
80,93,179005,1,0,0:0:0:0:
80,93,179122,1,2,0:2:0:0:
194,67,179357,1,8,0:3:0:0:
283,232,179591,1,8,0:0:0:0:
195,97,179825,1,0,3:0:0:0:
123,295,180060,1,2,0:2:0:0:
174,199,180294,1,8,3:0:0:0:
174,199,180411,1,8,3:0:0:0:
174,199,180529,1,4,0:0:0:0:
387,365,180763,5,2,0:2:0:0:
487,295,180997,1,2,0:2:0:0:
425,190,181232,1,4,0:3:0:0:
123,295,181466,5,8,0:3:0:0:
23,225,181700,1,4,0:3:0:0:
85,120,181935,1,2,0:2:0:0:
317,25,182169,1,4,0:3:0:0:
323,33,182286,1,0,0:0:0:0:
323,33,182404,6,2,L|296:366,1,310,4|4,0:0|0:3,0:0:0:0:
65,340,191537,5,0,3:0:0:0:
65,340,191775,2,0,P|136:333|176:339,1,92.9999971618653,2|0,0:0|3:0,0:0:0:0:
234,356,192483,2,0,L|243:261,1,92.9999971618653,2|0,3:2|0:0,0:0:0:0:
242,263,193180,1,0,0:0:0:0:
306,217,193411,2,0,P|373:241|378:347,1,185.999994323731,2|0,3:2|0:0,0:0:0:0:
380,344,195290,5,0,3:0:0:0:
454,314,195521,2,0,P|461:261|459:215,1,92.9999971618653,2|0,3:2|3:0,0:0:0:0:
390,192,196235,2,0,L|231:218,1,139.499995742798,2|0,3:2|0:0,0:0:0:0:
187,168,197154,1,0,3:0:0:0:
206,91,197404,2,0,P|223:86|272:76,1,46.4999985809327,2|0,3:2|0:0,0:0:0:0:
20,189,198129,2,0,L|29:350,1,139.499995742798,2|0,3:0|3:0,0:0:0:0:
27,328,199063,1,2,0:0:0:0:
280,351,199982,5,8,0:1:0:0:
280,351,200060,1,8,0:1:0:0:
280,351,200138,1,8,0:1:0:0:
280,351,200216,1,8,1:0:0:0:
341,278,200450,6,0,L|323:181,1,92.9999971618653,4|0,1:3|0:0,0:0:0:0:
480,95,201154,6,2,B|445:155|445:155|462:374,1,263.500005025864,6|2,0:0|0:2,0:0:0:0:
334,250,201857,1,2,0:3:0:0:
356,119,202091,1,10,0:0:0:0:
224,276,202325,2,0,P|151:242|73:239,1,131.750002512932,2|0,0:3|0:0,0:0:0:0:
29,48,202794,2,2,P|104:52|244:17,1,197.625003769398,6|8,0:0|3:0,0:0:0:0:
261,35,203263,5,8,0:0:0:0:
317,150,203497,1,4,0:3:0:0:
227,236,203732,1,4,0:3:0:0:
91,128,203966,1,10,0:0:0:0:
91,128,204200,1,4,0:3:0:0:
197,131,204435,1,2,0:0:0:0:
112,275,204669,1,8,3:0:0:0:
128,310,204786,1,8,3:0:0:0:
144,346,204904,6,2,B|277:280|276:389|420:335,1,263.500005025864,6|2,0:0|0:2,0:0:0:0:
486,248,205607,1,4,0:3:0:0:
328,117,205841,2,0,P|254:118|175:149,1,131.750002512932,10|2,0:0|3:0,0:0:0:0:
323,229,206310,1,2,0:2:0:0:
424,159,206544,1,10,0:0:0:0:
424,159,206661,1,8,0:0:0:0:
424,159,206779,2,0,P|440:83|429:23,1,131.750002512932,4|8,0:2|0:0,0:0:0:0:
212,165,207247,5,4,0:3:0:0:
255,87,207482,1,4,0:3:0:0:
125,231,207716,1,10,0:0:0:0:
117,130,207950,1,4,0:3:0:0:
101,353,208185,1,2,0:0:0:0:
31,280,208419,1,2,0:3:0:0:
257,353,208654,6,2,P|301:302|303:118,1,197.625003769398,6|8,0:0|3:0,0:0:0:0:
301,143,209122,1,2,0:2:0:0:
410,209,209357,1,4,0:3:0:0:
484,106,209591,1,10,0:0:0:0:
207,173,209825,1,4,0:3:0:0:
113,215,210060,1,4,0:3:0:0:
64,126,210294,1,2,0:0:0:0:
265,278,210529,5,4,0:2:0:0:
336,352,210764,1,10,0:0:0:0:
415,287,210998,1,4,0:3:0:0:
84,360,211232,1,2,0:3:0:0:
160,240,211466,2,0,L|171:380,1,131.750002512932,10|0,0:0|0:0,0:0:0:0:
265,278,211935,1,4,0:2:0:0:
285,109,212169,1,8,0:3:0:0:
274,70,212286,1,8,0:3:0:0:
261,32,212404,6,0,B|209:53|209:53|109:47,1,131.750002512932,6|2,0:0|0:3,0:0:0:0:
117,191,212872,1,2,0:2:0:0:
27,134,213107,1,4,0:3:0:0:
27,134,213224,1,4,0:3:0:0:
27,134,213341,1,8,0:0:0:0:
117,191,213575,1,2,0:0:0:0:
192,53,213810,1,2,0:2:0:0:
147,278,214044,6,2,P|226:267|292:363,1,197.625003769398,2|8,0:0|3:0,0:0:0:0:
292,352,214513,1,8,0:0:0:0:
341,141,214747,1,4,0:3:0:0:
401,250,214982,1,4,0:3:0:0:
455,40,215216,1,4,0:3:0:0:
435,43,215333,1,4,0:3:0:0:
415,46,215450,1,4,0:3:0:0:
395,48,215568,1,4,0:3:0:0:
359,64,215685,5,8,0:3:0:0:
394,81,215802,1,8,0:3:0:0:
428,100,215919,1,8,0:3:0:0:
461,121,216036,1,8,0:3:0:0:
433,149,216154,6,2,P|391:223|371:354,1,197.625003769398,6|8,0:0|3:0,0:0:0:0:
370,332,216622,2,0,P|283:318|216:325,1,131.750002512932,2|2,0:2|0:3,0:0:0:0:
17,358,217091,1,8,0:0:0:0:
110,231,217325,1,4,0:3:0:0:
29,41,217560,1,2,0:0:0:0:
137,102,217794,1,8,0:3:0:0:
165,85,217911,1,8,0:3:0:0:
194,69,218029,6,2,B|266:64|266:64|301:89|301:89|399:86,1,197.625003769398,6|8,0:0|3:0,0:0:0:0:
414,76,218497,1,2,0:2:0:0:
368,280,218732,1,2,0:3:0:0:
509,212,218966,1,8,0:0:0:0:
412,181,219200,1,4,0:3:0:0:
227,347,219435,1,2,0:0:0:0:
88,358,219669,1,8,0:3:0:0:
55,365,219786,1,8,0:3:0:0:
28,345,219904,6,2,B|6:224|71:267|43:130,1,197.625003769398,6|8,0:0|3:0,0:0:0:0:
47,152,220372,2,0,P|130:166|205:166,1,131.750002512932,2|2,0:2|0:3,0:0:0:0:
442,79,220841,2,0,P|330:53|237:55,1,197.625003769398,8|8,0:0|3:0,0:0:0:0:
217,41,221310,1,2,0:2:0:0:
260,300,221544,1,2,0:3:0:0:
324,84,221779,5,2,0:0:0:0:
103,153,222013,1,8,0:0:0:0:
176,375,222248,1,10,0:0:0:0:
397,305,222482,1,4,0:3:0:0:
284,152,222716,5,8,0:0:0:0:
320,262,222950,1,2,0:0:0:0:
210,297,223185,1,8,0:0:0:0:
178,183,223419,1,4,0:2:0:0:
324,84,223654,6,2,P|289:206|285:349,1,263.500005025864,6|2,0:0|0:2,0:0:0:0:
284,341,224357,1,4,0:3:0:0:
47,107,224591,2,0,P|64:187|74:323,1,197.625003769398,8|8,0:0|3:0,0:0:0:0:
73,302,225060,2,0,P|139:275|205:264,1,131.750002512932,2|2,0:2|0:0,0:0:0:0:
419,237,225529,6,2,P|317:198|359:53,1,263.500005025864,6|2,0:0|0:2,0:0:0:0:
337,65,226232,1,4,0:3:0:0:
474,177,226466,2,0,L|454:339,1,131.750002512932,8|2,0:0|0:3,0:0:0:0:
168,361,226935,1,2,0:0:0:0:
337,313,227169,1,4,0:2:0:0:
163,235,227404,6,0,P|65:236|17:258,2,131.750002512932,6|2|2,0:0|0:3|0:2,0:0:0:0:
261,186,228107,1,4,0:3:0:0:
288,22,228341,2,2,L|263:314,1,263.500005025864,10|2,0:0|0:2,0:0:0:0:
265,284,229044,1,2,0:0:0:0:
487,202,229279,5,6,0:0:0:0:
394,361,229513,1,4,0:3:0:0:
348,150,229747,1,4,0:3:0:0:
248,364,229982,1,2,0:0:0:0:
183,168,230216,1,4,0:3:0:0:
202,172,230333,1,4,0:3:0:0:
221,175,230450,1,4,0:3:0:0:
240,179,230568,1,4,0:3:0:0:
273,156,230685,5,8,0:3:0:0:
270,117,230802,1,8,0:3:0:0:
242,89,230919,1,8,0:3:0:0:
202,83,231036,1,8,0:3:0:0:
162,89,231154,6,0,P|91:82|58:18,2,131.750002512932,6|2|2,0:0|0:3|0:2,0:0:0:0:
314,36,231857,1,2,0:0:0:0:
117,186,232091,2,0,P|99:265|99:338,1,131.750002512932,10|2,0:0|0:3,0:0:0:0:
324,357,232560,5,2,0:2:0:0:
360,252,232794,1,4,0:3:0:0:
255,227,233029,1,2,0:0:0:0:
448,287,233263,5,8,0:0:0:0:
487,163,233497,1,8,0:0:0:0:
362,129,233732,1,2,0:0:0:0:
407,196,233966,5,10,0:0:0:0:
450,43,234200,1,4,0:2:0:0:
300,6,234435,1,2,0:3:0:0:
280,8,234552,1,2,0:3:0:0:
264,20,234669,1,2,0:3:0:0:
244,23,234786,1,2,0:3:0:0:
224,19,234904,6,2,P|224:98|233:179,1,131.750002512932,6|2,0:0|0:3,0:0:0:0:
10,101,235372,2,0,P|40:159|74:235,1,131.750002512932,2|4,0:2|0:3,0:0:0:0:
278,348,235841,1,10,0:0:0:0:
166,278,236075,1,8,0:3:0:0:
157,310,236193,1,8,0:3:0:0:
149,341,236310,1,2,0:2:0:0:
374,350,236544,1,4,0:3:0:0:
289,146,236779,1,4,0:3:0:0:
286,261,237013,5,10,0:0:0:0:
286,261,237247,1,10,0:0:0:0:
293,36,237482,1,4,0:3:0:0:
286,261,237716,1,8,0:0:0:0:
289,146,237950,5,2,0:0:0:0:
395,127,238185,1,2,0:0:0:0:
471,199,238419,1,2,0:3:0:0:
471,199,238536,1,2,0:3:0:0:
471,199,238654,6,2,P|450:267|448:337,1,131.750002512932,6|2,0:0|0:3,0:0:0:0:
200,170,239122,1,2,0:2:0:0:
278,240,239357,2,0,P|296:294|299:396,2,131.750002512932,2|10|2,0:0|0:0|0:3,0:0:0:0:
116,45,240060,1,2,0:2:0:0:
43,159,240294,1,2,0:0:0:0:
117,261,240529,1,4,0:3:0:0:
310,182,240763,5,10,0:0:0:0:
213,156,240997,1,8,0:0:0:0:
435,231,241232,5,4,0:3:0:0:
361,333,241467,1,10,0:0:0:0:
237,30,241700,5,2,0:3:0:0:
270,27,241818,1,2,0:3:0:0:
300,38,241934,1,2,0:3:0:0:
321,63,242052,1,2,0:3:0:0:
323,95,242169,1,2,0:3:0:0:
307,123,242286,1,2,0:3:0:0:
277,137,242404,6,2,P|246:178|258:259,1,131.750002512932,6|2,0:0|0:3,0:0:0:0:
66,361,242872,1,2,0:2:0:0:
27,220,243107,1,4,0:3:0:0:
267,338,243341,2,2,B|322:321|322:321|491:369,1,197.625003769398,10|0,0:0|3:0,0:0:0:0:
456,359,243810,2,0,L|472:210,1,131.750002512932,2|2,0:2|0:3,0:0:0:0:
239,175,244279,5,6,0:0:0:0:
239,175,244513,1,8,0:0:0:0:
318,114,244747,1,8,0:0:0:0:
102,69,244982,1,8,0:3:0:0:
102,69,245099,1,8,0:3:0:0:
102,69,245216,1,8,0:0:0:0:
189,24,245450,1,4,0:3:0:0:
63,337,245685,1,2,0:0:0:0:
170,364,245919,1,8,0:3:0:0:
170,364,246036,1,8,0:3:0:0:
170,364,246154,6,2,P|169:282|181:210,1,131.750002512932,6|2,0:0|0:3,0:0:0:0:
314,184,246622,1,2,0:0:0:0:
405,244,246857,1,2,0:0:0:0:
493,207,247091,1,8,0:0:0:0:
405,244,247325,1,2,0:0:0:0:
493,207,247560,1,2,0:0:0:0:
405,244,247794,1,8,0:3:0:0:
493,207,248029,6,0,P|487:123|475:55,1,131.750002512932,6|2,0:0|0:3,0:0:0:0:
288,37,248497,1,2,0:0:0:0:
288,37,248732,1,2,0:0:0:0:
23,167,248966,2,0,P|29:83|41:15,1,131.750002512932,8|2,0:0|0:3,0:0:0:0:
153,72,249435,1,2,0:3:0:0:
153,104,249552,1,2,0:3:0:0:
153,136,249669,1,2,0:3:0:0:
152,168,249786,1,2,0:3:0:0:
154,201,249904,6,2,P|224:173|304:156,1,131.750002512932,2|2,0:0|0:3,0:0:0:0:
381,326,250372,1,2,0:0:0:0:
278,297,250607,1,2,0:0:0:0:
203,359,250841,1,8,0:0:0:0:
278,297,251075,1,2,0:0:0:0:
203,359,251310,1,2,0:0:0:0:
278,297,251544,1,8,0:3:0:0:
38,359,251779,1,6,0:0:0:0:
39,158,252013,5,8,0:0:0:0:
131,190,252247,1,2,0:0:0:0:
196,30,252482,1,0,0:0:0:0:
327,108,252716,1,8,0:0:0:0:
235,140,252950,1,2,0:0:0:0:
480,318,253185,2,2,B|361:294|393:367|275:348,1,197.625003769398,2|0,0:0|3:0,0:0:0:0:
259,361,253654,6,2,P|256:261|238:207,1,131.750002512932,6|2,0:0|0:3,0:0:0:0:
144,119,254122,1,2,0:0:0:0:
131,220,254357,1,0,0:0:0:0:
29,227,254591,1,8,0:0:0:0:
131,220,254825,1,2,0:0:0:0:
29,227,255060,1,2,0:0:0:0:
131,220,255294,1,8,0:3:0:0:
29,227,255529,6,0,P|32:327|50:381,1,131.750002512932,6|2,0:0|0:3,0:0:0:0:
218,160,255997,2,0,P|215:60|197:6,1,131.750002512932,2|2,0:0|0:0,0:0:0:0:
306,247,256466,1,2,0:3:0:0:
327,232,256583,1,2,0:3:0:0:
348,216,256700,1,2,0:3:0:0:
370,201,256818,1,2,0:3:0:0:
418,220,256935,5,8,0:3:0:0:
442,266,257052,1,8,0:3:0:0:
435,318,257169,1,8,0:3:0:0:
394,351,257286,1,8,0:3:0:0:
345,330,257404,6,2,P|275:322|191:342,1,131.750002512932,6|2,0:0|0:3,0:0:0:0:
288,159,257872,2,0,P|220:177|149:227,1,131.750002512932,2|2,0:0|0:0,0:0:0:0:
120,25,258341,2,0,P|64:67|17:140,1,131.750002512932,8|8,0:0|0:0,0:0:0:0:
98,295,258810,1,2,0:0:0:0:
284,249,259044,1,8,0:3:0:0:
233,34,259279,1,6,0:0:0:0:
176,219,259513,5,8,0:0:0:0:
176,219,259630,1,8,0:3:0:0:
176,219,259747,2,0,B|195:267|195:267|196:388,1,131.750002512932,2|4,0:0|0:3,0:0:0:0:
395,125,260216,2,0,B|376:173|376:173|375:294,1,131.750002512932,10|2,0:0|0:0,0:0:0:0:
58,38,260685,2,0,B|77:86|77:86|78:207,1,131.750002512932,4|0,0:0|0:0,0:0:0:0:
321,35,261154,1,6,0:0:0:0:
256,192,261388,12,0,275450,3:0:0:0:
