osu file format v14

[General]
AudioFilename: audio.mp3
AudioLeadIn: 0
PreviewTime: 108215
Countdown: 0
SampleSet: Soft
StackLeniency: 0.4
Mode: 0
LetterboxInBreaks: 0
WidescreenStoryboard: 0

[Editor]
DistanceSpacing: 0.3
BeatDivisor: 3
GridSize: 32
TimelineZoom: 1

[Metadata]
Title:Thunder (Nightcore Mix)
TitleUnicode:Thunder (Nightcore Mix)
Artist:Gabry Ponte, LUM!X, Prezioso
ArtistUnicode:Gabry Ponte, LUM!X, Prezioso
Creator:P A N
Version:Thunder
Source:
Tags:Simple- english en electronic dance music edm nightcore nc trance techno p_a_n
BeatmapID:3579611
BeatmapSetID:1749750

[Difficulty]
HPDrainRate:5
CircleSize:4.5
OverallDifficulty:9.4
ApproachRate:9.5
SliderMultiplier:2
SliderTickRate:1

[Events]
//Background and Video events
0,0,"naNBYvd.jpeg",0,0
//Break Periods
2,69762,74935
//Storyboard Layer 0 (Background)
//Storyboard Layer 1 (Fail)
//Storyboard Layer 2 (Pass)
//Storyboard Layer 3 (Foreground)
//Storyboard Layer 4 (Overlay)
//Storyboard Sound Samples

[TimingPoints]
1684,404.040404040404,4,2,1,40,1,0
1684,-133.333333333333,4,2,1,40,0,0
14613,-133.333333333333,4,2,1,50,0,0
21077,-117.647058823529,4,2,1,60,0,0
22694,-111.111111111111,4,2,1,60,0,0
24310,-105.263157894737,4,2,1,60,0,0
27542,-83.3333333333333,4,2,1,70,0,0
40471,-83.3333333333333,4,2,1,80,0,1
46128,-83.3333333333333,4,2,1,80,0,0
46936,-83.3333333333333,4,2,1,80,0,1
51785,-83.3333333333333,4,2,1,80,0,0
53401,-71.4285714285714,4,2,1,80,0,1
66330,-200,4,2,1,60,0,0
69562,404.040404040404,4,2,1,40,1,0
75487,-133.333333333333,4,2,1,50,0,0
88955,-105.263157894737,4,2,1,60,0,0
95420,-90.9090909090909,4,2,1,60,0,0
101885,-83.3333333333333,4,2,1,70,0,0
114814,-83.3333333333333,4,2,1,80,0,1
120471,-83.3333333333333,4,2,1,80,0,0
121279,-83.3333333333333,4,2,1,80,0,1
126127,-83.3333333333333,4,2,1,80,0,0
127743,-71.4285714285714,4,2,1,80,0,1
140673,-71.4285714285714,4,2,1,40,0,0
142289,-71.4285714285714,4,2,1,5,0,0

[Colours]
Combo1 : 96,96,96
Combo2 : 255,255,111
Combo3 : 255,91,255
Combo4 : 128,255,255

[HitObjects]
124,277,1684,6,0,P|168:298|237:281,1,100.000003814697,8|0,0:1|0:0,0:0:0:0:
304,253,2088,1,0,0:0:0:0:
388,296,2222,1,0,0:0:0:0:
466,247,2357,1,0,0:0:0:0:
396,113,2492,6,0,B|375:133|375:133|381:214,1,100.000003814697,2|0,0:2|0:0,0:0:0:0:
388,296,2896,1,0,0:0:0:0:
466,247,3030,1,0,0:0:0:0:
380,203,3165,1,0,0:0:0:0:
246,311,3300,6,0,P|225:267|244:205,1,100.000003814697,2|0,0:2|0:0,0:0:0:0:
230,130,3704,1,0,0:0:0:0:
309,174,3838,1,0,0:0:0:0:
344,94,3973,1,0,0:0:0:0:
200,53,4108,6,0,B|126:76|169:156|114:167|109:103,1,150.000005722046,2|0,0:2|0:0,0:0:0:0:
106,113,4916,6,0,P|106:190|122:237,1,100.000003814697,2|0,0:2|0:0,0:0:0:0:
199,256,5320,2,0,P|132:217|83:207,1,100.000003814697,2|0,0:2|0:0,0:0:0:0:
28,266,5724,2,0,P|94:227|127:190,1,100.000003814697,2|0,0:2|0:0,0:0:0:0:
148,128,6128,1,2,0:2:0:0:
236,147,6263,1,0,0:0:0:0:
262,54,6397,1,0,0:0:0:0:
358,181,6532,6,0,P|359:132|350:79,1,100.000003814697,2|0,0:2|0:0,0:0:0:0:
323,262,6936,2,0,P|378:271|425:239,1,100.000003814697
238,182,7340,5,2,0:2:0:0:
229,329,7475,1,0,0:0:0:0:
197,210,7609,1,0,0:0:0:0:
64,355,7744,5,2,0:2:0:0:
70,247,7879,1,0,0:0:0:0:
100,339,8013,1,0,0:0:0:0:
105,188,8148,6,0,B|139:189|157:184|157:184|169:200|199:211,1,100.000003814697,2|0,0:2|0:0,0:0:0:0:
256,281,8552,1,0,0:0:0:0:
344,272,8687,1,0,0:0:0:0:
376,358,8822,1,0,0:0:0:0:
407,188,8956,6,0,B|373:189|355:184|355:184|343:200|313:211,1,100.000003814697,2|0,0:2|0:0,0:0:0:0:
256,281,9360,1,0,0:0:0:0:
168,272,9495,1,0,0:0:0:0:
136,358,9630,1,0,0:0:0:0:
53,218,9764,6,0,P|40:265|60:326,1,100.000003814697,2|0,0:2|0:0,0:0:0:0:
136,358,10168,1,0,0:0:0:0:
135,263,10303,1,0,0:0:0:0:
52,313,10438,1,0,0:0:0:0:
211,303,10572,6,0,B|265:279|239:210|308:184,1,150.000005722046,2|0,0:2|0:0,0:0:0:0:
304,180,11380,6,0,B|347:157|355:127|355:127|382:147,1,100.000003814697,2|0,0:2|0:0,0:0:0:0:
377,61,11785,2,0,B|375:109|397:131|397:131|366:145,1,100.000003814697,2|0,0:2|0:0,0:0:0:0:
443,182,12189,2,0,B|401:156|371:164|371:164|375:130,1,100.000003814697,2|0,0:2|0:0,0:0:0:0:
322,73,12593,1,2,0:2:0:0:
238,82,12727,1,0,0:0:0:0:
151,91,12862,1,0,0:0:0:0:
27,169,12997,6,0,P|78:178|134:180,1,100.000003814697,2|0,0:2|0:0,0:0:0:0:
112,296,13401,2,0,P|161:270|201:235,1,100.000003814697
323,161,13805,5,2,0:2:0:0:
437,116,13939,1,0,0:0:0:0:
512,214,14074,1,0,0:0:0:0:
336,202,14209,5,2,0:2:0:0:
422,162,14343,1,0,0:0:0:0:
485,236,14478,1,0,0:0:0:0:
348,384,14613,6,0,B|327:351|327:351|330:271,1,100.000003814697,10|0,0:2|0:0,0:0:0:0:
336,202,15017,2,0,P|363:195|393:202,2,50.0000019073487
253,242,15421,2,0,P|221:241|190:227,1,50.0000019073487,2|0,0:2|0:0,0:0:0:0:
130,177,15690,1,0,0:0:0:0:
130,177,15825,2,0,P|98:176|74:187,1,50.0000019073487,2|0,0:2|0:0,0:0:0:0:
31,270,16094,1,0,0:0:0:0:
4,104,16229,6,0,L|18:270,1,150.000005722046,8|0,0:2|0:0,0:0:0:0:
31,270,16902,1,0,0:0:0:0:
31,270,17037,1,2,0:2:0:0:
31,270,17172,1,0,0:0:0:0:
74,351,17306,1,0,0:0:0:0:
74,351,17441,2,0,L|130:343,1,50.0000019073487,2|0,0:2|0:0,0:0:0:0:
215,330,17710,1,0,0:0:0:0:
175,162,17845,6,0,L|200:320,1,150.000005722046,8|0,0:2|0:0,0:0:0:0:
215,330,18519,1,0,0:0:0:0:
215,330,18653,2,0,P|249:329|270:315,1,50.0000019073487,2|0,0:2|0:0,0:0:0:0:
336,268,18923,1,0,0:0:0:0:
336,268,19057,2,0,P|370:269|391:283,1,50.0000019073487,2|0,0:2|0:0,0:0:0:0:
444,351,19327,1,0,0:0:0:0:
463,156,19461,5,10,0:2:0:0:
454,253,19596,1,0,0:0:0:0:
444,351,19731,1,0,0:0:0:0:
454,253,19865,2,0,L|511:258,1,50.0000019073487,2|0,0:2|0:0,0:0:0:0:
377,149,20135,5,0,0:0:0:0:
358,344,20269,1,10,0:2:0:0:
368,246,20404,1,0,0:0:0:0:
358,344,20539,1,0,0:0:0:0:
377,149,20673,2,0,L|320:143,1,50.0000019073487,10|0,0:2|0:0,0:0:0:0:
234,130,20943,1,0,0:0:0:0:
201,327,21077,6,0,L|221:149,1,170.000003242493,10|0,0:2|0:0,0:0:0:0:
234,130,21751,1,0,0:0:0:0:
234,130,21886,1,2,0:2:0:0:
234,130,22020,1,0,0:0:0:0:
174,29,22155,1,0,0:0:0:0:
174,29,22290,2,0,P|144:25|117:32,1,56.6666677474976,2|0,0:2|0:0,0:0:0:0:
47,126,22559,1,0,0:0:0:0:
66,338,22694,6,0,L|41:153,1,179.999994506836,8|0,0:2|0:0,0:0:0:0:
47,126,23367,1,0,0:0:0:0:
47,126,23502,1,2,0:2:0:0:
47,126,23636,1,0,0:0:0:0:
134,242,23771,1,0,0:0:0:0:
134,242,23906,2,0,B|164:246|164:246|198:238,1,59.9999981689454,2|0,0:2|0:0,0:0:0:0:
257,108,24175,1,0,0:0:0:0:
293,329,24310,6,0,L|276:127,1,189.999994926453,8|0,0:2|0:0,0:0:0:0:
257,108,24983,1,0,0:0:0:0:
257,108,25118,1,2,0:2:0:0:
257,108,25253,1,0,0:0:0:0:
412,73,25387,1,0,0:0:0:0:
412,73,25522,2,0,L|405:148,1,63.3333316421509,2|0,0:2|0:0,0:0:0:0:
394,287,25791,1,0,0:0:0:0:
460,193,25926,5,10,0:1:0:0:
225,196,26734,1,8,0:2:0:0:
393,159,26869,1,8,0:2:0:0:
225,196,27003,1,8,0:2:0:0:
393,159,27138,2,0,B|439:171|481:171|481:171|431:184,1,126.666663284302,8|0,0:2|0:0,0:0:0:0:
355,173,27542,6,0,L|263:167,1,79.9999975585938,8|0,0:1|0:0,0:0:0:0:
142,207,27811,1,0,0:0:0:0:
142,207,27946,1,8,0:1:0:0:
142,207,28081,1,0,0:0:0:0:
142,207,28215,1,0,0:0:0:0:
9,36,28350,6,0,L|49:118,1,79.9999975585938,8|0,0:1|0:0,0:0:0:0:
142,207,28620,1,0,0:0:0:0:
142,207,28754,1,8,0:1:0:0:
142,207,28889,1,0,0:0:0:0:
142,207,29024,1,0,0:0:0:0:
50,384,29158,6,0,L|101:307,1,79.9999975585938,8|0,0:1|0:0,0:0:0:0:
142,207,29428,1,0,0:0:0:0:
142,207,29562,1,8,0:1:0:0:
142,207,29697,1,0,0:0:0:0:
142,207,29832,1,0,0:0:0:0:
355,173,29966,6,0,L|263:167,2,79.9999975585938,8|0|0,0:1|0:0|0:0,0:0:0:0:
484,93,30370,1,8,0:2:0:0:
484,93,30774,6,0,L|477:178,1,79.9999975585938,8|0,0:1|0:0,0:0:0:0:
378,350,31044,1,0,0:0:0:0:
378,350,31178,2,0,L|365:270,1,79.9999975585938,8|0,0:1|0:0,0:0:0:0:
484,93,31448,1,0,0:0:0:0:
484,93,31582,2,0,L|477:178,1,79.9999975585938,8|0,0:1|0:0,0:0:0:0:
459,317,31852,1,0,0:0:0:0:
459,317,31987,1,8,0:1:0:0:
459,317,32121,1,0,0:0:0:0:
459,317,32256,1,0,0:0:0:0:
395,92,32391,6,0,L|388:177,1,79.9999975585938,8|0,0:1|0:0,0:0:0:0:
289,349,32660,1,0,0:0:0:0:
289,349,32795,2,0,L|276:269,1,79.9999975585938,8|0,0:1|0:0,0:0:0:0:
258,166,33064,1,0,0:0:0:0:
168,324,33199,5,8,0:2:0:0:
121,157,33333,1,8,0:3:0:0:
0,282,33468,1,8,0:3:0:0:
68,94,33603,5,8,0:2:0:0:
108,196,33737,1,8,0:3:0:0:
198,127,33872,1,8,0:3:0:0:
24,36,34007,6,0,L|32:122,1,79.9999975585938,8|0,0:1|0:0,0:0:0:0:
108,196,34276,1,0,0:0:0:0:
256,60,34411,1,8,0:2:0:0:
287,134,34545,1,0,0:0:0:0:
339,74,34680,1,0,0:0:0:0:
453,326,34815,6,0,L|445:240,1,79.9999975585938,8|0,0:1|0:0,0:0:0:0:
369,166,35084,1,0,0:0:0:0:
221,302,35219,1,8,0:2:0:0:
193,228,35354,1,0,0:0:0:0:
139,286,35488,1,0,0:0:0:0:
102,53,35623,6,0,L|188:45,1,79.9999975585938,8|0,0:1|0:0,0:0:0:0:
239,131,35892,1,0,0:0:0:0:
415,42,36027,1,8,0:2:0:0:
471,105,36162,1,0,0:0:0:0:
498,28,36296,1,0,0:0:0:0:
483,232,36431,6,0,L|402:224,2,79.9999975585938,8|0|0,0:1|0:0|0:0,0:0:0:0:
286,139,36835,1,8,0:2:0:0:
286,139,37239,6,0,L|299:232,1,79.9999975585938,8|0,0:1|0:0,0:0:0:0:
398,295,37508,1,0,0:0:0:0:
483,63,37643,2,0,L|475:155,1,79.9999975585938,8|0,0:2|0:0,0:0:0:0:
398,295,37912,1,0,0:0:0:0:
398,295,38047,2,0,L|386:204,1,79.9999975585938,8|0,0:1|0:0,0:0:0:0:
286,139,38316,1,0,0:0:0:0:
211,297,38451,1,8,0:2:0:0:
211,297,38586,1,0,0:0:0:0:
211,297,38721,1,0,0:0:0:0:
279,59,38855,6,0,L|287:151,1,79.9999975585938,8|0,0:1|0:0,0:0:0:0:
387,215,39125,1,0,0:0:0:0:
483,63,39259,2,0,L|476:153,1,79.9999975585938,8|0,0:2|0:0,0:0:0:0:
387,215,39529,1,0,0:0:0:0:
133,192,39663,5,8,0:2:0:0:
206,24,39798,1,8,0:3:0:0:
327,155,39933,1,8,0:3:0:0:
167,166,40067,5,8,0:2:0:0:
210,65,40202,1,8,0:3:0:0:
283,143,40337,1,8,0:3:0:0:
87,14,40471,6,0,P|85:40|90:14,1,79.9999975585938,8|0,0:1|0:0,0:0:0:0:
156,219,40741,5,8,0:3:0:0:
287,63,40875,1,8,0:2:0:0:
287,63,41010,1,0,0:0:0:0:
85,181,41145,5,8,0:3:0:0:
282,143,41279,2,0,P|303:137|280:141,1,79.9999975585938,8|0,0:1|0:0,0:0:0:0:
220,320,41549,5,8,0:3:0:0:
201,109,41684,1,8,0:2:0:0:
201,109,41818,1,0,0:0:0:0:
342,286,41953,5,8,0:3:0:0:
368,81,42088,2,0,P|369:107|372:80,1,79.9999975585938,8|0,0:1|0:0,0:0:0:0:
234,251,42357,5,8,0:3:0:0:
252,55,42492,1,8,0:2:0:0:
252,55,42626,1,0,0:0:0:0:
126,213,42761,5,8,0:3:0:0:
144,27,42896,1,8,0:1:0:0:
144,27,43030,1,0,0:0:0:0:
246,164,43165,5,8,0:3:0:0:
40,181,43300,2,0,P|14:174|40:144,2,79.9999975585938,8|0|8,0:2|0:0|0:3,0:0:0:0:
142,321,43704,6,0,P|166:328|140:324,1,79.9999975585938,8|0,0:1|0:0,0:0:0:0:
293,201,43973,5,8,0:3:0:0:
263,20,44108,2,0,P|244:37|261:16,1,79.9999975585938,8|0,0:2|0:0,0:0:0:0:
293,201,44377,5,8,0:3:0:0:
485,260,44512,2,0,P|479:235|488:260,1,79.9999975585938,8|0,0:1|0:0,0:0:0:0:
293,201,44781,5,8,0:3:0:0:
481,149,44916,1,8,0:2:0:0:
481,149,45051,1,0,0:0:0:0:
346,279,45185,5,8,0:3:0:0:
327,84,45320,2,0,P|308:66|325:87,1,79.9999975585938,8|0,0:1|0:0,0:0:0:0:
154,163,45589,5,8,0:3:0:0:
134,356,45724,2,0,P|115:373|132:352,1,79.9999975585938,8|0,0:2|0:0,0:0:0:0:
154,163,45993,1,8,0:3:0:0:
281,309,46128,5,8,0:2:0:0:
333,132,46263,1,8,0:3:0:0:
458,265,46397,1,8,0:3:0:0:
277,199,46532,5,8,0:2:0:0:
365,271,46667,1,8,0:3:0:0:
412,166,46801,1,8,0:3:0:0:
281,309,46936,6,0,P|283:283|278:309,1,79.9999975585938,8|0,0:1|0:0,0:0:0:0:
154,163,47205,5,8,0:3:0:0:
131,351,47340,1,8,0:2:0:0:
131,351,47475,1,0,0:0:0:0:
235,181,47609,5,8,0:3:0:0:
45,163,47744,2,0,P|20:155|46:161,1,79.9999975585938,8|0,0:1|0:0,0:0:0:0:
219,265,48013,5,8,0:3:0:0:
196,65,48148,1,8,0:2:0:0:
196,65,48283,1,0,0:0:0:0:
135,247,48418,5,8,0:3:0:0:
330,266,48552,2,0,P|355:265|329:262,1,79.9999975585938,8|0,0:1|0:0,0:0:0:0:
480,164,48822,5,8,0:3:0:0:
465,357,48956,1,8,0:2:0:0:
465,357,49091,1,0,0:0:0:0:
402,183,49226,5,8,0:3:0:0:
407,0,49360,1,8,0:1:0:0:
407,0,49495,1,0,0:0:0:0:
480,164,49630,5,8,0:3:0:0:
275,171,49764,2,0,P|249:164|275:134,2,79.9999975585938,8|0|8,0:2|0:0|0:3,0:0:0:0:
430,326,50168,6,0,P|454:333|428:329,1,79.9999975585938,8|0,0:1|0:0,0:0:0:0:
254,243,50438,5,8,0:3:0:0:
64,187,50572,2,0,P|40:194|66:190,1,79.9999975585938,8|0,0:2|0:0,0:0:0:0:
253,132,50842,5,8,0:3:0:0:
430,58,50976,2,0,P|454:51|428:55,1,79.9999975585938,8|0,0:1|0:0,0:0:0:0:
293,201,51246,5,8,0:3:0:0:
256,11,51380,1,8,0:2:0:0:
256,11,51515,1,0,0:0:0:0:
407,131,51650,5,8,0:3:0:0:
196,121,51785,2,0,P|177:103|194:124,1,79.9999975585938,8|8,0:1|0:3,0:0:0:0:
488,210,52054,2,0,P|513:202|486:206,1,79.9999975585938,8|8,0:1|0:2,0:0:0:0:
149,215,52323,2,0,P|123:207|150:211,1,79.9999975585938,8|8,0:1|0:3,0:0:0:0:
413,263,52593,5,8,0:1:0:0:
222,270,52727,1,8,0:1:0:0:
413,263,52862,1,8,0:1:0:0:
324,366,52997,5,8,0:1:0:0:
311,175,53131,1,8,0:1:0:0:
324,366,53266,1,8,0:1:0:0:
175,72,53401,6,0,B|184:126|163:151|163:151|174:159|178:169|178:169|169:205|186:236|186:236|194:206,1,186.666660970052,10|8,0:1|0:3,0:0:0:0:
326,134,53805,1,10,0:2:0:0:
103,196,53939,1,2,0:2:0:0:
344,213,54074,1,10,0:3:0:0:
81,271,54209,6,0,P|26:207|86:122,1,186.666660970052,10|10,0:1|0:3,0:0:0:0:
180,331,54613,1,10,0:2:0:0:
274,80,54747,1,2,0:2:0:0:
418,310,54882,1,10,0:3:0:0:
187,179,55017,6,0,P|202:81|285:88,1,186.666660970052,10|8,0:1|0:3,0:0:0:0:
339,304,55421,1,10,0:2:0:0:
357,76,55556,1,2,0:2:0:0:
418,310,55690,1,10,0:3:0:0:
436,82,55825,6,0,P|396:5|296:27,1,186.666660970052,10|8,0:1|0:3,0:0:0:0:
346,262,56229,2,0,L|357:66,1,186.666660970052,8|8,0:2|0:3,0:0:0:0:
58,116,56633,6,0,L|76:305,1,186.666660970052,10|8,0:1|0:3,0:0:0:0:
338,351,57037,2,0,P|353:308|343:256,1,93.3333304850261,10|0,0:2|0:0,0:0:0:0:
298,68,57306,1,10,0:3:0:0:
278,301,57441,6,0,P|366:339|422:264,1,186.666660970052,10|8,0:1|0:3,0:0:0:0:
298,68,57845,1,10,0:2:0:0:
195,278,57980,1,2,0:2:0:0:
408,172,58114,1,10,0:3:0:0:
201,44,58249,6,0,P|161:45|118:76,1,93.3333304850261,10|0,0:1|0:0,0:0:0:0:
78,268,58519,1,10,0:3:0:0:
322,372,58653,2,0,B|347:321|326:281|326:281|299:229|341:176,1,186.666660970052,10|10,0:2|0:3,0:0:0:0:
78,268,59057,6,0,P|155:353|213:311,1,186.666660970052,10|8,0:1|0:3,0:0:0:0:
155,51,59461,1,10,0:2:0:0:
150,282,59596,1,2,0:2:0:0:
155,51,59731,1,10,0:3:0:0:
150,282,59865,6,0,B|195:296|228:276|228:276|244:287|258:292|258:292|292:276|338:288,1,186.666660970052,10|8,0:1|0:3,0:0:0:0:
285,119,60269,1,10,0:2:0:0:
490,218,60404,1,2,0:2:0:0:
301,364,60539,1,10,0:3:0:0:
285,119,60673,6,0,P|361:78|423:147,1,186.666660970052,10|10,0:1|0:3,0:0:0:0:
301,364,61077,1,10,0:2:0:0:
123,210,61212,1,2,0:2:0:0:
352,152,61347,1,10,0:3:0:0:
149,286,61481,6,0,P|71:270|51:176,1,186.666660970052,10|8,0:1|0:3,0:0:0:0:
263,34,61886,1,10,0:2:0:0:
123,210,62020,1,2,0:2:0:0:
32,0,62155,1,10,0:3:0:0:
263,34,62290,6,0,P|306:88|254:189,1,186.666660970052,10|8,0:1|0:3,0:0:0:0:
24,353,62694,2,0,L|211:334,1,186.666660970052,8|8,0:2|0:3,0:0:0:0:
460,192,63098,6,0,L|360:179,1,93.3333304850261,10|0,0:1|0:0,0:0:0:0:
210,107,63367,1,8,0:3:0:0:
69,267,63502,6,0,L|161:254,1,93.3333304850261,10|0,0:2|0:0,0:0:0:0:
292,96,63771,1,10,0:3:0:0:
459,281,63906,6,0,P|382:313|292:248,1,186.666660970052,10|8,0:1|0:3,0:0:0:0:
236,30,64310,1,10,0:2:0:0:
468,5,64444,1,2,0:2:0:0:
384,231,64579,1,10,0:3:0:0:
236,30,64714,6,0,P|181:24|146:131,1,186.666660970052,10|10,0:1|0:3,0:0:0:0:
186,243,65118,2,0,P|180:329|95:342,1,186.666660970052,10|10,0:2|0:3,0:0:0:0:
35,54,65522,5,10,0:1:0:0:
306,14,65657,1,8,0:3:0:0:
336,250,65791,1,8,0:3:0:0:
127,282,65926,1,10,0:2:0:0:
104,138,66061,1,2,0:2:0:0:
208,128,66195,1,10,0:3:0:0:
217,209,66330,6,0,B|220:241|220:241|180:245|180:245|170:162|170:162|280:151|280:151|296:302|296:302|116:322|116:322|105:222|105:222|-1:231,1,800,8|0,0:3|0:0,0:0:0:0:
198,94,75488,5,0,0:0:0:0:
287,39,75623,2,0,P|338:41|385:75,1,100.000003814697
407,166,76027,5,10,0:3:0:0:
163,270,76431,1,10,0:3:0:0:
407,166,76835,2,0,L|402:291,1,100.000003814697,10|0,0:3|0:0,0:0:0:0:
323,362,77239,6,0,P|290:315|291:255,1,100.000003814697,10|0,0:3|0:0,0:0:0:0:
136,181,77643,2,0,P|192:176|244:207,1,100.000003814697,10|0,0:3|0:0,0:0:0:0:
384,111,78047,2,0,P|360:162|307:192,1,100.000003814697,10|0,0:3|0:0,0:0:0:0:
175,261,78451,1,8,0:2:0:0:
175,261,79259,5,10,0:3:0:0:
129,13,79663,1,10,0:3:0:0:
175,261,80067,2,0,P|229:259|271:222,1,100.000003814697,10|0,0:3|0:0,0:0:0:0:
338,173,80471,2,0,L|330:289,1,100.000003814697,10|0,0:3|0:0,0:0:0:0:
319,370,80875,5,10,0:3:0:0:
400,105,81279,2,0,P|346:80|295:96,1,100.000003814697,10|8,0:3|0:3,0:0:0:0:
257,173,81684,2,0,L|190:169,1,50.0000019073487,8|8,0:3|0:3,0:0:0:0:
146,95,81953,1,8,0:3:0:0:
146,95,82088,2,0,L|85:100,1,50.0000019073487,10|8,0:3|0:3,0:0:0:0:
17,163,82357,1,8,0:3:0:0:
2,66,82492,5,10,0:3:0:0:
33,323,82896,1,10,0:3:0:0:
199,128,83300,2,0,L|192:248,1,100.000003814697,10|0,0:3|0:0,0:0:0:0:
191,328,83704,6,0,B|242:321|242:321|290:287,1,100.000003814697,10|0,0:3|0:0,0:0:0:0:
111,265,84108,2,0,B|59:258|59:258|11:224,1,100.000003814697,10|0,0:3|0:0,0:0:0:0:
193,201,84512,2,0,B|244:194|244:194|292:160,1,100.000003814697,10|0,0:3|0:0,0:0:0:0:
118,124,84916,1,8,0:2:0:0:
118,124,85724,5,10,0:3:0:0:
145,383,86128,1,10,0:3:0:0:
118,124,86532,6,0,P|163:92|212:121,1,100.000003814697,10|0,0:3|0:0,0:0:0:0:
277,183,86936,2,0,P|322:197|361:166,1,100.000003814697,10|0,0:3|0:0,0:0:0:0:
412,63,87340,5,10,0:3:0:0:
193,202,87744,2,0,L|203:309,1,100.000003814697,10|8,0:3|0:3,0:0:0:0:
317,242,88148,5,8,0:3:0:0:
352,358,88283,1,8,0:3:0:0:
448,288,88418,1,8,0:3:0:0:
334,255,88552,5,8,0:3:0:0:
358,337,88687,1,8,0:3:0:0:
426,287,88822,1,8,0:3:0:0:
266,330,88956,6,0,L|283:173,1,126.666663284302,10|8,0:1|0:3,0:0:0:0:
137,271,89360,2,0,L|123:145,1,126.666663284302,10|8,0:1|0:3,0:0:0:0:
279,204,89764,2,0,L|296:47,1,126.666663284302,10|8,0:1|0:3,0:0:0:0:
171,20,90168,2,0,P|150:14|156:52,2,63.3333316421509,10|8|8,0:1|0:3|0:3,0:0:0:0:
201,164,90572,6,0,L|345:171,1,126.666663284302,10|8,0:1|0:3,0:0:0:0:
259,5,90976,2,0,L|403:-1,1,126.666663284302,10|8,0:1|0:3,0:0:0:0:
327,170,91380,2,0,L|471:177,1,126.666663284302,10|8,0:1|0:3,0:0:0:0:
434,323,91785,2,0,P|411:329|393:290,2,63.3333316421509,8|8|8,0:1|0:3|0:3,0:0:0:0:
334,238,92189,6,0,P|312:297|340:369,1,126.666663284302,10|8,0:1|0:3,0:0:0:0:
401,184,92593,2,0,P|338:194|290:254,1,126.666663284302,10|8,0:1|0:3,0:0:0:0:
488,212,92997,2,0,P|447:163|371:151,1,126.666663284302,10|8,0:1|0:3,0:0:0:0:
210,112,93401,2,0,B|224:84|224:84|253:59,2,63.3333316421509,10|8|8,0:1|0:3|0:3,0:0:0:0:
105,178,93805,6,0,P|83:119|111:47,1,126.666663284302,10|8,0:1|0:3,0:0:0:0:
175,234,94209,2,0,P|112:223|64:163,1,126.666663284302,10|8,0:1|0:3,0:0:0:0:
259,199,94613,2,0,P|218:247|142:259,1,126.666663284302,10|8,0:1|0:3,0:0:0:0:
33,368,95017,2,0,B|25:338|25:338|34:293,2,63.3333316421509,8|8|8,0:1|0:3|0:3,0:0:0:0:
158,261,95421,6,0,B|164:297|164:297|158:340,2,73.3333355712891,10|8|8,0:1|0:3|0:3,0:0:0:0:
62,74,95825,2,0,B|27:61|27:61|-6:34,2,73.3333355712891,10|8|8,0:1|0:3|0:3,0:0:0:0:
272,82,96229,2,0,B|300:58|300:58|340:42,1,73.3333355712891,10|8,0:1|0:3,0:0:0:0:
434,39,96498,1,8,0:3:0:0:
469,252,96633,2,0,L|480:168,1,73.3333355712891,10|8,0:1|0:3,0:0:0:0:
408,112,96902,1,8,0:3:0:0:
311,257,97037,6,0,L|321:339,2,73.3333355712891,10|8|8,0:1|0:3|0:3,0:0:0:0:
60,189,97441,2,0,L|68:116,2,73.3333355712891,10|8|8,0:1|0:3|0:3,0:0:0:0:
289,58,97845,2,0,L|299:140,2,73.3333355712891,10|8|8,0:1|0:3|0:3,0:0:0:0:
309,19,98249,2,0,L|317:91,2,73.3333355712891,8|8|8,0:1|0:3|0:3,0:0:0:0:
173,126,98653,5,10,0:1:0:0:
193,112,98788,1,8,0:3:0:0:
194,137,98923,1,8,0:3:0:0:
136,105,99057,1,10,0:1:0:0:
235,85,99192,1,8,0:3:0:0:
199,181,99327,1,8,0:3:0:0:
174,27,99461,1,10,0:1:0:0:
109,182,99596,1,8,0:3:0:0:
286,156,99731,1,8,0:3:0:0:
59,79,99865,1,10,0:1:0:0:
290,37,100000,1,8,0:3:0:0:
214,265,100135,1,8,0:3:0:0:
194,137,100269,1,10,0:3:0:0:
230,194,101077,5,8,0:2:0:0:
393,159,101212,1,8,0:2:0:0:
230,194,101347,1,8,0:2:0:0:
310,108,101481,5,8,0:2:0:0:
327,244,101616,1,0,0:0:0:0:
310,108,101751,1,0,0:0:0:0:
169,246,101886,6,0,P|121:240|93:215,1,79.9999975585938,8|0,0:1|0:0,0:0:0:0:
19,76,102155,1,0,0:0:0:0:
19,76,102290,1,8,0:1:0:0:
19,76,102424,1,0,0:0:0:0:
19,76,102559,1,0,0:0:0:0:
169,246,102694,6,0,P|124:227|103:196,1,79.9999975585938,8|0,0:1|0:0,0:0:0:0:
68,42,102963,1,0,0:0:0:0:
68,42,103098,1,8,0:1:0:0:
68,42,103232,1,0,0:0:0:0:
68,42,103367,1,0,0:0:0:0:
169,246,103502,6,0,P|130:216|118:181,1,79.9999975585938,8|0,0:1|0:0,0:0:0:0:
124,23,103771,1,0,0:0:0:0:
124,23,103906,1,8,0:1:0:0:
124,23,104040,1,0,0:0:0:0:
124,23,104175,1,0,0:0:0:0:
169,246,104310,6,0,L|161:329,2,79.9999975585938,8|0|0,0:1|0:0|0:0,0:0:0:0:
254,90,104714,2,0,L|274:274,1,159.999995117188,8|0,0:2|0:0,0:0:0:0:
440,341,105118,6,0,P|487:336|516:310,1,79.9999975585938,8|0,0:1|0:0,0:0:0:0:
263,276,105387,1,0,0:0:0:0:
454,259,105522,2,0,P|492:231|504:194,1,79.9999975585938,8|0,0:1|0:0,0:0:0:0:
256,299,105791,1,0,0:0:0:0:
425,183,105926,2,0,P|444:139|436:101,1,79.9999975585938,8|0,0:1|0:0,0:0:0:0:
284,10,106195,1,0,0:0:0:0:
284,10,106330,1,8,0:1:0:0:
284,10,106465,1,0,0:0:0:0:
284,10,106599,1,0,0:0:0:0:
194,154,106734,6,0,L|202:242,1,79.9999975585938,8|0,0:1|0:0,0:0:0:0:
268,10,107003,1,0,0:0:0:0:
181,155,107138,2,0,L|189:243,1,79.9999975585938,8|0,0:1|0:0,0:0:0:0:
250,12,107407,1,0,0:0:0:0:
98,309,107542,5,8,0:2:0:0:
85,165,107677,1,8,0:3:0:0:
73,20,107811,1,8,0:3:0:0:
77,264,107946,5,8,0:2:0:0:
71,166,108081,1,8,0:3:0:0:
61,70,108215,1,8,0:3:0:0:
98,309,108350,6,0,L|181:299,1,79.9999975585938,8|0,0:1|0:0,0:0:0:0:
266,357,108620,1,0,0:0:0:0:
365,177,108754,1,8,0:2:0:0:
419,242,108889,1,0,0:0:0:0:
449,163,109024,1,0,0:0:0:0:
88,302,109158,6,0,L|179:291,1,79.9999975585938,8|0,0:1|0:0,0:0:0:0:
267,365,109428,1,0,0:0:0:0:
365,177,109562,1,8,0:2:0:0:
425,248,109697,1,0,0:0:0:0:
458,161,109832,1,0,0:0:0:0:
79,293,109966,6,0,L|177:281,1,79.9999975585938,8|0,0:1|0:0,0:0:0:0:
268,374,110236,1,0,0:0:0:0:
365,177,110370,1,8,0:2:0:0:
429,255,110505,1,0,0:0:0:0:
465,160,110640,1,0,0:0:0:0:
449,361,110774,6,0,L|357:351,2,79.9999975585938,8|0|0,0:1|0:0|0:0,0:0:0:0:
79,293,111178,2,0,B|147:284|147:284|176:293|176:293|252:287,1,159.999995117188,8|0,0:2|0:0,0:0:0:0:
448,188,111582,6,0,L|363:179,1,79.9999975585938,8|0,0:1|0:0,0:0:0:0:
256,81,111852,1,0,0:0:0:0:
64,188,111987,2,0,L|149:179,1,79.9999975585938,8|0,0:2|0:0,0:0:0:0:
256,81,112256,1,0,0:0:0:0:
449,209,112391,2,0,L|364:200,1,79.9999975585938,8|0,0:1|0:0,0:0:0:0:
256,69,112660,1,0,0:0:0:0:
63,209,112795,1,8,0:2:0:0:
63,209,112929,1,0,0:0:0:0:
63,209,113064,1,0,0:0:0:0:
137,20,113199,6,0,L|147:111,1,79.9999975585938,8|0,0:1|0:0,0:0:0:0:
256,234,113468,1,0,0:0:0:0:
375,20,113603,2,0,L|365:111,1,79.9999975585938,8|0,0:2|0:0,0:0:0:0:
256,234,113872,1,0,0:0:0:0:
143,179,114007,5,8,0:2:0:0:
256,40,114141,1,8,0:3:0:0:
369,179,114276,1,8,0:3:0:0:
167,181,114411,5,8,0:2:0:0:
256,95,114545,1,8,0:3:0:0:
344,181,114680,1,8,0:3:0:0:
256,327,114815,5,8,0:1:0:0:
256,327,114949,1,0,0:0:0:0:
202,161,115084,1,8,0:3:0:0:
343,263,115219,1,8,0:2:0:0:
167,263,115354,1,0,0:0:0:0:
309,161,115488,1,8,0:3:0:0:
256,327,115623,5,8,0:1:0:0:
256,327,115758,1,0,0:0:0:0:
196,144,115892,1,8,0:3:0:0:
351,257,116027,1,8,0:2:0:0:
158,255,116162,1,0,0:0:0:0:
314,144,116296,1,8,0:3:0:0:
256,327,116431,5,8,0:1:0:0:
256,327,116566,1,0,0:0:0:0:
190,127,116700,1,8,0:3:0:0:
360,250,116835,1,8,0:2:0:0:
149,249,116970,1,0,0:0:0:0:
320,127,117104,1,8,0:3:0:0:
256,327,117239,1,8,0:1:0:0:
256,327,117374,1,0,0:0:0:0:
256,327,117508,1,8,0:3:0:0:
254,133,117643,6,0,B|235:168|252:206|252:206|269:246|253:299,1,159.999995117188,8|8,0:2|0:3,0:0:0:0:
122,200,118047,5,8,0:1:0:0:
122,200,118182,1,0,0:0:0:0:
256,327,118316,1,8,0:3:0:0:
254,133,118451,5,8,0:2:0:0:
254,133,118586,1,0,0:0:0:0:
256,327,118721,1,8,0:3:0:0:
390,200,118855,5,8,0:1:0:0:
390,200,118990,1,0,0:0:0:0:
454,94,119125,5,8,0:3:0:0:
340,35,119259,1,8,0:2:0:0:
254,133,119394,1,0,0:0:0:0:
172,35,119529,1,8,0:3:0:0:
58,94,119663,6,0,L|67:180,1,79.9999975585938,8|0,0:1|0:0,0:0:0:0:
153,255,119933,1,8,0:3:0:0:
454,94,120067,6,0,L|445:180,1,79.9999975585938,8|0,0:2|0:0,0:0:0:0:
359,255,120337,1,8,0:3:0:0:
142,179,120471,5,8,0:2:0:0:
256,41,120606,1,8,0:3:0:0:
370,179,120741,1,8,0:3:0:0:
185,255,120875,5,8,0:2:0:0:
256,352,121010,1,8,0:3:0:0:
327,255,121145,1,8,0:3:0:0:
122,192,121279,5,8,0:1:0:0:
122,192,121414,1,0,0:0:0:0:
217,61,121549,1,8,0:3:0:0:
369,111,121683,1,8,0:2:0:0:
369,272,121818,1,0,0:0:0:0:
217,322,121953,1,8,0:3:0:0:
122,192,122088,5,8,0:1:0:0:
122,192,122222,1,0,0:0:0:0:
225,49,122357,1,8,0:3:0:0:
391,103,122492,1,8,0:2:0:0:
391,279,122626,1,0,0:0:0:0:
225,333,122761,1,8,0:3:0:0:
122,192,122896,5,8,0:1:0:0:
122,192,123030,1,0,0:0:0:0:
235,34,123165,1,8,0:3:0:0:
418,94,123300,1,8,0:2:0:0:
418,287,123434,1,0,0:0:0:0:
235,347,123569,1,8,0:3:0:0:
122,192,123704,1,8,0:1:0:0:
122,192,123838,1,0,0:0:0:0:
122,192,123973,1,8,0:3:0:0:
286,122,124108,6,0,P|314:192|279:277,1,159.999995117188,8|8,0:2|0:3,0:0:0:0:
224,80,124512,6,0,P|252:54|295:48,1,79.9999975585938,8|0,0:1|0:0,0:0:0:0:
395,77,124781,1,8,0:3:0:0:
281,339,124916,6,0,P|244:327|217:293,1,79.9999975585938,8|0,0:2|0:0,0:0:0:0:
192,192,125185,1,8,0:3:0:0:
472,168,125320,6,0,P|480:205|464:245,1,79.9999975585938,8|0,0:1|0:0,0:0:0:0:
391,310,125589,1,8,0:3:0:0:
290,153,125724,1,8,0:2:0:0:
281,339,125859,1,0,0:0:0:0:
401,199,125993,5,8,0:3:0:0:
218,242,126128,2,0,P|191:236|218:239,1,79.9999975585938,8|8,0:1|0:3,0:0:0:0:
480,271,126397,2,0,P|507:266|480:273,1,79.9999975585938,8|8,0:1|0:2,0:0:0:0:
191,336,126667,2,0,P|171:356|192:338,1,79.9999975585938,8|8,0:1|0:3,0:0:0:0:
401,199,126936,5,8,0:1:0:0:
216,236,127071,1,8,0:1:0:0:
401,199,127205,1,8,0:1:0:0:
328,319,127340,5,8,0:1:0:0:
308,138,127475,1,8,0:1:0:0:
328,319,127609,1,8,0:1:0:0:
175,72,127744,6,0,B|148:83|109:63|109:63|99:93|69:104|69:104|26:114|41:167,1,186.666660970052,10|8,0:1|0:3,0:0:0:0:
126,362,128148,1,10,0:2:0:0:
142,149,128283,1,2,0:2:0:0:
6,329,128418,1,10,0:3:0:0:
239,360,128552,6,0,P|291:282|240:187,1,186.666660970052,10|10,0:1|0:3,0:0:0:0:
39,101,128956,1,10,0:2:0:0:
206,273,129091,1,2,0:2:0:0:
279,47,129226,1,10,0:3:0:0:
39,101,129360,6,0,P|6:199|64:258,1,186.666660970052,10|8,0:1|0:3,0:0:0:0:
187,58,129764,1,10,0:2:0:0:
206,273,129899,1,2,0:2:0:0:
279,47,130034,1,10,0:3:0:0:
294,267,130168,6,0,P|380:267|431:181,1,186.666660970052,10|8,0:1|0:3,0:0:0:0:
142,117,130572,2,0,L|152:303,1,186.666660970052,8|8,0:2|0:3,0:0:0:0:
448,327,130976,6,0,L|465:141,1,186.666660970052,10|8,0:1|0:3,0:0:0:0:
258,23,131380,2,0,P|219:17|165:40,1,93.3333304850261,10|0,0:2|0:0,0:0:0:0:
17,190,131650,1,10,0:3:0:0:
221,268,131785,6,0,P|259:183|216:97,1,186.666660970052,10|8,0:1|0:3,0:0:0:0:
227,345,132189,1,10,0:2:0:0:
348,139,132323,1,2,0:2:0:0:
120,154,132458,1,10,0:3:0:0:
341,225,132593,6,0,P|397:216|426:184,1,93.3333304850261,10|0,0:1|0:0,0:0:0:0:
294,5,132862,1,10,0:3:0:0:
120,154,132997,2,0,B|89:189|116:241|116:241|137:281|112:332,1,186.666660970052,10|10,0:2|0:3,0:0:0:0:
199,110,133401,6,0,P|137:64|44:104,1,186.666660970052,10|8,0:1|0:3,0:0:0:0:
239,247,133805,1,10,0:2:0:0:
9,302,133939,1,2,0:2:0:0:
239,247,134074,1,10,0:3:0:0:
9,302,134209,6,0,B|66:309|98:288|98:288|139:312|139:312|200:307,1,186.666660970052,10|8,0:1|0:3,0:0:0:0:
380,157,134613,1,10,0:2:0:0:
164,232,134747,1,2,0:2:0:0:
335,379,134882,1,10,0:3:0:0:
460,185,135017,6,0,P|442:97|344:77,1,186.666660970052,10|10,0:1|0:3,0:0:0:0:
141,157,135421,1,10,0:2:0:0:
380,157,135556,1,2,0:2:0:0:
202,3,135690,1,10,0:3:0:0:
164,232,135825,6,0,P|254:258|318:194,1,186.666660970052,10|8,0:1|0:3,0:0:0:0:
90,130,136229,1,10,0:2:0:0:
189,344,136364,1,2,0:2:0:0:
249,121,136498,1,10,0:3:0:0:
24,192,136633,6,0,P|9:286|69:347,1,186.666660970052,10|8,0:1|0:3,0:0:0:0:
324,323,137037,2,0,L|339:128,1,186.666660970052,8|8,0:2|0:3,0:0:0:0:
111,23,137441,6,0,L|125:120,1,93.3333304850261,10|0,0:1|0:0,0:0:0:0:
24,192,137710,1,8,0:3:0:0:
171,364,137845,6,0,L|185:267,1,93.3333304850261,10|0,0:2|0:0,0:0:0:0:
269,196,138114,1,10,0:3:0:0:
440,33,138249,6,0,B|451:106|451:106|441:134|441:134|453:230,1,186.666660970052,10|8,0:1|0:3,0:0:0:0:
351,339,138653,1,10,0:2:0:0:
362,118,138788,1,2,0:2:0:0:
456,313,138923,1,10,0:3:0:0:
282,174,139057,6,0,L|265:366,1,186.666660970052,10|10,0:1|0:3,0:0:0:0:
174,192,139461,2,0,L|190:377,1,186.666660970052,10|10,0:2|0:3,0:0:0:0:
3,200,139865,5,10,0:1:0:0:
282,174,140000,1,8,0:3:0:0:
45,139,140135,1,8,0:3:0:0:
240,238,140269,1,10,0:2:0:0:
80,204,140404,1,2,0:2:0:0:
202,173,140539,1,10,0:3:0:0:
256,192,140673,12,0,142290,0:0:0:0:
