osu file format v14

[General]
AudioFilename: audio.mp3
AudioLeadIn: 0
PreviewTime: 108215
Countdown: 0
SampleSet: Soft
StackLeniency: 0.7
Mode: 0
LetterboxInBreaks: 0
WidescreenStoryboard: 1

[Editor]
DistanceSpacing: 1
BeatDivisor: 3
GridSize: 32
TimelineZoom: 1

[Metadata]
Title:Thunder (Nightcore Mix)
TitleUnicode:Thunder (Nightcore Mix)
Artist:Gabry Ponte, LUM!X, Prezioso
ArtistUnicode:Gabry Ponte, LUM!X, Prezioso
Creator:P A N
Version:Normal
Source:
Tags:Simple- english en electronic dance music edm nightcore nc trance techno p_a_n
BeatmapID:3582688
BeatmapSetID:1749750

[Difficulty]
HPDrainRate:2
CircleSize:3
OverallDifficulty:4
ApproachRate:6
SliderMultiplier:1.3
SliderTickRate:1

[Events]
//Background and Video events
0,0,"naNBYvd.jpeg",0,0
//Break Periods
2,69562,74694
//Storyboard Layer 0 (Background)
//Storyboard Layer 1 (Fail)
//Storyboard Layer 2 (Pass)
//Storyboard Layer 3 (Foreground)
//Storyboard Layer 4 (Overlay)
//Storyboard Sound Samples

[TimingPoints]
1684,404.040404040404,4,2,1,40,1,0
1684,-100,4,2,1,40,0,0
14613,-100,4,2,1,50,0,0
21077,-100,4,2,1,60,0,0
27542,-100,4,2,1,70,0,0
40471,-90.9090909090909,4,2,1,80,0,1
46128,-90.9090909090909,4,2,1,80,0,0
46936,-90.9090909090909,4,2,1,80,0,1
51785,-90.9090909090909,4,2,1,80,0,0
53401,-90.9090909090909,4,2,1,80,0,1
66330,-100,4,2,1,60,0,0
69562,404.040404040404,4,2,1,40,1,0
75487,-100,4,2,1,50,0,0
88955,-100,4,2,1,60,0,0
101885,-100,4,2,1,70,0,0
114814,-90.9090909090909,4,2,1,80,0,1
120471,-90.9090909090909,4,2,1,80,0,0
121279,-90.9090909090909,4,2,1,80,0,1
126127,-90.9090909090909,4,2,1,80,0,0
127743,-90.9090909090909,4,2,1,80,0,1
140673,-90.9090909090909,4,2,1,40,0,0
142289,-90.9090909090909,4,2,1,5,0,0

[Colours]
Combo1 : 96,96,96
Combo2 : 255,255,111
Combo3 : 255,91,255
Combo4 : 128,255,255

[HitObjects]
115,120,1684,5,8,0:1:0:0:
136,221,2088,2,0,L|130:271,2,43.3333333333333
171,195,2492,1,2,0:2:0:0:
231,80,2896,2,0,L|225:30,2,43.3333333333333
266,106,3300,5,2,0:2:0:0:
313,227,3704,2,0,L|307:277,2,43.3333333333333
349,202,4108,2,0,P|371:155|347:69,1,130,2|0,0:2|0:0,0:0:0:0:
246,11,4916,5,2,0:2:0:0:
123,29,5320,1,2,0:2:0:0:
42,130,5724,1,2,0:2:0:0:
19,258,6128,2,0,L|31:357,1,86.6666666666667,2|0,0:2|0:0,0:0:0:0:
66,366,6532,6,0,P|103:373|147:354,1,86.6666666666667,2|0,0:2|0:0,0:0:0:0:
181,328,6936,1,0,0:0:0:0:
216,202,7340,1,2,0:2:0:0:
216,202,7744,1,2,0:2:0:0:
336,254,8148,5,2,0:2:0:0:
408,133,8552,2,0,L|453:144,2,43.3333333333333
367,148,8956,1,2,0:2:0:0:
261,71,9360,2,0,L|261:21,2,43.3333333333333
261,114,9764,5,2,0:2:0:0:
132,130,10168,2,0,L|87:141,2,43.3333333333333
160,162,10572,2,0,B|176:187|176:187|168:291,1,130,2|0,0:2|0:0,0:0:0:0:
263,375,11380,5,2,0:2:0:0:
392,361,11785,1,2,0:2:0:0:
452,246,12189,1,2,0:2:0:0:
435,116,12593,2,0,L|423:24,1,86.6666666666667,2|0,0:2|0:0,0:0:0:0:
382,20,12997,6,0,P|337:13|294:32,1,86.6666666666667,2|0,0:2|0:0,0:0:0:0:
275,64,13401,1,0,0:0:0:0:
364,166,13805,1,2,0:2:0:0:
364,166,14209,1,2,0:2:0:0:
296,277,14613,5,10,0:2:0:0:
80,293,15286,1,0,0:0:0:0:
80,293,15421,2,0,L|89:198,1,86.6666666666667,2|0,0:2|0:0,0:0:0:0:
114,171,15825,2,0,L|123:76,1,86.6666666666667,2|0,0:2|0:0,0:0:0:0:
148,50,16229,5,8,0:2:0:0:
368,54,16902,1,0,0:0:0:0:
368,54,17037,2,0,L|377:149,1,86.6666666666667,2|0,0:2|0:0,0:0:0:0:
408,169,17441,2,0,L|417:264,1,86.6666666666667,2|0,0:2|0:0,0:0:0:0:
438,292,17845,5,8,0:2:0:0:
244,380,18519,1,0,0:0:0:0:
244,380,18653,2,0,P|194:370|165:342,1,86.6666666666667,2|0,0:2|0:0,0:0:0:0:
142,311,19057,1,2,0:2:0:0:
148,228,19327,1,0,0:0:0:0:
148,228,19461,6,0,L|237:234,1,86.6666666666667,10|0,0:2|0:0,0:0:0:0:
271,211,19865,1,2,0:2:0:0:
330,281,20135,1,0,0:0:0:0:
330,281,20269,2,0,L|420:277,1,86.6666666666667,10|0,0:2|0:0,0:0:0:0:
455,257,20673,2,0,P|466:216|460:172,1,86.6666666666667,10|0,0:2|0:0,0:0:0:0:
453,129,21077,5,10,0:2:0:0:
273,16,21751,1,0,0:0:0:0:
273,16,21886,2,0,B|259:47|259:47|265:114,1,86.6666666666667,2|0,0:2|0:0,0:0:0:0:
284,137,22290,2,0,B|298:168|298:168|292:235,1,86.6666666666667,2|0,0:2|0:0,0:0:0:0:
291,263,22694,5,8,0:2:0:0:
108,377,23367,1,0,0:0:0:0:
108,377,23502,2,0,P|83:340|80:293,1,86.6666666666667,2|0,0:2|0:0,0:0:0:0:
39,282,23906,2,0,P|29:243|42:185,1,86.6666666666667,2|0,0:2|0:0,0:0:0:0:
51,157,24310,5,8,0:2:0:0:
227,29,24983,1,0,0:0:0:0:
227,29,25118,2,0,L|319:34,1,86.6666666666667,2|0,0:2|0:0,0:0:0:0:
356,34,25522,1,2,0:2:0:0:
453,119,25926,1,10,0:1:0:0:
357,363,26734,5,8,0:2:0:0:
357,363,27138,1,8,0:2:0:0:
273,263,27542,5,8,0:1:0:0:
165,336,27946,2,0,L|134:364,2,43.3333333333333,8|0|0,0:1|0:0|0:0,0:0:0:0:
173,293,28350,2,0,P|168:243|190:205,1,86.6666666666667,8|0,0:1|0:0,0:0:0:0:
203,172,28754,2,0,L|252:177,2,43.3333333333333,8|0|0,0:1|0:0|0:0,0:0:0:0:
187,131,29158,5,8,0:1:0:0:
58,152,29562,2,0,L|52:194,2,43.3333333333333,8|0|0,0:1|0:0|0:0,0:0:0:0:
25,124,29966,2,0,P|13:85|36:25,1,86.6666666666667,8|0,0:1|0:0,0:0:0:0:
50,7,30370,1,8,0:2:0:0:
175,7,30774,6,0,P|222:6|264:36,1,86.6666666666667,8|0,0:1|0:0,0:0:0:0:
281,60,31178,2,0,P|324:65|364:46,1,86.6666666666667,8|0,0:1|0:0,0:0:0:0:
386,11,31582,1,8,0:1:0:0:
493,84,31987,2,0,B|487:135,1,43.3333333333333,8|0,0:1|0:0,0:0:0:0:
469,168,32256,1,0,0:0:0:0:
469,168,32391,6,0,L|481:267,1,86.6666666666667,8|0,0:1|0:0,0:0:0:0:
506,288,32795,1,8,0:1:0:0:
404,369,33199,1,8,0:2:0:0:
364,245,33603,1,8,0:2:0:0:
262,326,34007,5,8,0:1:0:0:
244,197,34411,2,0,P|219:146|162:175,1,130,8|8,0:2|0:1,0:0:0:0:
33,163,35219,2,0,P|1:207|52:242,1,130,8|8,0:2|0:1,0:0:0:0:
105,361,36027,2,0,P|158:364|162:301,1,130,8|8,0:2|0:1,0:0:0:0:
185,172,36835,1,8,0:2:0:0:
296,240,37239,6,0,P|353:232|378:202,1,86.6666666666667,8|0,0:1|0:0,0:0:0:0:
370,169,37643,2,0,P|405:144|449:144,1,86.6666666666667,8|0,0:2|0:0,0:0:0:0:
489,152,38047,1,8,0:1:0:0:
454,277,38451,2,0,L|459:326,1,43.3333333333333,8|0,0:2|0:0,0:0:0:0:
448,365,38721,1,0,0:0:0:0:
448,365,38855,5,8,0:1:0:0:
319,346,39259,1,8,0:2:0:0:
190,326,39663,1,8,0:2:0:0:
63,298,40067,1,8,0:2:0:0:
184,221,40471,5,8,0:1:0:0:
306,148,40875,2,0,P|321:181|316:247,1,95.3333362426759,8|8,0:2|0:3,0:0:0:0:
303,284,41279,1,8,0:1:0:0:
224,334,41549,1,8,0:3:0:0:
224,334,41684,2,0,P|187:330|133:293,1,95.3333362426759,8|8,0:2|0:3,0:0:0:0:
117,256,42088,5,8,0:1:0:0:
121,164,42357,1,8,0:3:0:0:
121,164,42492,2,0,P|141:140|200:113,1,95.3333362426759,8|8,0:2|0:3,0:0:0:0:
245,114,42896,1,8,0:1:0:0:
342,9,43300,1,8,0:2:0:0:
426,124,43704,6,0,L|421:223,1,95.3333362426759,8|8,0:1|0:3,0:0:0:0:
440,262,44108,2,0,P|385:283|343:275,1,95.3333362426759,8|8,0:2|0:3,0:0:0:0:
308,254,44512,1,8,0:1:0:0:
235,130,44916,2,0,L|172:132,1,47.6666681213379,8|0,0:2|0:0,0:0:0:0:
149,113,45185,1,8,0:3:0:0:
149,113,45320,6,0,P|103:135|78:193,1,95.3333362426759,8|8,0:1|0:3,0:0:0:0:
63,216,45724,1,8,0:2:0:0:
45,357,46128,1,8,0:2:0:0:
186,375,46532,1,8,0:2:0:0:
205,233,46936,5,8,0:1:0:0:
313,326,47340,2,0,P|349:347|410:348,1,95.3333362426759,8|8,0:2|0:3,0:0:0:0:
447,335,47744,1,8,0:1:0:0:
508,263,48013,1,8,0:3:0:0:
508,263,48148,2,0,P|508:221|478:167,1,95.3333362426759,8|8,0:2|0:3,0:0:0:0:
452,138,48552,5,8,0:1:0:0:
361,130,48822,1,8,0:3:0:0:
361,130,48956,2,0,P|324:150|293:203,1,95.3333362426759,8|8,0:2|0:3,0:0:0:0:
281,241,49360,1,8,0:1:0:0:
203,120,49764,1,8,0:2:0:0:
116,233,50168,6,0,P|72:225|29:190,1,95.3333362426759,8|8,0:1|0:3,0:0:0:0:
2,157,50572,2,0,L|10:266,1,95.3333362426759,8|8,0:2|0:3,0:0:0:0:
1,299,50976,1,8,0:1:0:0:
141,319,51380,2,0,L|199:322,1,47.6666681213379,8|0,0:2|0:0,0:0:0:0:
230,296,51650,1,8,0:3:0:0:
230,296,51785,5,8,0:1:0:0:
349,374,52189,1,8,0:2:0:0:
430,256,52593,1,8,0:3:0:0:
311,175,52997,1,8,0:2:0:0:
320,30,53401,6,0,P|352:8|421:16,1,95.3333362426759,10|8,0:1|0:3,0:0:0:0:
450,28,53805,2,0,L|448:88,1,47.6666681213379,10|2,0:2|0:2,0:0:0:0:
440,125,54074,1,10,0:3:0:0:
440,125,54209,2,0,B|428:167|428:167|438:231,1,95.3333362426759,10|10,0:1|0:3,0:0:0:0:
461,258,54613,2,0,L|518:254,2,47.6666681213379,10|2|10,0:2|0:2|0:3,0:0:0:0:
434,297,55017,5,10,0:1:0:0:
297,338,55421,2,0,L|254:361,2,47.6666681213379,10|2|10,0:2|0:2|0:3,0:0:0:0:
314,293,55825,2,0,P|298:244|308:194,1,95.3333362426759,10|8,0:1|0:3,0:0:0:0:
326,159,56229,1,8,0:2:0:0:
404,39,56633,5,10,0:1:0:0:
258,15,57037,2,0,L|156:21,1,95.3333362426759,10|10,0:2|0:3,0:0:0:0:
126,51,57441,1,10,0:1:0:0:
45,169,57845,2,0,L|-4:156,2,47.6666681213379,10|2|10,0:2|0:2|0:3,0:0:0:0:
63,213,58249,6,0,P|108:236|152:231,1,95.3333362426759,10|10,0:1|0:3,0:0:0:0:
183,195,58653,2,0,P|226:169|278:170,1,95.3333362426759,10|10,0:2|0:3,0:0:0:0:
316,178,59057,1,10,0:1:0:0:
415,280,59461,2,0,L|464:275,2,47.6666681213379,10|2|10,0:2|0:2|0:3,0:0:0:0:
389,320,59865,6,0,P|357:360|290:363,1,95.3333362426759,10|8,0:1|0:3,0:0:0:0:
273,347,60269,2,0,L|209:352,1,47.6666681213379,10|2,0:2|0:2,0:0:0:0:
180,368,60539,1,10,0:3:0:0:
180,368,60673,2,0,B|160:344|160:344|152:267,1,95.3333362426759,10|10,0:1|0:3,0:0:0:0:
133,236,61077,2,0,P|106:243|80:241,2,47.6666681213379,10|2|10,0:2|0:2|0:3,0:0:0:0:
153,192,61481,5,10,0:1:0:0:
115,53,61886,2,0,L|81:15,2,47.6666681213379,10|2|10,0:2|0:2|0:3,0:0:0:0:
158,73,62290,2,0,P|205:81|254:61,1,95.3333362426759,10|8,0:1|0:3,0:0:0:0:
281,30,62694,1,8,0:2:0:0:
413,94,63098,6,0,L|407:199,1,95.3333362426759,10|8,0:1|0:3,0:0:0:0:
373,222,63502,2,0,L|386:327,1,95.3333362426759,10|10,0:2|0:3,0:0:0:0:
362,358,63906,1,10,0:1:0:0:
219,363,64310,2,0,L|170:374,2,47.6666681213379,10|2|10,0:2|0:2|0:3,0:0:0:0:
232,326,64714,6,0,P|245:278|232:225,1,95.3333362426759,10|10,0:1|0:3,0:0:0:0:
217,201,65118,1,10,0:2:0:0:
168,66,65522,2,0,B|215:53|215:53|275:70,1,95.3333362426759,10|8,0:1|0:3,0:0:0:0:
297,94,65926,2,0,L|288:150,2,47.6666681213379,10|2|10,0:2|0:2|0:3,0:0:0:0:
339,84,66330,1,8,0:3:0:0:
170,293,76027,5,10,0:3:0:0:
152,190,76431,1,10,0:3:0:0:
233,124,76835,2,0,P|277:120|324:143,1,86.6666666666667,10|0,0:3|0:0,0:0:0:0:
349,130,77239,2,0,L|346:230,1,86.6666666666667,10|0,0:3|0:0,0:0:0:0:
359,248,77643,5,10,0:3:0:0:
304,336,78047,2,0,P|264:344|211:323,1,86.6666666666667,10|0,0:3|0:0,0:0:0:0:
193,309,78451,1,8,0:2:0:0:
72,139,79259,5,10,0:3:0:0:
121,47,79663,1,10,0:3:0:0:
191,123,80067,2,0,L|283:110,1,86.6666666666667,10|0,0:3|0:0,0:0:0:0:
302,87,80471,2,0,L|400:96,1,86.6666666666667,10|0,0:3|0:0,0:0:0:0:
418,78,80875,5,10,0:3:0:0:
464,170,81279,2,0,P|472:214|458:265,1,86.6666666666667,10|8,0:3|0:3,0:0:0:0:
451,287,81684,1,8,0:3:0:0:
393,352,81953,1,8,0:3:0:0:
393,352,82088,2,0,P|347:365|289:347,1,86.6666666666667,10|8,0:3|0:3,0:0:0:0:
269,341,82492,5,10,0:3:0:0:
226,218,82896,1,10,0:3:0:0:
107,271,83300,2,0,P|94:227|106:174,1,86.6666666666667,10|0,0:3|0:0,0:0:0:0:
129,155,83704,2,0,L|221:161,1,86.6666666666667,10|0,0:3|0:0,0:0:0:0:
253,139,84108,5,10,0:3:0:0:
300,259,84512,2,0,L|392:250,1,86.6666666666667,10|0,0:3|0:0,0:0:0:0:
423,229,84916,1,8,0:2:0:0:
324,6,85724,5,10,0:3:0:0:
287,130,86128,1,10,0:3:0:0:
195,38,86532,2,0,P|151:26|104:37,1,86.6666666666667,10|0,0:3|0:0,0:0:0:0:
69,21,86936,2,0,P|27:40|-2:78,1,86.6666666666667,10|0,0:3|0:0,0:0:0:0:
1,114,87340,5,10,0:3:0:0:
123,157,87744,1,10,0:3:0:0:
72,276,88148,2,0,B|98:293|98:293|176:289,1,86.6666666666667,8|8,0:3|0:3,0:0:0:0:
192,270,88552,2,0,B|218:253|218:253|296:257,1,86.6666666666667,8|8,0:3|0:3,0:0:0:0:
308,281,88956,5,10,0:1:0:0:
437,286,89360,1,10,0:1:0:0:
448,158,89764,2,0,P|446:113|416:70,1,86.6666666666667,10|8,0:1|0:3,0:0:0:0:
392,49,90168,2,0,L|294:68,1,86.6666666666667,10|8,0:1|0:3,0:0:0:0:
268,45,90572,5,10,0:1:0:0:
184,145,90976,1,10,0:1:0:0:
285,226,91380,2,0,P|297:288|247:332,1,130,10|8,0:1|0:1,0:0:0:0:
133,379,92189,5,10,0:1:0:0:
31,298,92593,1,10,0:1:0:0:
78,176,92997,2,0,L|85:74,1,86.6666666666667,10|8,0:1|0:3,0:0:0:0:
53,58,93401,2,0,P|97:66|146:50,1,86.6666666666667,10|8,0:1|0:3,0:0:0:0:
169,26,93805,5,10,0:1:0:0:
224,143,94209,1,10,0:1:0:0:
333,67,94613,2,0,L|325:165,1,86.6666666666667,10|8,0:1|0:3,0:0:0:0:
292,181,95017,2,0,L|301:285,1,86.6666666666667,8|8,0:1|0:3,0:0:0:0:
285,308,95421,5,10,0:1:0:0:
397,373,95825,1,10,0:1:0:0:
469,265,96229,2,0,P|481:223|471:169,1,86.6666666666667,10|8,0:1|0:3,0:0:0:0:
454,143,96633,2,0,L|362:147,1,86.6666666666667,10|8,0:1|0:3,0:0:0:0:
326,131,97037,5,10,0:1:0:0:
286,254,97441,1,10,0:1:0:0:
163,291,97845,2,0,P|120:242|128:160,1,130,10|8,0:1|0:1,0:0:0:0:
147,53,98653,5,10,0:1:0:0:
272,18,99057,1,10,0:1:0:0:
357,115,99461,2,0,B|389:141|389:141|419:200,1,86.6666666666667,10|8,0:1|0:3,0:0:0:0:
436,215,99865,2,0,P|411:250|362:273,1,86.6666666666667,10|8,0:1|0:3,0:0:0:0:
333,287,100269,5,10,0:3:0:0:
80,330,101077,1,8,0:2:0:0:
80,330,101481,1,8,0:2:0:0:
65,200,101886,5,8,0:1:0:0:
154,106,102290,2,0,L|123:74,2,43.3333333333333,8|0|0,0:1|0:0|0:0,0:0:0:0:
160,148,102694,2,0,L|218:214,1,86.6666666666667,8|0,0:1|0:0,0:0:0:0:
256,232,103098,2,0,L|257:278,2,43.3333333333333,8|0|0,0:1|0:0|0:0,0:0:0:0:
295,214,103502,5,8,0:1:0:0:
366,108,103906,2,0,L|335:71,2,43.3333333333333,8|0|0,0:1|0:0|0:0,0:0:0:0:
408,97,104310,2,0,L|484:176,1,86.6666666666667,8|0,0:1|0:0,0:0:0:0:
503,184,104714,1,8,0:2:0:0:
415,280,105118,6,0,L|343:327,1,86.6666666666667,8|0,0:1|0:0,0:0:0:0:
299,330,105522,2,0,L|227:377,1,86.6666666666667,8|0,0:1|0:0,0:0:0:0:
183,380,105926,1,8,0:1:0:0:
61,333,106330,2,0,L|16:293,1,43.3333333333333,8|0,0:1|0:0,0:0:0:0:
20,266,106599,1,0,0:0:0:0:
20,266,106734,6,0,L|72:182,1,86.6666666666667,8|0,0:1|0:0,0:0:0:0:
59,149,107138,1,8,0:1:0:0:
120,34,107542,1,8,0:2:0:0:
204,132,107946,1,8,0:2:0:0:
295,223,108350,5,8,0:1:0:0:
384,317,108754,2,0,B|426:369|426:369|507:342,1,130,8|8,0:2|0:1,0:0:0:0:
466,220,109562,2,0,B|490:157|490:157|426:100,1,130,8|8,0:2|0:1,0:0:0:0:
339,193,110370,2,0,B|272:203|272:203|255:287,1,130,8|8,0:2|0:1,0:0:0:0:
371,330,111178,1,8,0:2:0:0:
492,377,111582,6,0,L|501:277,1,86.6666666666667,8|0,0:1|0:0,0:0:0:0:
470,257,111987,2,0,L|479:157,1,86.6666666666667,8|0,0:2|0:0,0:0:0:0:
466,130,112391,1,8,0:1:0:0:
343,86,112795,2,0,L|304:66,1,43.3333333333333,8|0,0:2|0:0,0:0:0:0:
261,69,113064,1,0,0:0:0:0:
261,69,113199,5,8,0:1:0:0:
142,15,113603,1,8,0:2:0:0:
83,130,114007,1,8,0:2:0:0:
195,195,114411,1,8,0:2:0:0:
312,249,114815,5,8,0:1:0:0:
450,292,115219,2,0,L|435:181,1,95.3333362426759,8|8,0:2|0:3,0:0:0:0:
430,150,115623,1,8,0:1:0:0:
338,154,115892,1,8,0:3:0:0:
338,154,116027,2,0,L|326:256,1,95.3333362426759,8|8,0:2|0:3,0:0:0:0:
321,296,116431,5,8,0:1:0:0:
229,301,116700,1,8,0:3:0:0:
229,301,116835,2,0,L|214:190,1,95.3333362426759,8|8,0:2|0:3,0:0:0:0:
211,159,117239,1,8,0:1:0:0:
279,33,117643,1,8,0:2:0:0:
136,54,118047,6,0,L|31:68,1,95.3333362426759,8|8,0:1|0:3,0:0:0:0:
4,36,118451,2,0,L|20:140,1,95.3333362426759,8|8,0:2|0:3,0:0:0:0:
44,170,118855,1,8,0:1:0:0:
59,311,119259,2,0,L|106:299,1,47.6666681213379,8|0,0:2|0:0,0:0:0:0:
151,310,119529,1,8,0:3:0:0:
151,310,119663,6,0,L|249:286,1,95.3333362426759,8|8,0:1|0:3,0:0:0:0:
289,273,120067,1,8,0:2:0:0:
345,141,120471,1,8,0:2:0:0:
459,222,120875,1,8,0:2:0:0:
508,87,121279,5,8,0:1:0:0:
392,2,121683,2,0,L|281:16,1,95.3333362426759,8|8,0:2|0:3,0:0:0:0:
249,19,122088,1,8,0:1:0:0:
254,118,122357,1,8,0:3:0:0:
254,118,122492,2,0,L|352:129,1,95.3333362426759,8|8,0:2|0:3,0:0:0:0:
396,133,122896,5,8,0:1:0:0:
400,232,123165,1,8,0:3:0:0:
400,232,123300,2,0,L|289:246,1,95.3333362426759,8|8,0:2|0:3,0:0:0:0:
258,250,123704,1,8,0:1:0:0:
202,381,124108,1,8,0:2:0:0:
79,309,124512,6,0,L|51:212,1,95.3333362426759,8|8,0:1|0:3,0:0:0:0:
19,183,124916,2,0,L|117:154,1,95.3333362426759,8|8,0:2|0:3,0:0:0:0:
135,114,125320,1,8,0:1:0:0:
256,47,125724,2,0,L|309:28,1,47.6666681213379,8|0,0:2|0:0,0:0:0:0:
352,37,125993,1,8,0:3:0:0:
352,37,126128,5,8,0:1:0:0:
493,14,126532,1,8,0:2:0:0:
508,156,126936,1,8,0:3:0:0:
365,172,127340,1,8,0:2:0:0:
451,285,127744,6,0,P|417:317|343:319,1,95.3333362426759,10|8,0:1|0:3,0:0:0:0:
327,305,128148,2,0,L|308:254,1,47.6666681213379,10|2,0:2|0:2,0:0:0:0:
310,216,128418,1,10,0:3:0:0:
310,216,128552,2,0,P|344:184|418:182,1,95.3333362426759,10|10,0:1|0:3,0:0:0:0:
438,183,128956,2,0,L|458:227,2,47.6666681213379,10|2|10,0:2|0:2|0:3,0:0:0:0:
471,149,129360,5,10,0:1:0:0:
389,31,129764,2,0,L|448:28,2,47.6666681213379,10|2|10,0:2|0:2|0:3,0:0:0:0:
345,11,130168,2,0,P|292:8|246:37,1,95.3333362426759,10|8,0:1|0:3,0:0:0:0:
221,60,130572,1,8,0:2:0:0:
168,192,130976,5,10,0:1:0:0:
71,86,131380,2,0,P|25:102|-3:141,1,95.3333362426759,10|10,0:2|0:3,0:0:0:0:
1,186,131785,1,10,0:1:0:0:
70,311,132189,2,0,L|34:353,2,47.6666681213379,10|2|10,0:2|0:2|0:3,0:0:0:0:
102,276,132593,6,0,P|154:269|201:292,1,95.3333362426759,10|10,0:1|0:3,0:0:0:0:
234,308,132997,2,0,P|286:315|333:292,1,95.3333362426759,10|10,0:2|0:3,0:0:0:0:
360,267,133401,1,10,0:1:0:0:
429,138,133805,2,0,L|478:143,2,47.6666681213379,10|2|10,0:2|0:2|0:3,0:0:0:0:
406,96,134209,6,0,P|377:60|305:47,1,95.3333362426759,10|8,0:1|0:3,0:0:0:0:
286,59,134613,2,0,L|259:105,1,47.6666681213379,10|2,0:2|0:2,0:0:0:0:
259,151,134882,1,10,0:3:0:0:
259,151,135017,2,0,P|288:187|360:200,1,95.3333362426759,10|10,0:1|0:3,0:0:0:0:
374,179,135421,2,0,L|412:209,2,47.6666681213379,10|2|10,0:2|0:2|0:3,0:0:0:0:
374,131,135825,5,10,0:1:0:0:
440,4,136229,2,0,L|491:16,2,47.6666681213379,10|2|10,0:2|0:2|0:3,0:0:0:0:
398,27,136633,2,0,P|363:43|302:37,1,95.3333362426759,10|8,0:1|0:3,0:0:0:0:
262,23,137037,1,8,0:2:0:0:
185,143,137441,6,0,P|232:161|284:151,1,95.3333362426759,10|8,0:1|0:3,0:0:0:0:
320,138,137845,2,0,L|311:242,1,95.3333362426759,10|10,0:2|0:3,0:0:0:0:
330,276,138249,1,10,0:1:0:0:
200,336,138653,2,0,L|168:371,2,47.6666681213379,10|2|10,0:2|0:2|0:3,0:0:0:0:
209,289,139057,6,0,P|214:239|191:187,1,95.3333362426759,10|10,0:1|0:3,0:0:0:0:
158,170,139461,1,10,0:2:0:0:
258,68,139865,2,0,P|311:61|344:99,1,95.3333362426759,10|8,0:1|0:3,0:0:0:0:
368,124,140269,2,0,L|359:182,2,47.6666681213379,10|2|0,0:2|0:2|0:0,0:0:0:0:
256,192,140673,12,0,142290,0:0:0:0:
