osu file format v14

[General]
AudioFilename: audio.mp3
AudioLeadIn: 0
PreviewTime: 108215
Countdown: 0
SampleSet: Soft
StackLeniency: 0.7
Mode: 0
LetterboxInBreaks: 0
WidescreenStoryboard: 1

[Editor]
DistanceSpacing: 1.5
BeatDivisor: 3
GridSize: 32
TimelineZoom: 1

[Metadata]
Title:Thunder (Nightcore Mix)
TitleUnicode:Thunder (Nightcore Mix)
Artist:Gabry Ponte, LUM!X, Prezioso
ArtistUnicode:Gabry Ponte, LUM!X, Prezioso
Creator:P A N
Version:Hard
Source:
Tags:Simple- english en electronic dance music edm nightcore nc trance techno p_a_n
BeatmapID:3583335
BeatmapSetID:1749750

[Difficulty]
HPDrainRate:3.5
CircleSize:4
OverallDifficulty:6
ApproachRate:8
SliderMultiplier:1.6
SliderTickRate:1

[Events]
//Background and Video events
0,0,"naNBYvd.jpeg",0,0
//Break Periods
2,69562,74645
//Storyboard Layer 0 (Background)
//Storyboard Layer 1 (Fail)
//Storyboard Layer 2 (Pass)
//Storyboard Layer 3 (Foreground)
//Storyboard Layer 4 (Overlay)
//Storyboard Sound Samples

[TimingPoints]
1684,404.040404040404,4,2,1,40,1,0
1684,-100,4,2,1,40,0,0
14613,-100,4,2,1,50,0,0
21077,-100,4,2,1,60,0,0
27542,-100,4,2,1,70,0,0
40471,-90.9090909090909,4,2,1,80,0,1
46128,-90.9090909090909,4,2,1,80,0,0
46936,-90.9090909090909,4,2,1,80,0,1
51785,-90.9090909090909,4,2,1,80,0,0
53401,-90.9090909090909,4,2,1,80,0,1
66330,-100,4,2,1,60,0,0
69562,404.040404040404,4,2,1,40,1,0
75487,-100,4,2,1,50,0,0
88955,-100,4,2,1,60,0,0
101886,-100,4,2,1,70,0,0
114814,-90.9090909090909,4,2,1,80,0,1
120471,-90.9090909090909,4,2,1,80,0,0
121279,-90.9090909090909,4,2,1,80,0,1
126127,-90.9090909090909,4,2,1,80,0,0
127743,-90.9090909090909,4,2,1,80,0,1
140673,-90.9090909090909,4,2,1,40,0,0
142289,-90.9090909090909,4,2,1,5,0,0

[Colours]
Combo1 : 96,96,96
Combo2 : 255,255,111
Combo3 : 255,91,255
Combo4 : 128,255,255

[HitObjects]
65,97,1684,6,0,L|91:209,1,106.666666666667,8|0,0:1|0:0,0:0:0:0:
105,279,2088,2,0,L|57:302,2,53.3333333333333
177,313,2492,1,2,0:2:0:0:
366,279,2896,2,0,L|414:302,2,53.3333333333333
294,313,3300,5,2,0:2:0:0:
352,130,3704,2,0,P|378:128|405:136,2,53.3333333333333
272,142,4108,2,0,B|201:168|174:98|109:111,1,160,2|0,0:2|0:0,0:0:0:0:
63,293,4916,6,0,B|89:306|89:306|174:300,1,106.666666666667,2|0,0:2|0:0,0:0:0:0:
154,221,5320,2,0,B|180:208|180:208|265:214,1,106.666666666667,2|0,0:2|0:0,0:0:0:0:
307,276,5724,1,2,0:2:0:0:
501,308,6128,2,0,P|506:334|500:364,2,53.3333333333333,2|0|0,0:2|0:0|0:0,0:0:0:0:
426,279,6532,6,0,P|409:226|425:165,1,106.666666666667,2|0,0:2|0:0,0:0:0:0:
444,101,6936,1,0,0:0:0:0:
259,49,7340,2,0,L|240:-4,2,53.3333333333333,2|0|0,0:2|0:0|0:0,0:0:0:0:
226,122,7744,2,0,L|243:173,2,53.3333333333333,2|0|0,0:2|0:0|0:0,0:0:0:0:
158,78,8148,6,0,P|109:91|81:144,1,106.666666666667,2|0,0:2|0:0,0:0:0:0:
101,214,8552,2,0,P|76:217|45:208,2,53.3333333333333
157,156,8956,1,2,0:2:0:0:
313,43,9360,2,0,P|322:19|346:-2,2,53.3333333333333
335,120,9764,5,2,0:2:0:0:
335,311,10168,2,0,P|350:331|357:362,2,53.3333333333333
257,291,10572,2,0,B|195:264|158:311|86:267,1,160,2|0,0:2|0:0,0:0:0:0:
108,83,11380,6,0,B|137:62|137:62|223:65,1,106.666666666667,2|0,0:2|0:0,0:0:0:0:
220,144,11785,2,0,B|290:146|290:146|319:125,1,106.666666666667,2|0,0:2|0:0,0:0:0:0:
366,60,12189,1,2,0:2:0:0:
431,240,12593,2,0,L|486:245,2,53.3333333333333,2|0|0,0:2|0:0|0:0,0:0:0:0:
383,304,12997,6,0,L|266:312,1,106.666666666667,2|0,0:2|0:0,0:0:0:0:
209,355,13401,1,0,0:0:0:0:
82,210,13805,2,0,L|44:160,2,53.3333333333333,2|0|0,0:2|0:0|0:0,0:0:0:0:
81,290,14209,2,0,L|46:338,2,53.3333333333333,2|0|0,0:2|0:0|0:0,0:0:0:0:
151,250,14613,5,10,0:2:0:0:
318,22,15286,1,0,0:0:0:0:
318,22,15421,2,0,P|367:28|419:70,1,106.666666666667,2|0,0:2|0:0,0:0:0:0:
463,122,15825,2,0,L|440:244,1,106.666666666667,2|0,0:2|0:0,0:0:0:0:
422,304,16229,5,8,0:2:0:0:
150,34,16902,1,0,0:0:0:0:
150,34,17037,2,0,L|141:94,1,53.3333333333333,2|0,0:2|0:0,0:0:0:0:
83,141,17306,1,0,0:0:0:0:
30,201,17441,2,0,L|54:320,1,106.666666666667,2|0,0:2|0:0,0:0:0:0:
119,348,17845,5,8,0:2:0:0:
384,349,18519,1,0,0:0:0:0:
384,349,18653,2,0,P|436:330|461:276,1,106.666666666667,2|0,0:2|0:0,0:0:0:0:
480,209,19057,1,2,0:2:0:0:
401,69,19327,1,0,0:0:0:0:
337,117,19461,6,0,P|353:136|386:150,2,53.3333333333333,10|0|0,0:2|0:0|0:0,0:0:0:0:
323,38,19865,2,0,P|275:22|213:50,1,106.666666666667,2|0,0:2|0:0,0:0:0:0:
176,104,20269,2,0,L|191:218,1,106.666666666667,10|0,0:2|0:0,0:0:0:0:
246,267,20673,2,0,P|196:289|142:272,1,106.666666666667,10|0,0:2|0:0,0:0:0:0:
93,217,21077,5,10,0:2:0:0:
403,11,21751,1,0,0:0:0:0:
403,11,21886,2,0,L|399:82,1,53.3333333333333,2|0,0:2|0:0,0:0:0:0:
395,144,22155,1,0,0:0:0:0:
319,170,22290,2,0,B|305:203|305:203|315:281,1,106.666666666667,2|0,0:2|0:0,0:0:0:0:
328,352,22694,5,8,0:2:0:0:
109,11,23367,1,0,0:0:0:0:
109,11,23502,2,0,L|113:82,1,53.3333333333333,2|0,0:2|0:0,0:0:0:0:
117,144,23771,1,0,0:0:0:0:
193,170,23906,2,0,B|207:203|207:203|197:281,1,106.666666666667,2|0,0:2|0:0,0:0:0:0:
184,352,24310,5,8,0:2:0:0:
435,42,24983,1,0,0:0:0:0:
435,42,25118,2,0,L|446:113,1,53.3333333333333,2|0,0:2|0:0,0:0:0:0:
458,179,25387,1,0,0:0:0:0:
458,179,25522,1,2,0:2:0:0:
469,342,25791,1,0,0:0:0:0:
469,342,25926,5,10,0:1:0:0:
165,51,26734,2,0,L|105:60,2,53.3333333333333,8|8|8,0:2|0:2|0:2,0:0:0:0:
232,6,27138,1,8,0:2:0:0:
395,181,27542,6,0,B|404:216|404:216|393:296,1,106.666666666667,8|0,0:1|0:0,0:0:0:0:
329,332,27946,2,0,L|342:385,2,53.3333333333333,8|0|0,0:1|0:0|0:0,0:0:0:0:
258,294,28350,2,0,B|208:283|208:283|151:299,1,106.666666666667,8|0,0:1|0:0,0:0:0:0:
75,309,28754,2,0,L|31:353,2,53.3333333333333,8|0|0,0:1|0:0|0:0,0:0:0:0:
53,231,29158,6,0,P|39:182|51:125,1,106.666666666667,8|0,0:1|0:0,0:0:0:0:
99,65,29562,2,0,L|166:71,1,53.3333333333333,8|0,0:1|0:0,0:0:0:0:
222,109,29832,1,0,0:0:0:0:
301,102,29966,2,0,L|411:92,1,106.666666666667,8|0,0:1|0:0,0:0:0:0:
474,48,30370,1,8,0:2:0:0:
417,294,30774,6,0,P|437:247|424:180,1,106.666666666667,8|0,0:1|0:0,0:0:0:0:
351,208,31178,2,0,P|331:161|344:93,1,106.666666666667,8|0,0:1|0:0,0:0:0:0:
379,38,31582,2,0,L|270:30,1,106.666666666667,8|0,0:1|0:0,0:0:0:0:
193,11,31987,2,0,L|132:18,1,53.3333333333333,8|0,0:1|0:0,0:0:0:0:
75,65,32256,1,0,0:0:0:0:
18,122,32391,6,0,B|-4:155|-4:155|5:239,1,106.666666666667,8|0,0:1|0:0,0:0:0:0:
43,290,32795,1,8,0:1:0:0:
280,329,33199,2,0,L|340:365,2,53.3333333333333,8|8|8,0:2|0:3|0:3,0:0:0:0:
247,255,33603,2,0,L|200:225,2,53.3333333333333,8|8|8,0:2|0:3|0:3,0:0:0:0:
323,229,34007,5,8,0:1:0:0:
188,53,34411,2,0,L|121:64,2,53.3333333333333,8|0|0,0:2|0:0|0:0,0:0:0:0:
255,9,34815,1,8,0:1:0:0:
447,152,35219,2,0,L|514:163,2,53.3333333333333,8|0|0,0:2|0:0|0:0,0:0:0:0:
380,108,35623,5,8,0:1:0:0:
199,260,36027,2,0,L|134:271,2,53.3333333333333,8|0|0,0:2|0:0|0:0,0:0:0:0:
266,216,36431,2,0,L|376:228,1,106.666666666667,8|0,0:1|0:0,0:0:0:0:
438,183,36835,1,8,0:2:0:0:
273,356,37239,6,0,P|221:349|177:303,1,106.666666666667,8|0,0:1|0:0,0:0:0:0:
102,313,37643,2,0,P|66:274|61:213,1,106.666666666667,8|0,0:2|0:0,0:0:0:0:
57,142,38047,2,0,B|93:124|93:124|171:136,1,106.666666666667,8|0,0:1|0:0,0:0:0:0:
194,206,38451,2,0,L|253:202,1,53.3333333333333,8|0,0:2|0:0,0:0:0:0:
319,167,38721,1,0,0:0:0:0:
264,108,38855,6,0,P|252:62|280:9,1,106.666666666667,8|0,0:1|0:0,0:0:0:0:
358,0,39259,1,8,0:2:0:0:
479,212,39663,2,0,L|471:273,2,53.3333333333333,8|8|8,0:2|0:3|0:3,0:0:0:0:
435,144,40067,2,0,L|441:90,2,53.3333333333333,8|8|8,0:2|0:3|0:3,0:0:0:0:
365,198,40471,5,8,0:1:0:0:
308,367,40741,1,8,0:3:0:0:
220,371,40875,2,0,P|188:368|157:348,1,58.6666684570313,8|0,0:2|0:0,0:0:0:0:
100,302,41145,1,8,0:3:0:0:
100,302,41279,1,8,0:1:0:0:
39,136,41549,1,8,0:3:0:0:
80,58,41683,2,0,P|98:31|131:14,1,58.6666684570313,8|0,0:2|0:0,0:0:0:0:
211,11,41953,1,8,0:3:0:0:
211,11,42087,5,8,0:1:0:0:
366,52,42357,1,8,0:3:0:0:
366,52,42492,2,0,P|390:74|404:112,1,58.6666684570313,8|0,0:2|0:0,0:0:0:0:
424,182,42761,1,8,0:3:0:0:
395,266,42896,2,0,L|266:256,1,117.333336914063,8|8,0:1|0:3,0:0:0:0:
205,307,43300,1,8,0:2:0:0:
14,124,43704,6,0,P|13:90|30:52,1,58.6666684570313,8|0,0:1|0:0,0:0:0:0:
89,12,43973,1,8,0:3:0:0:
155,69,44108,2,0,L|225:73,1,58.6666684570313,8|0,0:2|0:0,0:0:0:0:
288,25,44377,1,8,0:3:0:0:
288,25,44512,1,8,0:1:0:0:
287,204,44781,1,8,0:3:0:0:
287,204,44916,2,0,L|354:196,1,58.6666684570313,8|0,0:2|0:0,0:0:0:0:
412,254,45185,1,8,0:3:0:0:
473,191,45320,6,0,P|474:156|463:123,1,58.6666684570313,8|0,0:1|0:0,0:0:0:0:
410,73,45589,1,8,0:3:0:0:
410,73,45724,1,8,0:2:0:0:
146,69,46128,2,0,L|132:7,2,58.6666684570313,8|8|8,0:2|0:3|0:3,0:0:0:0:
96,135,46532,2,0,L|35:132,2,58.6666684570313,8|8|8,0:2|0:3|0:3,0:0:0:0:
183,146,46936,5,8,0:1:0:0:
190,325,47205,1,8,0:3:0:0:
268,365,47340,2,0,P|299:366|338:350,1,58.6666684570313,8|0,0:2|0:0,0:0:0:0:
409,325,47609,1,8,0:3:0:0:
409,325,47744,1,8,0:1:0:0:
293,192,48013,1,8,0:3:0:0:
215,232,48148,2,0,P|184:233|145:217,1,58.6666684570313,8|0,0:2|0:0,0:0:0:0:
76,188,48417,1,8,0:3:0:0:
76,188,48552,5,8,0:1:0:0:
195,58,48822,1,8,0:3:0:0:
195,58,48956,2,0,P|223:74|270:73,1,58.6666684570313,8|0,0:2|0:0,0:0:0:0:
337,85,49226,1,8,0:3:0:0:
419,54,49360,2,0,P|432:123|420:180,1,117.333336914063,8|8,0:1|0:3,0:0:0:0:
399,253,49764,1,8,0:2:0:0:
149,336,50168,6,0,L|220:325,1,58.6666684570313,8|0,0:1|0:0,0:0:0:0:
251,250,50438,1,8,0:3:0:0:
340,248,50572,2,0,L|411:253,1,58.6666684570313,8|0,0:2|0:0,0:0:0:0:
454,335,50842,1,8,0:3:0:0:
454,335,50976,1,8,0:1:0:0:
501,167,51246,1,8,0:3:0:0:
501,167,51380,2,0,P|503:133|490:93,1,58.6666684570313,8|0,0:2|0:0,0:0:0:0:
472,25,51650,1,8,0:3:0:0:
396,71,51785,6,0,P|344:93|285:83,1,117.333336914063,8|8,0:1|0:1,0:0:0:0:
199,62,52189,2,0,P|221:114|210:175,1,117.333336914063,8|8,0:2|0:3,0:0:0:0:
193,260,52593,2,0,P|245:238|307:249,1,117.333336914063,8|8,0:1|0:1,0:0:0:0:
390,267,52997,2,0,P|368:215|380:153,1,117.333336914063,8|8,0:1|0:1,0:0:0:0:
396,71,53401,6,0,L|264:83,1,117.333336914063,10|8,0:1|0:3,0:0:0:0:
210,27,53805,2,0,L|151:33,1,58.6666684570313,10|2,0:2|0:2,0:0:0:0:
64,43,54074,1,10,0:3:0:0:
42,127,54209,2,0,P|32:188|51:241,1,117.333336914063,10|10,0:1|0:3,0:0:0:0:
115,299,54613,2,0,L|178:292,1,58.6666684570313,10|2,0:2|0:2,0:0:0:0:
250,337,54882,1,10,0:3:0:0:
316,279,55017,6,0,P|336:223|321:164,1,117.333336914063,10|8,0:1|0:3,0:0:0:0:
249,120,55421,2,0,L|256:59,1,58.6666684570313,10|2,0:2|0:2,0:0:0:0:
323,4,55690,1,10,0:3:0:0:
412,4,55825,2,0,P|463:12|511:64,1,117.333336914063,10|8,0:1|0:3,0:0:0:0:
510,145,56229,1,8,0:2:0:0:
344,350,56633,5,10,0:1:0:0:
236,109,57037,1,10,0:2:0:0:
178,277,57306,1,10,0:3:0:0:
178,277,57441,2,0,P|123:281|73:247,1,117.333336914063,10|8,0:1|0:3,0:0:0:0:
5,192,57845,2,0,L|7:126,1,58.6666684570313,10|2,0:2|0:2,0:0:0:0:
28,47,58114,1,10,0:3:0:0:
115,37,58249,6,0,P|169:32|225:68,1,117.333336914063,10|10,0:1|0:3,0:0:0:0:
222,151,58653,2,0,P|270:134|304:79,1,117.333336914063,10|10,0:2|0:3,0:0:0:0:
345,2,59057,1,10,0:1:0:0:
434,250,59461,2,0,L|497:258,2,58.6666684570313,10|2|10,0:2|0:2|0:3,0:0:0:0:
347,230,59865,6,0,L|214:241,1,117.333336914063,10|8,0:1|0:3,0:0:0:0:
192,319,60269,2,0,P|160:322|129:312,1,58.6666684570313,10|2,0:2|0:2,0:0:0:0:
52,282,60539,1,10,0:3:0:0:
43,194,60673,2,0,L|48:74,1,117.333336914063,10|10,0:1|0:3,0:0:0:0:
122,30,61077,2,0,P|154:27|185:42,1,58.6666684570313,10|2,0:2|0:2,0:0:0:0:
221,113,61347,1,10,0:3:0:0:
273,184,61481,6,0,B|310:197|310:197|398:187,1,117.333336914063,10|8,0:1|0:3,0:0:0:0:
463,142,61886,2,0,P|478:114|478:75,1,58.6666684570313,10|2,0:2|0:2,0:0:0:0:
443,7,62155,1,10,0:3:0:0:
355,19,62290,2,0,L|215:31,1,117.333336914063,10|8,0:1|0:3,0:0:0:0:
151,13,62694,1,8,0:2:0:0:
4,233,63098,5,10,0:1:0:0:
137,355,63367,1,8,0:3:0:0:
137,355,63502,2,0,P|197:368|254:345,1,117.333336914063,10|10,0:2|0:3,0:0:0:0:
291,272,63906,2,0,L|279:149,1,117.333336914063,10|8,0:1|0:3,0:0:0:0:
213,96,64310,2,0,L|220:31,1,58.6666684570313,10|2,0:2|0:2,0:0:0:0:
300,3,64579,1,10,0:3:0:0:
387,11,64714,6,0,P|436:24|475:88,1,117.333336914063,10|10,0:1|0:3,0:0:0:0:
478,164,65118,1,10,0:2:0:0:
290,349,65522,2,0,P|236:360|174:327,1,117.333336914063,10|8,0:1|0:3,0:0:0:0:
135,259,65926,1,10,0:2:0:0:
142,171,66061,2,0,L|146:108,1,58.6666684570313,2|10,0:2|0:3,0:0:0:0:
202,41,66330,1,8,0:3:0:0:
416,276,75488,5,0,0:0:0:0:
416,276,75623,2,0,P|360:280|316:247,1,106.666666666667
285,180,76027,1,10,0:3:0:0:
100,333,76431,1,10,0:3:0:0:
82,93,76835,2,0,B|128:64|128:64|188:72,1,106.666666666667,10|0,0:3|0:0,0:0:0:0:
200,148,77239,2,0,B|154:177|154:177|94:169,1,106.666666666667,10|0,0:3|0:0,0:0:0:0:
23,155,77643,5,10,0:3:0:0:
115,376,78047,2,0,P|172:374|215:331,1,106.666666666667,10|0,0:3|0:0,0:0:0:0:
243,271,78451,1,8,0:2:0:0:
472,61,79259,5,10,0:3:0:0:
430,298,79663,1,10,0:3:0:0:
259,129,80067,2,0,P|231:181|241:235,1,106.666666666667,10|0,0:3|0:0,0:0:0:0:
315,245,80471,2,0,P|343:193|333:139,1,106.666666666667,10|0,0:3|0:0,0:0:0:0:
310,72,80875,5,10,0:3:0:0:
71,94,81279,2,0,P|43:146|53:200,1,106.666666666667,10|8,0:3|0:3,0:0:0:0:
90,261,81684,2,0,L|68:314,2,53.3333333333333,8|8|8,0:3|0:3|0:3,0:0:0:0:
163,229,82088,2,0,L|183:180,2,53.3333333333333,10|8|8,0:3|0:3|0:3,0:0:0:0:
210,294,82492,5,10,0:3:0:0:
301,72,82896,1,10,0:3:0:0:
461,250,83300,2,0,P|425:285|358:293,1,106.666666666667,10|0,0:3|0:0,0:0:0:0:
321,359,83704,2,0,P|270:363|214:326,1,106.666666666667,10|0,0:3|0:0,0:0:0:0:
179,269,84108,5,10,0:3:0:0:
253,40,84512,2,0,L|371:48,1,106.666666666667,10|0,0:3|0:0,0:0:0:0:
431,12,84916,1,8,0:2:0:0:
179,269,85724,5,10,0:3:0:0:
418,263,86128,1,10,0:3:0:0:
179,269,86532,2,0,P|137:254|109:195,1,106.666666666667,10|0,0:3|0:0,0:0:0:0:
64,134,86936,2,0,B|104:115|104:115|177:120,1,106.666666666667,10|0,0:3|0:0,0:0:0:0:
234,160,87340,5,10,0:3:0:0:
425,15,87744,2,0,B|444:55|444:55|439:128,1,106.666666666667,10|8,0:3|0:3,0:0:0:0:
369,156,88148,2,0,L|316:145,2,53.3333333333333,8|8|8,0:3|0:3|0:3,0:0:0:0:
423,214,88552,2,0,L|476:225,2,53.3333333333333,8|8|8,0:3|0:3|0:3,0:0:0:0:
354,256,88956,6,0,B|346:299|346:299|336:311|336:311|325:362,1,106.666666666667,10|8,0:1|0:3,0:0:0:0:
259,312,89360,2,0,B|225:283|225:283|220:268|220:268|181:233,1,106.666666666667,10|8,0:1|0:3,0:0:0:0:
253,195,89764,2,0,B|294:180|294:180|309:183|309:183|359:167,1,106.666666666667,10|8,0:1|0:3,0:0:0:0:
417,119,90168,2,0,P|431:143|435:174,2,53.3333333333333,10|8|8,0:1|0:3|0:3,0:0:0:0:
358,63,90572,6,0,P|310:40|250:54,1,106.666666666667,10|8,0:1|0:3,0:0:0:0:
180,30,90976,2,0,P|184:83|226:128,1,106.666666666667,10|8,0:1|0:3,0:0:0:0:
238,200,91380,2,0,P|281:169|299:110,1,106.666666666667,10|8,0:1|0:3,0:0:0:0:
358,63,91785,2,0,L|411:66,2,53.3333333333333,8|8|8,0:1|0:3|0:3,0:0:0:0:
297,10,92189,6,0,L|182:17,1,106.666666666667,10|8,0:1|0:3,0:0:0:0:
127,66,92593,2,0,B|114:115|114:115|141:179,1,106.666666666667,10|8,0:1|0:3,0:0:0:0:
203,209,92997,2,0,L|309:202,1,106.666666666667,10|8,0:1|0:3,0:0:0:0:
387,219,93401,2,0,P|388:192|380:167,2,53.3333333333333,10|8|8,0:1|0:3|0:3,0:0:0:0:
359,294,93805,6,0,L|236:293,1,106.666666666667,10|8,0:1|0:3,0:0:0:0:
188,244,94209,2,0,B|173:189|173:189|187:137,1,106.666666666667,10|8,0:1|0:3,0:0:0:0:
249,91,94613,2,0,L|355:91,1,106.666666666667,10|8,0:1|0:3,0:0:0:0:
427,56,95017,2,0,P|429:34|424:1,2,53.3333333333333,8|8|8,0:1|0:3|0:3,0:0:0:0:
422,136,95421,6,0,L|481:134,2,53.3333333333333,10|8|8,0:1|0:3|0:3,0:0:0:0:
410,215,95825,2,0,L|469:213,2,53.3333333333333,10|8|8,0:1|0:3|0:3,0:0:0:0:
401,294,96229,2,0,L|460:292,2,53.3333333333333,10|8|8,0:1|0:3|0:3,0:0:0:0:
345,351,96633,2,0,P|294:362|226:337,1,106.666666666667,10|8,0:1|0:3,0:0:0:0:
179,298,97037,6,0,L|125:296,2,53.3333333333333,10|8|8,0:1|0:3|0:3,0:0:0:0:
170,219,97441,2,0,L|116:217,2,53.3333333333333,10|8|8,0:1|0:3|0:3,0:0:0:0:
158,140,97845,2,0,L|104:138,2,53.3333333333333,10|8|8,0:1|0:3|0:3,0:0:0:0:
146,60,98249,2,0,L|92:58,2,53.3333333333333,8|8|8,0:1|0:3|0:3,0:0:0:0:
216,20,98653,6,0,P|250:28|272:46,1,53.3333333333333,10|8,0:1|0:3,0:0:0:0:
345,31,98923,1,8,0:3:0:0:
345,31,99057,2,0,P|365:58|371:86,1,53.3333333333333,10|8,0:1|0:3,0:0:0:0:
441,114,99327,1,8,0:3:0:0:
441,114,99461,2,0,P|439:148|425:173,1,53.3333333333333,10|8,0:1|0:3,0:0:0:0:
466,238,99731,1,8,0:3:0:0:
466,238,99865,2,0,P|442:263|415:273,1,53.3333333333333,10|8,0:1|0:3,0:0:0:0:
412,350,100135,2,0,P|377:354|350:344,1,53.3333333333333,8|10,0:3|0:3,0:0:0:0:
53,147,101077,6,0,L|37:88,2,53.3333333333333,8|8|8,0:2|0:2|0:2,0:0:0:0:
98,213,101481,2,0,L|84:264,2,53.3333333333333,8|0|0,0:2|0:0|0:0,0:0:0:0:
158,159,101886,6,0,P|205:134|267:154,1,106.666666666667,8|0,0:1|0:0,0:0:0:0:
215,214,102290,2,0,P|215:239|228:267,2,53.3333333333333,8|0|0,0:1|0:0|0:0,0:0:0:0:
295,218,102694,2,0,P|336:175|335:121,1,106.666666666667,8|0,0:1|0:0,0:0:0:0:
357,52,103098,2,0,P|326:49|292:63,2,53.3333333333333,8|0|0,0:1|0:0|0:0,0:0:0:0:
422,5,103502,6,0,P|438:57|418:107,1,106.666666666667,8|0,0:1|0:0,0:0:0:0:
364,161,103906,2,0,P|382:178|408:185,1,53.3333333333333,8|0,0:1|0:0,0:0:0:0:
485,160,104175,1,0,0:0:0:0:
474,238,104310,2,0,B|447:268|447:268|379:263,1,106.666666666667,8|0,0:1|0:0,0:0:0:0:
300,257,104714,1,8,0:2:0:0:
87,251,105118,6,0,P|49:209|52:146,1,106.666666666667,8|0,0:1|0:0,0:0:0:0:
3,93,105522,2,0,P|58:81|111:115,1,106.666666666667,8|0,0:1|0:0,0:0:0:0:
181,100,105926,2,0,P|163:153|107:182,1,106.666666666667,8|0,0:1|0:0,0:0:0:0:
46,161,106330,2,0,P|45:194|62:229,1,53.3333333333333,8|0,0:1|0:0,0:0:0:0:
114,263,106599,1,0,0:0:0:0:
187,232,106734,6,0,P|190:301|161:332,1,106.666666666667,8|0,0:1|0:0,0:0:0:0:
88,339,107138,1,8,0:1:0:0:
327,342,107542,2,0,P|358:342|387:323,2,53.3333333333333,8|8|8,0:2|0:3|0:3,0:0:0:0:
310,263,107946,2,0,P|334:252|360:253,2,53.3333333333333,8|8|8,0:2|0:3|0:3,0:0:0:0:
250,317,108350,5,8,0:1:0:0:
115,118,108754,2,0,P|89:118|50:137,2,53.3333333333333,8|0|0,0:2|0:0|0:0,0:0:0:0:
102,197,109158,1,8,0:1:0:0:
308,76,109562,2,0,P|334:76|373:95,2,53.3333333333333,8|0|0,0:2|0:0|0:0,0:0:0:0:
321,155,109966,5,8,0:1:0:0:
121,20,110370,2,0,P|95:20|56:39,2,53.3333333333333,8|0|0,0:2|0:0|0:0,0:0:0:0:
110,99,110774,2,0,P|111:168|145:198,1,106.666666666667,8|0,0:1|0:0,0:0:0:0:
186,130,111178,1,8,0:2:0:0:
316,331,111582,6,0,P|362:330|406:284,1,106.666666666667,8|0,0:1|0:0,0:0:0:0:
481,267,111987,2,0,P|457:227|395:212,1,106.666666666667,8|0,0:2|0:0,0:0:0:0:
343,155,112391,2,0,P|320:195|338:256,1,106.666666666667,8|0,0:1|0:0,0:0:0:0:
316,331,112795,2,0,P|290:322|268:298,1,53.3333333333333,8|0,0:2|0:0,0:0:0:0:
240,230,113064,1,0,0:0:0:0:
254,151,113199,6,0,P|198:155|163:208,1,106.666666666667,8|0,0:1|0:0,0:0:0:0:
168,271,113603,1,8,0:2:0:0:
87,45,114007,2,0,P|60:48|36:66,2,53.3333333333333,8|8|8,0:2|0:3|0:3,0:0:0:0:
114,120,114411,2,0,P|92:134|65:137,2,53.3333333333333,8|8|8,0:2|0:3|0:3,0:0:0:0:
172,54,114815,5,8,0:1:0:0:
343,93,115084,1,8,0:3:0:0:
423,56,115219,2,0,P|432:85|428:124,1,58.6666684570313,8|0,0:2|0:0,0:0:0:0:
371,178,115488,1,8,0:3:0:0:
371,178,115623,1,8,0:1:0:0:
196,192,115891,1,8,0:3:0:0:
116,155,116026,2,0,P|107:184|111:223,1,58.6666684570313,8|0,0:2|0:0,0:0:0:0:
169,282,116295,1,8,0:3:0:0:
169,282,116430,5,8,0:1:0:0:
348,299,116700,1,8,0:3:0:0:
348,299,116835,2,0,P|383:296|419:319,1,58.6666684570313,8|0,0:2|0:0,0:0:0:0:
364,384,117104,1,8,0:3:0:0:
281,354,117239,2,0,P|260:299|285:240,1,117.333336914063,8|8,0:1|0:3,0:0:0:0:
362,218,117643,1,8,0:2:0:0:
131,90,118047,6,0,P|95:93|73:109,1,58.6666684570313,8|0,0:1|0:0,0:0:0:0:
124,180,118316,1,8,0:3:0:0:
124,267,118451,2,0,P|160:264|182:248,1,58.6666684570313,8|0,0:2|0:0,0:0:0:0:
216,171,118721,1,8,0:3:0:0:
216,171,118855,1,8,0:1:0:0:
262,340,119125,1,8,0:3:0:0:
262,340,119259,2,0,P|288:356|320:356,1,58.6666684570313,8|0,0:2|0:0,0:0:0:0:
309,268,119529,1,8,0:3:0:0:
363,199,119663,6,0,P|337:183|305:183,1,58.6666684570313,8|0,0:1|0:0,0:0:0:0:
231,224,119933,1,8,0:3:0:0:
231,224,120067,1,8,0:2:0:0:
458,357,120471,2,0,P|494:353|516:335,2,58.6666684570313,8|8|8,0:2|0:3|0:3,0:0:0:0:
430,273,120875,2,0,P|454:257|483:256,2,58.6666684570313,8|8|8,0:2|0:3|0:3,0:0:0:0:
373,341,121279,5,8,0:1:0:0:
198,314,121549,1,8,0:3:0:0:
118,351,121683,2,0,P|111:334|114:287,1,58.6666684570313,8|0,0:2|0:0,0:0:0:0:
169,226,121953,1,8,0:3:0:0:
169,226,122088,1,8,0:1:0:0:
342,204,122356,1,8,0:3:0:0:
422,241,122490,2,0,P|429:224|426:177,1,58.6666684570313,8|0,0:2|0:0,0:0:0:0:
371,116,122760,1,8,0:3:0:0:
371,116,122895,5,8,0:1:0:0:
200,94,123165,1,8,0:3:0:0:
200,94,123300,2,0,P|168:97|138:82,1,58.6666684570313,8|0,0:2|0:0,0:0:0:0:
188,10,123569,1,8,0:3:0:0:
269,44,123704,2,0,P|289:99|262:156,1,117.333336914063,8|8,0:1|0:3,0:0:0:0:
185,183,124108,1,8,0:2:0:0:
394,350,124512,6,0,P|415:312|411:284,1,58.6666684570313,8|0,0:1|0:0,0:0:0:0:
378,217,124781,1,8,0:3:0:0:
295,248,124916,2,0,P|274:286|278:314,1,58.6666684570313,8|0,0:2|0:0,0:0:0:0:
314,378,125185,1,8,0:3:0:0:
314,378,125320,1,8,0:1:0:0:
145,327,125589,1,8,0:3:0:0:
145,327,125724,2,0,P|123:295|123:264,1,58.6666684570313,8|0,0:2|0:0,0:0:0:0:
127,187,125993,1,8,0:3:0:0:
201,138,126128,6,0,P|263:123|314:152,1,117.333336914063,8|8,0:1|0:1,0:0:0:0:
250,212,126532,2,0,P|265:274|236:324,1,117.333336914063,8|8,0:2|0:3,0:0:0:0:
175,261,126936,2,0,P|113:276|62:247,1,117.333336914063,8|8,0:1|0:1,0:0:0:0:
127,187,127340,2,0,P|112:125|141:74,1,117.333336914063,8|8,0:1|0:1,0:0:0:0:
205,26,127744,6,0,B|233:40|265:30|265:30|289:50|337:45,1,117.333336914063,10|8,0:1|0:3,0:0:0:0:
401,21,128148,2,0,P|405:59|398:82,1,58.6666684570313,10|2,0:2|0:2,0:0:0:0:
396,167,128418,1,10,0:3:0:0:
324,220,128552,2,0,P|264:230|208:204,1,117.333336914063,10|10,0:1|0:3,0:0:0:0:
146,149,128956,2,0,P|112:147|82:159,1,58.6666684570313,10|2,0:2|0:2,0:0:0:0:
29,220,129226,1,10,0:3:0:0:
38,307,129360,6,0,B|76:317|88:338|88:338|110:328|153:343,1,117.333336914063,10|8,0:1|0:3,0:0:0:0:
222,380,129764,2,0,P|231:349|229:320,1,58.6666684570313,10|2,0:2|0:2,0:0:0:0:
230,234,130034,1,10,0:3:0:0:
302,185,130168,2,0,P|360:183|409:225,1,117.333336914063,10|8,0:1|0:3,0:0:0:0:
451,294,130572,1,8,0:2:0:0:
349,50,130976,5,10,0:1:0:0:
239,290,131380,1,10,0:2:0:0:
155,135,131650,1,10,0:3:0:0:
155,135,131785,2,0,P|95:134|49:184,1,117.333336914063,10|8,0:1|0:3,0:0:0:0:
30,255,132189,2,0,L|36:329,1,58.6666684570313,10|2,0:2|0:2,0:0:0:0:
104,368,132458,1,10,0:3:0:0:
188,343,132593,6,0,P|233:300|235:230,1,117.333336914063,10|10,0:1|0:3,0:0:0:0:
216,162,132997,2,0,P|225:105|268:66,1,117.333336914063,10|10,0:2|0:3,0:0:0:0:
349,30,133401,1,10,0:1:0:0:
447,274,133805,2,0,L|442:337,2,58.6666684570313,10|2|10,0:2|0:2|0:3,0:0:0:0:
411,192,134209,6,0,P|360:166|299:182,1,117.333336914063,10|8,0:1|0:3,0:0:0:0:
241,241,134613,2,0,L|176:238,1,58.6666684570313,10|2,0:2|0:2,0:0:0:0:
105,283,134882,1,10,0:3:0:0:
27,243,135017,2,0,P|6:184|21:125,1,117.333336914063,10|10,0:1|0:3,0:0:0:0:
12,43,135421,2,0,L|78:48,1,58.6666684570313,10|2,0:2|0:2,0:0:0:0:
152,11,135690,1,10,0:3:0:0:
216,68,135825,6,0,P|237:127|222:186,1,117.333336914063,10|8,0:1|0:3,0:0:0:0:
199,263,136229,2,0,B|205:292|205:292|225:322,1,58.6666684570313,10|2,0:2|0:2,0:0:0:0:
298,361,136498,1,10,0:3:0:0:
384,350,136633,2,0,P|429:327|372:287,1,117.333336914063,10|8,0:1|0:3,0:0:0:0:
327,231,137037,1,8,0:2:0:0:
93,354,137441,5,10,0:1:0:0:
30,194,137710,1,8,0:3:0:0:
30,194,137845,2,0,P|61:151|129:145,1,117.333336914063,10|10,0:2|0:3,0:0:0:0:
200,181,138249,2,0,P|256:174|291:129,1,117.333336914063,10|8,0:1|0:3,0:0:0:0:
356,69,138653,2,0,P|390:68|418:83,1,58.6666684570313,10|2,0:2|0:2,0:0:0:0:
457,154,138923,1,10,0:3:0:0:
396,218,139057,6,0,P|364:252|336:202,1,117.333336914063,10|10,0:1|0:3,0:0:0:0:
291,129,139461,1,10,0:2:0:0:
142,347,139865,2,0,B|121:313|121:313|125:222,1,117.333336914063,10|8,0:1|0:3,0:0:0:0:
187,172,140269,1,10,0:2:0:0:
236,243,140404,2,0,L|232:313,1,58.6666684570313,2|10,0:2|0:3,0:0:0:0:
256,192,140673,12,0,142290,0:0:0:0:
