osu file format v14

[General]
AudioFilename: audio.mp3
AudioLeadIn: 0
PreviewTime: 108215
Countdown: 0
SampleSet: Soft
StackLeniency: 0.7
Mode: 0
LetterboxInBreaks: 0
WidescreenStoryboard: 1

[Editor]
DistanceSpacing: 0.9
BeatDivisor: 3
GridSize: 32
TimelineZoom: 1

[Metadata]
Title:Thunder (Nightcore Mix)
TitleUnicode:Thunder (Nightcore Mix)
Artist:Gabry Ponte, LUM!X, Prezioso
ArtistUnicode:Gabry Ponte, LUM!X, Prezioso
Creator:P A N
Version:Easy
Source:
Tags:Simple- english en electronic dance music edm nightcore nc trance techno p_a_n
BeatmapID:3581298
BeatmapSetID:1749750

[Difficulty]
HPDrainRate:1
CircleSize:3
OverallDifficulty:3
ApproachRate:4
SliderMultiplier:1
SliderTickRate:1

[Events]
//Background and Video events
0,0,"naNBYvd.jpeg",0,0
//Break Periods
2,69562,74707
//Storyboard Layer 0 (Background)
//Storyboard Layer 1 (Fail)
//Storyboard Layer 2 (Pass)
//Storyboard Layer 3 (Foreground)
//Storyboard Layer 4 (Overlay)
//Storyboard Sound Samples

[TimingPoints]
1684,404.040404040404,4,2,1,40,1,0
1684,-100,4,2,1,40,0,0
14613,-100,4,2,1,50,0,0
21077,-100,4,2,1,60,0,0
27542,-100,4,2,1,70,0,0
40471,-90.9090909090909,4,2,1,80,0,1
46128,-90.9090909090909,4,2,1,80,0,0
46936,-90.9090909090909,4,2,1,80,0,1
51785,-90.9090909090909,4,2,1,80,0,0
53401,-90.9090909090909,4,2,1,80,0,1
66330,-100,4,2,1,60,0,0
69562,404.040404040404,4,2,1,40,1,0
75487,-100,4,2,1,50,0,0
88955,-100,4,2,1,60,0,0
101885,-100,4,2,1,70,0,0
114814,-90.9090909090909,4,2,1,80,0,1
120471,-90.9090909090909,4,2,1,80,0,0
121279,-90.9090909090909,4,2,1,80,0,1
126127,-90.9090909090909,4,2,1,80,0,0
127743,-90.9090909090909,4,2,1,80,0,1
140673,-90.9090909090909,4,2,1,40,0,0
142289,-90.9090909090909,4,2,1,5,0,0

[Colours]
Combo1 : 96,96,96
Combo2 : 255,255,111
Combo3 : 255,91,255
Combo4 : 128,255,255

[HitObjects]
170,102,1684,6,0,P|135:197|182:293,1,200,8|2,0:1|0:2,0:0:0:0:
256,313,2896,1,0,0:0:0:0:
340,283,3300,2,0,P|377:193|342:102,1,200,2|2,0:2|0:2,0:0:0:0:
162,105,4916,6,0,P|102:99|69:69,2,100,2|2|2,0:2|0:2|0:2,0:0:0:0:
248,77,6128,1,2,0:2:0:0:
334,105,6532,2,0,B|349:155|349:155|338:213,1,100,2|0,0:2|0:0,0:0:0:0:
313,287,7340,2,0,B|263:302|263:302|205:291,1,100,2|2,0:2|0:2,0:0:0:0:
129,317,8148,6,0,P|66:260|78:130,1,200,2|2,0:2|0:2,0:0:0:0:
127,85,9360,1,0,0:0:0:0:
216,88,9764,2,0,P|279:145|267:275,1,200,2|2,0:2|0:2,0:0:0:0:
100,249,11380,6,0,B|48:240|48:240|-3:253,2,100,2|2|2,0:2|0:2|0:2,0:0:0:0:
176,296,12593,1,2,0:2:0:0:
256,336,12997,2,0,B|308:345|308:345|353:333,1,100,2|0,0:2|0:0,0:0:0:0:
442,321,13805,2,0,P|425:271|380:244,1,100,2|2,0:2|0:2,0:0:0:0:
297,237,14613,5,10,0:2:0:0:
160,123,15421,2,0,P|205:93|254:95,1,100,2|2,0:2|0:2,0:0:0:0:
336,117,16229,1,8,0:2:0:0:
339,296,17037,2,0,B|299:291|299:291|276:299|276:299|232:294,1,100,2|2,0:2|0:2,0:0:0:0:
151,287,17845,5,8,0:2:0:0:
74,124,18653,2,0,P|74:79|117:33,1,100,2|2,0:2|0:2,0:0:0:0:
161,109,19461,2,0,P|203:121|263:106,1,100,10|2,0:2|0:2,0:0:0:0:
317,42,20269,1,10,0:2:0:0:
404,64,20673,1,10,0:2:0:0:
419,152,21077,5,10,0:2:0:0:
345,316,21886,2,0,P|313:285|302:220,1,100,2|2,0:2|0:2,0:0:0:0:
319,144,22694,1,8,0:2:0:0:
167,46,23502,2,0,B|121:59|121:59|81:106,1,100,2|2,0:2|0:2,0:0:0:0:
48,180,24310,5,8,0:2:0:0:
127,341,25118,2,0,L|232:332,1,100,2|2,0:2|0:2,0:0:0:0:
316,325,25926,1,10,0:1:0:0:
479,248,26734,1,8,0:2:0:0:
479,248,27138,1,8,0:2:0:0:
389,236,27542,6,0,L|404:135,1,100,8|8,0:1|0:1,0:0:0:0:
367,54,28350,2,0,P|319:38|265:49,1,100,8|8,0:1|0:1,0:0:0:0:
184,71,29158,2,0,B|205:118|182:167|182:167|157:224|198:283,1,200,8|8,0:1|0:1,0:0:0:0:
261,214,30370,1,8,0:2:0:0:
318,282,30774,5,8,0:1:0:0:
375,351,31178,1,8,0:1:0:0:
438,286,31582,2,0,P|460:235|449:187,1,100,8|8,0:1|0:1,0:0:0:0:
380,138,32391,2,0,P|329:143|292:184,1,100,8|8,0:1|0:1,0:0:0:0:
281,264,33199,1,8,0:2:0:0:
228,336,33603,1,8,0:2:0:0:
138,335,34007,5,8,0:1:0:0:
63,284,34411,2,0,L|66:175,1,100,8|8,0:2|0:1,0:0:0:0:
24,104,35219,2,0,P|73:93|125:117,1,100,8|8,0:2|0:1,0:0:0:0:
156,192,36027,2,0,B|200:191|222:148|275:154,1,100,8|8,0:2|0:1,0:0:0:0:
316,97,36835,1,8,0:2:0:0:
401,123,37239,5,8,0:1:0:0:
428,208,37643,2,0,B|479:197|479:197|516:158,2,100,8|8|8,0:2|0:1|0:2,0:0:0:0:
360,267,38855,1,8,0:1:0:0:
288,212,39259,1,8,0:2:0:0:
217,268,39663,2,0,P|199:225|217:157,1,100,8|8,0:2|0:2,0:0:0:0:
284,111,40471,5,8,0:1:0:0:
372,154,40875,2,0,P|396:102|386:43,1,110.000003356934,8|8,0:2|0:1,0:0:0:0:
299,9,41684,2,0,L|188:13,1,110.000003356934,8|8,0:2|0:1,0:0:0:0:
135,96,42492,2,0,B|94:122|107:166|50:174,1,110.000003356934,8|8,0:2|0:1,0:0:0:0:
16,260,43300,1,8,0:2:0:0:
74,341,43704,5,8,0:1:0:0:
171,357,44108,2,0,P|222:352|271:307,1,110.000003356934,8|8,0:2|0:1,0:0:0:0:
282,218,44916,2,0,L|274:104,1,110.000003356934,8|8,0:2|0:1,0:0:0:0:
329,25,45724,1,8,0:2:0:0:
427,24,46128,1,8,0:2:0:0:
427,24,46532,1,8,0:2:0:0:
437,122,46936,5,8,0:1:0:0:
351,172,47340,2,0,B|300:165|300:165|247:194,1,110.000003356934,8|8,0:2|0:1,0:0:0:0:
218,288,48148,2,0,B|170:319|170:319|105:318,1,110.000003356934,8|8,0:2|0:1,0:0:0:0:
63,235,48956,2,0,P|46:188|67:121,1,110.000003356934,8|8,0:2|0:1,0:0:0:0:
141,74,49764,1,8,0:2:0:0:
203,151,50168,5,8,0:1:0:0:
280,89,50572,2,0,B|323:98|337:125|393:128,1,110.000003356934,8|8,0:2|0:1,0:0:0:0:
479,105,51380,1,8,0:2:0:0:
479,204,51785,2,0,L|451:314,1,110.000003356934,8|8,0:1|0:2,0:0:0:0:
356,283,52593,2,0,L|384:174,1,110.000003356934,8|8,0:3|0:2,0:0:0:0:
390,77,53401,5,10,0:1:0:0:
301,33,53805,1,10,0:2:0:0:
221,91,54209,2,0,P|200:138|212:201,1,110.000003356934,10|10,0:1|0:2,0:0:0:0:
304,218,55017,2,0,P|263:281|127:251,1,220.000006713867,10|10,0:1|0:1,0:0:0:0:
71,185,56229,1,8,0:2:0:0:
106,93,56633,6,0,B|139:65|139:65|227:70,1,110.000003356934,10|10,0:1|0:2,0:0:0:0:
270,143,57441,2,0,B|303:171|303:171|391:166,1,110.000003356934,10|10,0:1|0:2,0:0:0:0:
442,100,58249,1,10,0:1:0:0:
503,177,58653,1,10,0:2:0:0:
437,251,59057,2,0,P|401:278|333:273,1,110.000003356934,10|10,0:1|0:2,0:0:0:0:
250,230,59865,5,10,0:1:0:0:
217,323,60269,1,10,0:2:0:0:
128,278,60673,2,0,L|98:161,1,110.000003356934,10|10,0:1|0:2,0:0:0:0:
3,151,61481,2,0,P|70:78|192:129,1,220.000006713867,10|10,0:1|0:1,0:0:0:0:
246,176,62694,1,8,0:2:0:0:
341,148,63098,6,0,P|324:91|266:90,1,110.000003356934,10|10,0:1|0:2,0:0:0:0:
246,176,63906,2,0,L|255:286,1,110.000003356934,10|10,0:1|0:2,0:0:0:0:
318,361,64714,1,10,0:1:0:0:
416,360,65118,1,10,0:2:0:0:
472,279,65522,2,0,B|447:251|447:251|361:256,1,110.000003356934,10|10,0:1|0:2,0:0:0:0:
299,205,66330,1,8,0:3:0:0:
195,128,76027,6,0,P|136:121|88:156,2,100,10|10|10,0:3|0:3|0:3,0:0:0:0:
255,194,77239,1,10,0:3:0:0:
318,258,77643,2,0,P|362:278|411:269,1,100,10|10,0:3|0:3,0:0:0:0:
466,198,78451,1,8,0:2:0:0:
378,40,79259,6,0,L|267:46,1,100,10|10,0:3|0:3,0:0:0:0:
221,115,80067,1,10,0:3:0:0:
152,56,80471,1,10,0:3:0:0:
99,129,80875,2,0,P|67:94|64:39,2,100,10|10|8,0:3|0:3|0:3,0:0:0:0:
164,190,82088,1,10,0:3:0:0:
103,256,82492,6,0,L|-9:247,2,100,10|10|10,0:3|0:3|0:3,0:0:0:0:
161,324,83704,1,10,0:3:0:0:
225,261,84108,2,0,P|244:211|229:147,1,100,10|10,0:3|0:3,0:0:0:0:
203,82,84916,1,8,0:2:0:0:
382,64,85724,6,0,P|430:92|449:137,1,100,10|10,0:3|0:3,0:0:0:0:
438,220,86532,1,10,0:3:0:0:
348,214,86936,1,10,0:3:0:0:
258,208,87340,2,0,L|251:314,1,100,10|10,0:3|0:3,0:0:0:0:
161,300,88148,2,0,L|167:200,1,100,8|8,0:3|0:3,0:0:0:0:
147,112,88956,5,10,0:1:0:0:
147,112,89360,1,10,0:1:0:0:
233,131,89764,2,0,P|285:134|334:108,1,100,10|10,0:1|0:1,0:0:0:0:
401,62,90572,1,10,0:1:0:0:
401,62,90976,1,10,0:1:0:0:
414,150,91380,2,0,L|427:261,1,100,10|8,0:1|0:1,0:0:0:0:
436,338,92189,6,0,P|390:353|331:338,1,100,10|10,0:1|0:1,0:0:0:0:
256,309,92997,2,0,B|245:260|245:260|255:203,1,100,10|10,0:1|0:1,0:0:0:0:
328,160,93805,2,0,B|339:111|339:111|329:54,1,100,10|10,0:1|0:1,0:0:0:0:
244,35,94613,2,0,P|197:27|145:52,1,100,10|8,0:1|0:1,0:0:0:0:
84,108,95421,5,10,0:1:0:0:
84,108,95825,1,10,0:1:0:0:
87,197,96229,2,0,L|93:310,1,100,10|10,0:1|0:1,0:0:0:0:
168,356,97037,1,10,0:1:0:0:
168,356,97441,1,10,0:1:0:0:
234,289,97845,2,0,P|249:245|239:183,1,100,10|8,0:1|0:1,0:0:0:0:
180,128,98653,5,10,0:1:0:0:
180,128,99057,1,10,0:1:0:0:
239,60,99461,2,0,B|293:55|293:55|359:87,2,100,10|10|10,0:1|0:1|0:3,0:0:0:0:
116,191,101077,1,8,0:2:0:0:
116,191,101481,1,8,0:2:0:0:
163,267,101886,6,0,P|209:283|264:268,1,100,8|8,0:1|0:1,0:0:0:0:
347,280,102694,2,0,P|337:232|297:192,1,100,8|8,0:1|0:1,0:0:0:0:
353,121,103502,2,0,P|252:117|213:209,1,200,8|8,0:1|0:1,0:0:0:0:
224,284,104714,1,8,0:2:0:0:
134,296,105118,5,8,0:1:0:0:
121,206,105522,1,8,0:1:0:0:
211,195,105926,2,0,P|253:195|302:149,1,100,8|8,0:1|0:1,0:0:0:0:
260,77,106734,2,0,P|218:77|169:123,1,100,8|8,0:1|0:1,0:0:0:0:
119,185,107542,1,8,0:2:0:0:
45,133,107946,1,8,0:2:0:0:
99,61,108350,5,8,0:1:0:0:
174,111,108754,2,0,B|216:122|216:122|282:107,1,100,8|8,0:2|0:1,0:0:0:0:
361,94,109562,2,0,B|330:124|330:124|310:189,1,100,8|8,0:2|0:1,0:0:0:0:
284,263,110370,2,0,B|272:221|272:221|226:171,1,100,8|8,0:2|0:1,0:0:0:0:
158,129,111178,1,8,0:2:0:0:
106,202,111582,5,8,0:1:0:0:
180,252,111987,2,0,P|192:299|176:361,2,100,8|8|8,0:2|0:1|0:2,0:0:0:0:
106,202,113199,1,8,0:1:0:0:
158,129,113603,1,8,0:2:0:0:
233,179,114007,2,0,P|278:169|316:121,1,100,8|8,0:2|0:2,0:0:0:0:
235,67,114815,5,8,0:1:0:0:
158,129,115219,2,0,P|147:198|175:248,1,110.000003356934,8|8,0:2|0:1,0:0:0:0:
202,323,116027,2,0,B|236:326|255:339|255:339|275:326|314:320,1,110.000003356934,8|8,0:2|0:1,0:0:0:0:
349,233,116835,2,0,P|367:181|354:129,1,110.000003356934,8|8,0:2|0:1,0:0:0:0:
305,42,117643,1,8,0:2:0:0:
206,43,118047,5,8,0:1:0:0:
158,128,118451,2,0,P|144:181|162:233,1,110.000003356934,8|8,0:2|0:1,0:0:0:0:
202,323,119259,2,0,B|256:311|256:311|314:324,1,110.000003356934,8|8,0:2|0:1,0:0:0:0:
405,300,120067,1,8,0:2:0:0:
484,240,120471,1,8,0:2:0:0:
484,142,120875,1,8,0:2:0:0:
405,82,121279,5,8,0:1:0:0:
333,150,121683,2,0,B|347:205|347:205|332:269,1,110.000003356934,8|8,0:2|0:1,0:0:0:0:
308,352,122492,2,0,P|256:365|196:347,1,110.000003356934,8|8,0:2|0:1,0:0:0:0:
177,256,123300,2,0,B|165:205|165:205|179:150,1,110.000003356934,8|8,0:2|0:1,0:0:0:0:
206,54,124108,1,8,0:2:0:0:
306,54,124512,5,8,0:1:0:0:
333,150,124916,2,0,B|347:205|347:205|334:256,1,110.000003356934,8|8,0:2|0:1,0:0:0:0:
256,317,125724,1,8,0:2:0:0:
174,260,126128,2,0,P|132:233|76:243,1,110.000003356934,8|8,0:1|0:2,0:0:0:0:
59,341,126936,2,0,P|101:368|157:358,1,110.000003356934,8|8,0:3|0:2,0:0:0:0:
255,343,127744,5,10,0:1:0:0:
299,254,128148,1,10,0:2:0:0:
268,159,128552,2,0,B|233:135|233:135|159:144,1,110.000003356934,10|10,0:1|0:2,0:0:0:0:
136,237,129360,2,0,P|69:149|133:49,1,220.000006713867,10|10,0:1|0:1,0:0:0:0:
192,2,130572,1,8,0:2:0:0:
247,84,130976,6,0,L|365:96,1,110.000003356934,10|10,0:1|0:2,0:0:0:0:
450,63,131785,2,0,L|439:178,1,110.000003356934,10|10,0:1|0:2,0:0:0:0:
423,270,132593,1,10,0:1:0:0:
324,260,132997,1,10,0:2:0:0:
234,302,133401,2,0,P|222:259|247:196,1,110.000003356934,10|10,0:1|0:2,0:0:0:0:
335,160,134209,5,10,0:1:0:0:
303,66,134613,1,10,0:2:0:0:
210,102,135017,2,0,B|157:104|157:104|104:136,1,110.000003356934,10|10,0:1|0:2,0:0:0:0:
29,190,135825,2,0,B|2:243|2:243|50:267|63:322|63:322|125:319,1,220.000006713867,10|10,0:1|0:1,0:0:0:0:
185,244,137037,1,8,0:2:0:0:
258,310,137441,6,0,P|308:319|363:280,1,110.000003356934,10|10,0:1|0:2,0:0:0:0:
338,192,138249,2,0,P|288:183|233:222,1,110.000003356934,10|10,0:1|0:2,0:0:0:0:
164,281,139057,1,10,0:1:0:0:
95,209,139461,1,10,0:2:0:0:
167,141,139865,2,0,B|177:88|177:88|163:30,1,110.000003356934,10|10,0:1|0:2,0:0:0:0:
256,192,140673,12,0,142290,0:0:0:0:
