osu file format v14

[General]
AudioFilename: audio.mp3
AudioLeadIn: 0
PreviewTime: 72008
Countdown: 0
SampleSet: Soft
StackLeniency: 0.2
Mode: 0
LetterboxInBreaks: 0
WidescreenStoryboard: 0

[Editor]
DistanceSpacing: 1.3
BeatDivisor: 4
GridSize: 4
TimelineZoom: 1

[Metadata]
Title:Geordie
TitleUnicode:Geordie
Artist:Gabry Ponte
ArtistUnicode:Gabry Ponte
Creator:Anto
Version:Insane
Source:
Tags:short cut version italodance radio mix
BeatmapID:1657042
BeatmapSetID:789611

[Difficulty]
HPDrainRate:6
CircleSize:4.5
OverallDifficulty:7
ApproachRate:8.5
SliderMultiplier:1.7
SliderTickRate:1

[Events]
//Background and Video events
0,0,"geordie bg.jpg",0,0
//Break Periods
//Storyboard Layer 0 (Background)
//Storyboard Layer 1 (Fail)
//Storyboard Layer 2 (Pass)
//Storyboard Layer 3 (Foreground)
//Storyboard Sound Samples

[TimingPoints]
15950,437.956204379562,4,2,1,75,1,0
25913,-100,4,2,1,5,0,0
26022,-100,4,2,1,75,0,0
29964,-86.9565217391304,4,2,1,100,0,1
42227,-100,4,2,1,100,0,1
43979,-142.857142857143,4,2,1,45,0,0
57993,-100,4,2,1,75,0,0
72008,-86.9565217391304,4,2,1,100,0,1
78577,-78.7401574803149,4,2,1,100,0,1
79015,-86.9565217391304,4,2,1,100,0,1
85147,-86.9565217391304,4,2,1,100,0,0
86022,-86.9565217391304,4,2,1,100,0,1
100037,-86.9565217391304,4,2,1,100,0,0

[Colours]
Combo1 : 149,81,83
Combo2 : 198,162,108
Combo3 : 168,169,141

[HitObjects]
60,76,15950,6,0,P|32:100|36:148,1,85,6|0,0:0|0:0,0:0:0:0:
36,240,16387,2,0,P|32:280|61:309,1,85,2|0,0:0|0:0,0:0:0:0:
148,240,16825,2,0,P|188:252|228:240,1,85,2|0,0:0|0:0,0:0:0:0:
228,144,17263,2,0,P|187:131|147:143,1,85,2|0,0:0|0:0,0:0:0:0:
296,192,17701,1,2,0:0:0:0:
464,232,18030,1,2,0:0:0:0:
464,232,18139,2,0,L|464:132,1,85,2|2,0:0|0:0,0:0:0:0:
458,53,18577,2,0,P|386:13|314:53,1,170,2|0,0:0|0:0,0:0:0:0:
32,112,19672,5,2,0:0:0:0:
84,10,19891,1,2,0:0:0:0:
196,51,20110,1,2,0:0:0:0:
315,51,20329,2,0,P|327:91|315:131,1,85,2|0,0:0|0:0,0:0:0:0:
195,131,20767,2,0,P|183:91|195:51,1,85,2|0,0:0|0:0,0:0:0:0:
315,132,21205,5,2,0:0:0:0:
195,131,21424,1,2,0:0:0:0:
292,252,21643,2,0,B|292:304|256:324|256:324|220:304|220:252,1,170,2|0,0:0|0:0,0:0:0:0:
24,272,22519,2,0,B|40:232|24:192|24:192|8:152|24:104,1,170
96,20,23176,1,2,0:0:0:0:
178,171,23395,6,0,P|167:131|180:92,1,85,2|2,0:0|0:0,0:0:0:0:
331,91,23833,2,0,P|343:131|332:172,1,85,2|2,0:0|0:0,0:0:0:0:
255,303,24271,2,0,P|183:343|111:303,1,170,2|2,0:0|0:0,0:0:0:0:
113,305,24928,1,2,0:0:0:0:
327,304,25366,1,0,0:0:0:0:
327,304,25585,2,0,P|385:279|443:303,1,127.5,2|0,0:0|0:0,0:0:0:0:
476,272,26022,6,0,B|492:228|488:204|476:192|464:180|460:156|476:108,1,170,0|2,0:0|0:0,0:0:0:0:
476,107,26679,1,2,0:0:0:0:
308,28,27117,1,2,0:0:0:0:
308,28,27336,2,0,L|138:28,1,170,2|2,0:0|0:0,0:0:0:0:
112,304,28212,5,2,0:0:0:0:
135,298,28321,1,0,3:0:0:0:
159,297,28430,1,0,3:0:0:0:
183,303,28540,1,0,3:0:0:0:
204,314,28649,1,0,3:0:0:0:
222,330,28759,1,0,3:0:0:0:
236,350,28868,1,0,3:0:0:0:
244,373,28978,1,0,3:0:0:0:
268,372,29088,5,0,3:0:0:0:
275,352,29197,1,0,3:0:0:0:
286,334,29306,1,0,3:0:0:0:
301,319,29416,1,0,3:0:0:0:
318,307,29525,1,0,3:0:0:0:
338,299,29635,1,0,3:0:0:0:
359,296,29744,1,0,3:0:0:0:
380,297,29854,1,0,3:0:0:0:
401,304,29964,6,0,L|445:215,1,97.7500018644333,12|0,0:0|0:0,0:0:0:0:
436,32,30402,2,0,L|392:121,1,97.7500018644333,8|0,0:0|0:0,0:0:0:0:
256,120,30840,1,8,0:0:0:0:
44,120,31059,1,0,0:0:0:0:
152,228,31278,1,8,0:0:0:0:
152,12,31497,1,0,0:0:0:0:
44,120,31716,5,8,0:0:0:0:
220,192,32044,1,0,0:0:0:0:
220,192,32154,1,8,0:0:0:0:
44,264,32373,1,0,0:0:0:0:
132,352,32592,2,8,B|208:352|208:352|280:352|301:290,1,195.500003728867
428,292,33249,1,0,0:0:0:0:
504,192,33468,1,8,0:0:0:0:
428,92,33687,5,0,0:0:0:0:
256,188,33906,1,8,0:0:0:0:
84,92,34125,1,0,0:0:0:0:
312,13,34344,6,0,P|328:58|312:104,1,97.7500018644333,8|0,0:0|0:0,0:0:0:0:
200,104,34782,2,0,P|184:56|200:12,1,97.7500018644333,8|0,0:0|0:0,0:0:0:0:
256,188,35220,5,8,0:0:0:0:
352,328,35439,1,0,0:0:0:0:
160,328,35658,2,0,B|84:328|84:328|4:328|4:248,1,195.500003728867,8|8,0:0|0:0,0:0:0:0:
4,132,36314,1,0,0:0:0:0:
120,80,36533,2,0,L|236:80,1,97.7500018644333,8|0,0:0|0:0,0:0:0:0:
217,80,36971,1,8,0:0:0:0:
336,28,37190,5,0,0:0:0:0:
488,132,37409,1,8,0:0:0:0:
336,28,37628,1,0,0:0:0:0:
487,131,37847,2,0,P|444:116|396:132,1,97.7500018644333,8|0,0:0|0:0,0:0:0:0:
396,252,38285,2,0,P|441:268|487:252,1,97.7500018644333,8|0,0:0|0:0,0:0:0:0:
444,192,38723,5,8,0:0:0:0:
384,352,38942,2,0,P|340:332|312:292,1,97.7500018644333,0|8,0:0|0:0,0:0:0:0:
68,192,39380,1,0,0:0:0:0:
128,352,39599,2,0,P|172:332|200:292,1,97.7500018644333,8|0,0:0|0:0,0:0:0:0:
256,20,40037,6,0,L|256:120,1,97.7500018644333,8|0,0:0|0:0,0:0:0:0:
368,180,40475,1,8,0:0:0:0:
368,180,40694,2,0,B|424:100|424:100|368:20,1,195.500003728867
144,20,41351,2,0,B|88:100|88:100|144:180,1,195.500003728867,8|8,0:0|0:0,0:0:0:0:
420,356,42227,1,2,0:0:0:0:
420,356,42446,2,0,B|348:308|348:308|276:356,1,170,0|0,0:0|3:0,0:0:0:0:
168,356,43103,5,0,3:1:0:0:
157,356,43212,1,0,3:0:0:0:
146,356,43321,1,0,3:1:0:0:
136,356,43431,1,0,3:0:0:0:
125,356,43540,1,0,3:0:0:0:
31,299,43760,5,2,0:0:0:0:
31,299,43979,2,0,P|23:271|30:243,1,59.4999981842042,6|2,0:0|0:0,0:0:0:0:
91,192,44417,2,0,P|100:163|92:135,1,59.4999981842042,2|2,0:0|0:0,0:0:0:0:
32,84,44855,1,2,0:0:0:0:
212,24,45293,5,2,0:0:0:0:
192,100,45512,1,2,0:0:0:0:
256,144,45731,1,2,0:0:0:0:
320,100,45950,1,2,0:0:0:0:
300,24,46169,1,2,0:0:0:0:
192,100,46387,5,2,0:0:0:0:
320,100,46606,1,2,0:0:0:0:
296,360,47044,1,2,0:0:0:0:
296,360,47482,6,0,L|296:300,1,59.4999981842042,0|2,0:0|0:0,0:0:0:0:
216,304,47920,2,0,L|216:363,1,59.4999981842042,2|2,0:0|0:0,0:0:0:0:
296,301,48358,2,0,B|296:245|296:245|296:213|267:191,1,118.999996368408,2|2,0:0|0:0,0:0:0:0:
204,148,49015,1,0,0:0:0:0:
140,104,49234,2,0,L|92:68,2,59.4999981842042,2|2|2,0:0|0:0|0:0,0:0:0:0:
100,172,49891,1,0,0:0:0:0:
60,236,50110,6,0,L|24:300,1,59.4999981842042
84,344,50548,2,0,L|116:284,1,59.4999981842042
112,291,50986,1,4,0:0:0:0:
188,291,51205,1,2,0:0:0:0:
188,291,51424,2,0,L|247:291,1,59.4999981842042,2|2,0:0|0:0,0:0:0:0:
303,343,51862,6,0,P|331:292|306:240,1,118.999996368408,2|0,0:0|0:0,0:0:0:0:
240,199,52519,1,2,0:0:0:0:
180,151,52738,2,0,P|154:98|177:45,1,118.999996368408,2|0,0:0|0:0,0:0:0:0:
236,95,53395,1,2,0:0:0:0:
236,95,53614,2,0,L|355:95,1,118.999996368408,2|0,0:0|0:0,0:0:0:0:
432,95,54271,5,2,0:0:0:0:
464,163,54490,1,2,0:0:0:0:
464,240,54709,2,0,B|464:292|464:292|464:332|433:347,1,118.999996368408,2|2,0:0|0:0,0:0:0:0:
340,356,55366,2,0,B|304:356|272:376|272:376|256:368|256:368|240:376|240:376|208:356|172:356,1,178.499994552612,2|2,0:0|0:0,0:0:0:0:
79,347,56241,5,2,0:0:0:0:
72,343,56350,1,0,3:0:0:0:
65,338,56459,1,0,3:0:0:0:
60,332,56569,1,0,3:0:0:0:
55,325,56678,1,0,3:0:0:0:
52,318,56788,1,0,3:0:0:0:
50,311,56897,1,0,3:0:0:0:
48,303,57007,1,0,3:0:0:0:
48,295,57116,5,0,3:0:0:0:
48,287,57226,1,0,3:0:0:0:
48,279,57335,1,0,3:0:0:0:
48,271,57445,1,0,3:0:0:0:
48,263,57555,1,0,3:0:0:0:
48,255,57664,1,0,3:0:0:0:
48,247,57774,1,0,3:0:0:0:
48,240,57883,1,0,3:0:0:0:
48,232,57993,6,0,L|48:147,1,85,12|0,0:0|0:0,0:0:0:0:
148,8,58431,2,0,L|148:93,1,85,8|0,0:0|0:0,0:0:0:0:
236,176,58869,2,0,B|260:216|308:216|308:216|391:216,1,170,8|8,0:0|0:0,0:0:0:0:
432,104,59526,1,0,0:0:0:0:
432,104,59745,2,0,P|391:91|350:102,1,85,8|0,0:0|0:0,0:0:0:0:
391,216,60183,2,0,P|432:229|473:218,1,85,8|0,0:0|0:0,0:0:0:0:
468,328,60621,2,0,B|444:368|396:368|396:368|313:368,1,170,8|8,0:0|0:0,0:0:0:0:
200,368,61278,1,0,0:0:0:0:
200,368,61497,5,8,0:0:0:0:
116,240,61716,1,0,0:0:0:0:
32,368,61935,1,8,0:0:0:0:
200,368,62154,1,0,0:0:0:0:
116,240,62373,2,0,B|116:188|116:188|136:128|136:128|136:74,1,170,8|8,0:0|0:0,0:0:0:0:
228,12,63030,1,0,0:0:0:0:
340,12,63249,2,0,P|328:52|340:92,1,85,8|0,0:0|0:0,0:0:0:0:
448,116,63687,2,0,P|460:156|448:196,1,85,8|0,0:0|0:0,0:0:0:0:
496,292,64125,5,8,0:0:0:0:
404,292,64344,1,0,0:0:0:0:
336,228,64563,1,0,0:0:0:0:
244,228,64782,1,0,0:0:0:0:
167,279,65001,6,0,P|180:320|164:360,1,85,8|0,0:0|0:0,0:0:0:0:
60,320,65439,1,8,0:0:0:0:
36,212,65658,1,0,0:0:0:0:
36,212,65877,2,0,L|16:116,1,85,8|0,0:0|0:0,0:0:0:0:
112,24,66314,5,8,0:0:0:0:
112,24,66533,1,0,0:0:0:0:
136,132,66752,2,0,B|156:224|156:224|173:276|203:278,1,170,8|8,0:0|0:0,0:0:0:0:
376,252,67409,1,0,0:0:0:0:
376,252,67628,2,0,B|355:159|355:159|338:107|308:105,1,170,8|8,0:0|0:0,0:0:0:0:
256,192,68285,5,0,0:0:0:0:
202,278,68504,1,8,0:0:0:0:
202,278,68723,2,0,P|128:312|52:276,1,170,0|0,0:0|0:0,0:0:0:0:
0,192,69380,1,8,0:0:0:0:
256,40,70037,5,0,0:0:0:0:
256,40,70256,1,2,0:0:0:0:
256,132,70475,2,0,B|240:180|244:204|256:216|268:228|272:252|256:296,1,170,0|0,0:0|3:0,0:0:0:0:
216,376,71132,5,0,3:0:0:0:
237,376,71241,1,0,3:0:0:0:
256,376,71350,1,0,3:0:0:0:
276,376,71460,1,0,3:0:0:0:
296,376,71569,1,0,3:0:0:0:
508,204,72008,6,0,L|413:178,1,97.7500018644333,12|0,0:0|0:0,0:0:0:0:
360,20,72446,2,0,L|454:46,1,97.7500018644333,8|0,0:0|0:0,0:0:0:0:
264,140,72884,1,8,0:0:0:0:
56,88,73103,1,0,0:0:0:0:
188,12,73322,1,8,0:0:0:0:
136,216,73541,1,0,0:0:0:0:
332,368,73760,6,0,L|184:368,1,146.62500279665,8|0,0:0|0:0,0:0:0:0:
185,368,74198,1,8,0:0:0:0:
308,260,74417,1,0,0:0:0:0:
308,260,74636,2,0,B|400:260|400:260|468:260|488:216,1,195.500003728867,8|8,0:0|0:0,0:0:0:0:
488,108,75293,2,0,B|456:64|404:64,1,97.7500018644333,0|8,0:0|0:0,0:0:0:0:
256,168,75731,5,0,0:0:0:0:
172,32,75950,1,8,0:0:0:0:
340,32,76169,1,0,0:0:0:0:
172,32,76387,2,0,B|123:37|102:102|102:102|74:189,1,195.500003728867,8|8,0:0|0:0,0:0:0:0:
74,188,77044,1,0,0:0:0:0:
256,144,77263,5,8,0:0:0:0:
256,252,77482,1,0,0:0:0:0:
346,361,77701,2,0,B|306:361|274:341|274:341|256:353|256:353|238:341|238:341|206:361|166:361,1,195.500003728867,8|8,0:0|0:0,0:0:0:0:
165,362,78358,1,0,0:0:0:0:
256,252,78577,2,0,L|256:128,2,107.949999176407,8|0|8,0:0|0:0|0:0,0:0:0:0:
256,252,79234,5,0,0:0:0:0:
140,132,79453,1,8,0:0:0:0:
256,16,79672,1,0,0:0:0:0:
372,132,79891,1,8,0:0:0:0:
372,132,80329,6,0,P|412:219|384:311,1,195.500003728867,8|8,0:0|0:0,0:0:0:0:
127,310,80986,2,0,P|99:219|139:132,1,195.500003728867
308,284,81643,2,0,B|256:300|256:356|256:356|256:300|200:284,1,195.500003728867,8|8,0:0|0:0,0:0:0:0:
256,192,82300,1,0,0:0:0:0:
256,192,82519,2,0,L|256:94,1,97.7500018644333,8|0,0:0|0:0,0:0:0:0:
396,356,83176,5,0,0:0:0:0:
116,356,83395,1,8,0:0:0:0:
256,144,83833,2,0,P|192:132|168:0,1,195.500003728867,8|8,0:0|0:0,0:0:0:0:
355,19,84490,2,0,P|343:111|256:144,1,195.500003728867,2|2,0:0|0:0,0:0:0:0:
198,257,85147,2,0,P|179:300|200:344,1,97.7500018644333,8|0,0:0|0:0,0:0:0:0:
312,343,85585,2,0,P|332:300|313:257,1,97.7500018644333,8|0,0:0|0:0,0:0:0:0:
76,332,86022,5,12,0:0:0:0:
8,152,86241,1,2,0:0:0:0:
100,260,86460,1,8,0:0:0:0:
160,88,86679,1,2,0:0:0:0:
352,88,86898,5,8,0:0:0:0:
412,260,87117,1,2,0:0:0:0:
504,152,87336,1,8,0:0:0:0:
436,332,87555,1,2,0:0:0:0:
256,376,87774,5,8,0:0:0:0:
256,160,88103,1,0,0:0:0:0:
256,160,88212,1,8,0:0:0:0:
256,268,88431,1,2,0:0:0:0:
180,84,88650,2,0,P|100:40|12:84,1,195.500003728867,8|8,0:0|0:0,0:0:0:0:
96,148,89307,1,2,0:0:0:0:
96,256,89526,1,8,0:0:0:0:
96,256,89745,5,2,0:0:0:0:
256,372,89964,1,8,0:0:0:0:
416,256,90183,1,2,0:0:0:0:
192,156,90402,2,0,P|172:108|192:68,1,97.7500018644333,8|2,0:0|0:0,0:0:0:0:
321,69,90840,2,0,P|340:112|320:156,1,97.7500018644333,8|2,0:0|0:0,0:0:0:0:
256,208,91278,5,8,0:0:0:0:
136,28,91497,1,2,0:0:0:0:
376,28,91716,1,8,0:0:0:0:
256,112,91935,5,2,0:0:0:0:
396,152,92154,2,0,P|384:200|400:248,1,97.7500018644333,8|2,0:0|0:0,0:0:0:0:
508,340,92592,2,0,P|522:293|509:247,1,97.7500018644333,8|2,0:0|0:0,0:0:0:0:
398,244,93030,1,8,0:0:0:0:
236,192,93249,5,2,0:0:0:0:
117,311,93468,1,8,0:0:0:0:
0,193,93687,1,2,0:0:0:0:
176,12,93906,2,0,P|192:52|176:104,1,97.7500018644333,8|2,0:0|0:0,0:0:0:0:
56,104,94344,2,0,P|40:64|56:12,1,97.7500018644333,8|2,0:0|0:0,0:0:0:0:
316,12,94782,5,8,0:0:0:0:
316,12,95001,2,0,L|468:136,1,195.500003728867,2|2,0:0|0:0,0:0:0:0:
368,176,95658,2,0,B|324:196|324:264|324:264|324:356,1,195.500003728867,8|8,0:0|0:0,0:0:0:0:
144,176,96533,5,8,0:0:0:0:
144,176,96752,2,0,B|188:196|188:264|188:264|188:356,1,195.500003728867,2|2,0:0|0:0,0:0:0:0:
55,235,97409,2,0,P|41:142|103:71,1,195.500003728867,8|8,0:0|0:0,0:0:0:0:
408,72,98285,5,0,3:0:0:0:
418,77,98394,1,0,3:0:0:0:
429,84,98503,1,0,3:0:0:0:
438,92,98613,1,0,3:0:0:0:
447,100,98722,1,0,3:0:0:0:
454,110,98832,1,0,3:0:0:0:
461,120,98941,1,0,3:0:0:0:
466,131,99051,1,0,3:0:0:0:
470,143,99160,5,0,3:0:0:0:
473,155,99270,1,0,3:0:0:0:
474,167,99379,1,0,3:0:0:0:
474,179,99489,1,0,3:0:0:0:
473,191,99598,1,0,3:0:0:0:
471,203,99708,1,0,3:0:0:0:
467,215,99817,1,0,3:0:0:0:
462,226,99927,1,0,3:0:0:0:
456,236,100037,1,4,0:0:0:0:
