osu file format v14

[General]
AudioFilename: audio.mp3
AudioLeadIn: 0
PreviewTime: 72008
Countdown: 0
SampleSet: Soft
StackLeniency: 0.4
Mode: 0
LetterboxInBreaks: 0
WidescreenStoryboard: 1

[Editor]
DistanceSpacing: 1.3
BeatDivisor: 4
GridSize: 4
TimelineZoom: 1

[Metadata]
Title:Geordie
TitleUnicode:Geordie
Artist:Gabry Ponte
ArtistUnicode:Gabry Ponte
Creator:Anto
Version:Hard
Source:
Tags:short cut version italodance radio mix
BeatmapID:1661013
BeatmapSetID:789611

[Difficulty]
HPDrainRate:5
CircleSize:4
OverallDifficulty:6
ApproachRate:7.5
SliderMultiplier:1.5
SliderTickRate:1

[Events]
//Background and Video events
0,0,"geordie bg.jpg",0,0
//Break Periods
//Storyboard Layer 0 (Background)
//Storyboard Layer 1 (Fail)
//Storyboard Layer 2 (Pass)
//Storyboard Layer 3 (Foreground)
//Storyboard Sound Samples

[TimingPoints]
15950,437.956204379562,4,2,1,75,1,0
29964,-90.9090909090909,4,2,1,100,0,1
32044,-90.9090909090909,4,2,1,50,0,1
32154,-90.9090909090909,4,2,1,100,0,1
43979,-142.857142857143,4,2,1,45,0,0
57993,-100,4,2,1,75,0,0
72008,-86.9565217391304,4,2,1,100,0,1
74088,-86.9565217391304,4,2,1,50,0,1
74198,-86.9565217391304,4,2,1,100,0,1
85147,-86.9565217391304,4,2,1,100,0,0
86022,-86.9565217391304,4,2,1,100,0,1
88103,-86.9565217391304,4,2,1,50,0,1
88212,-86.9565217391304,4,2,1,100,0,1
100037,-86.9565217391304,4,2,1,100,0,0

[Colours]
Combo1 : 149,81,83
Combo2 : 198,162,108
Combo3 : 168,169,141

[HitObjects]
88,320,15950,6,0,P|188:352|212:328,1,150,6|2,0:0|0:0,0:0:0:0:
424,320,16825,2,0,P|324:352|300:328,1,150,2|2,0:0|0:0,0:0:0:0:
256,188,17701,1,2,0:0:0:0:
256,76,18030,2,0,L|256:24,1,37.5,0|2,0:0|0:0,0:0:0:0:
180,36,18358,1,2,0:0:0:0:
104,36,18577,2,0,B|104:112|104:112|104:156|56:176,1,150,2|0,0:0|0:0,0:0:0:0:
96,348,19453,5,0,0:0:0:0:
152,300,19672,1,2,0:0:0:0:
204,352,19891,1,2,0:0:0:0:
256,300,20110,1,2,0:0:0:0:
308,352,20329,2,0,P|380:376|448:352,1,150,2|2,0:0|0:0,0:0:0:0:
496,212,21205,1,2,0:0:0:0:
496,136,21424,1,2,0:0:0:0:
496,60,21643,2,0,P|428:36|356:60,1,150,2|0,0:0|0:0,0:0:0:0:
155,59,22519,2,0,P|85:35|16:60,1,150
12,136,23176,5,2,0:0:0:0:
12,136,23395,2,0,P|28:168|72:188,1,75,2|2,0:0|0:0,0:0:0:0:
136,168,23833,2,0,P|160:236|136:308,1,150,2|2,0:0|0:0,0:0:0:0:
375,307,24709,1,2,0:0:0:0:
375,307,24928,2,0,P|351:237|376:168,1,150,2|2,0:0|0:0,0:0:0:0:
452,164,25585,2,0,P|475:94|451:24,1,150,2|0,0:0|0:0,0:0:0:0:
256,20,26460,5,2,0:0:0:0:
256,20,26679,2,0,L|256:176,1,150,2|2,0:0|0:0,0:0:0:0:
320,212,27336,2,0,P|256:248|192:216,1,150,2|2,0:0|0:0,0:0:0:0:
44,220,28212,6,0,L|44:260,3,37.5,2|0|0|0,0:0|3:0|3:0|3:0,0:0:0:0:
80,260,28650,2,0,L|80:304,3,37.5,0|0|0|0,3:0|3:0|3:0|3:0,0:0:0:0:
116,300,29088,2,0,L|116:352,3,37.5,0|0|0|0,3:0|3:0|3:0|3:0,0:0:0:0:
152,336,29526,2,0,L|152:388,3,37.5,0|0|0|0,3:0|3:0|3:0|3:0,0:0:0:0:
192,372,29964,6,0,L|360:372,1,165.000005035401,12|8,0:0|0:0,0:0:0:0:
508,292,30840,2,0,L|332:292,1,165.000005035401,8|8,0:0|0:0,0:0:0:0:
220,192,31716,2,0,P|164:216|108:192,1,123.75000377655,8|0,0:0|0:0,0:0:0:0:
76,168,32154,1,8,0:0:0:0:
36,96,32373,1,0,0:0:0:0:
76,24,32592,2,0,B|118:4|154:24|154:24|194:44|234:24,1,165.000005035401,8|8,0:0|0:0,0:0:0:0:
368,60,33468,6,0,L|468:60,1,82.5000025177003,8|0,0:0|0:0,0:0:0:0:
512,144,33906,2,0,L|412:144,1,82.5000025177003,8|0,0:0|0:0,0:0:0:0:
376,208,34344,2,0,B|376:252|376:252|360:320|360:320|360:372,1,165.000005035401,8|8,0:0|0:0,0:0:0:0:
196,372,35220,1,8,0:0:0:0:
112,372,35439,1,0,0:0:0:0:
28,368,35658,2,0,B|28:324|28:324|12:256|12:256|12:200,1,165.000005035401,8|8,0:0|0:0,0:0:0:0:
16,36,36533,6,0,P|84:8|160:48,1,165.000005035401,8|8,0:0|0:0,0:0:0:0:
196,124,37190,1,0,0:0:0:0:
256,180,37409,1,8,0:0:0:0:
316,124,37628,1,0,0:0:0:0:
351,48,37847,2,0,P|421:8|496:36,1,165.000005035401,8|8,0:0|0:0,0:0:0:0:
464,200,38723,5,8,0:0:0:0:
464,200,38942,2,0,B|464:264|464:264|464:328|404:348,1,165.000005035401
332,344,39599,2,0,B|281:327|281:263|281:263|281:199,1,165.000005035401,8|8,0:0|0:0,0:0:0:0:
188,64,40475,5,8,0:0:0:0:
188,64,40694,2,0,P|120:28|44:64,1,165.000005035401
44,144,41351,2,0,P|112:180|188:144,1,165.000005035401,8|8,0:0|0:0,0:0:0:0:
348,104,42227,5,2,0:0:0:0:
348,104,42446,2,0,L|516:104,1,165.000005035401,0|0,0:0|3:0,0:0:0:0:
512,216,43103,2,0,L|512:264,1,41.2500012588501,0|0,3:0|3:0,3:0:0:0:
512,300,43322,2,0,L|512:356,2,41.2500012588501,0|0|0,3:0|3:0|3:0,3:0:0:0:
376,332,43760,5,2,0:0:0:0:
316,364,43979,1,6,0:0:0:0:
256,332,44198,1,2,0:0:0:0:
196,364,44417,1,2,0:0:0:0:
136,332,44636,1,2,0:0:0:0:
92,280,44855,2,0,P|72:232|88:183,1,104.999996795654,2|2,0:0|0:0,0:0:0:0:
136,136,45512,5,2,0:0:0:0:
188,180,45731,1,2,0:0:0:0:
256,196,45950,1,2,0:0:0:0:
324,180,46168,1,2,0:0:0:0:
376,136,46387,1,2,0:0:0:0:
425,183,46606,2,0,P|441:232|422:280,1,104.999996795654,2|2,0:0|0:0,0:0:0:0:
324,36,47701,5,2,0:0:0:0:
256,20,47920,1,2,0:0:0:0:
188,36,48139,1,2,0:0:0:0:
132,76,48358,2,0,P|84:112|32:120,1,104.999996795654,2|2,0:0|0:0,0:0:0:0:
132,308,49234,1,2,0:0:0:0:
132,308,49453,1,2,0:0:0:0:
132,308,49672,2,0,P|84:272|32:264,1,104.999996795654,2|0,0:0|0:0,0:0:0:0:
156,192,50548,6,0,L|276:192,1,104.999996795654,0|4,0:0|0:0,0:0:0:0:
329,192,51205,1,2,0:0:0:0:
384,232,51424,1,2,0:0:0:0:
440,192,51643,1,2,0:0:0:0:
384,152,51862,2,0,B|384:120|384:120|400:76|400:76|400:40,1,104.999996795654,2|2,0:0|0:0,0:0:0:0:
336,24,52519,1,2,0:0:0:0:
296,80,52738,2,0,B|256:116|256:116|216:80,1,104.999996795654,2|2,0:0|0:0,0:0:0:0:
176,24,53395,1,2,0:0:0:0:
112,49,53615,2,0,B|112:76|112:76|128:120|128:120|128:152,1,104.999996795654,2|0,0:0|0:0,0:0:0:0:
128,220,54271,5,2,0:0:0:0:
64,248,54490,1,2,0:0:0:0:
52,316,54709,2,0,P|96:360|156:352,1,104.999996795654,2|2,0:0|0:0,0:0:0:0:
172,300,55366,2,0,P|204:260|255:254,1,104.999996795654,2|0,0:0|0:0,0:0:0:0:
304,304,56022,1,2,0:0:0:0:
392,316,56241,6,0,L|392:288,3,26.2499991989136,2|0|0|0,0:0|3:0|3:0|3:0,0:0:0:0:
408,268,56679,2,0,L|408:232,3,26.2499991989136,0|0|0|0,3:0|3:0|3:0|3:0,0:0:0:0:
424,220,57117,2,0,L|424:184,3,26.2499991989136,0|0|0|0,3:0|3:0|3:0|3:0,0:0:0:0:
440,172,57555,2,0,L|440:136,3,26.2499991989136,0|0|0|0,3:0|3:0|3:0|3:0,0:0:0:0:
440,108,57993,6,0,P|404:116|368:108,1,75,12|2,0:0|0:0,0:0:0:0:
328,44,58431,2,0,P|292:36|256:44,1,75,8|0,0:0|0:0,0:0:0:0:
256,120,58869,2,0,L|256:276,1,150,8|8,0:0|0:0,0:0:0:0:
192,312,59526,1,0,0:0:0:0:
128,352,59745,2,0,L|40:352,1,75,8|0,0:0|0:0,0:0:0:0:
4,252,60183,2,0,L|80:252,1,75,8|0,0:0|0:0,0:0:0:0:
132,152,60621,2,0,P|97:81|33:64,2,150,8|8|8,0:0|0:0|0:0,0:0:0:0:
196,192,61716,5,0,0:0:0:0:
256,148,61935,1,8,0:0:0:0:
316,192,62154,1,0,0:0:0:0:
380,152,62373,2,0,P|414:81|478:64,1,150,8|8,0:0|0:0,0:0:0:0:
384,300,63249,2,0,L|296:300,1,75,8|0,0:0|0:0,0:0:0:0:
236,300,63687,2,0,B|192:300|192:300|132:324|132:324|88:324,1,150,8|8,0:0|0:0,0:0:0:0:
0,204,64563,2,0,B|41:204|41:204|101:180|101:180|145:180,1,150,0|8,0:0|0:0,0:0:0:0:
192,120,65220,5,0,0:0:0:0:
256,160,65439,1,8,0:0:0:0:
320,120,65658,1,0,0:0:0:0:
320,120,65877,2,0,B|372:64|372:64|320:8,1,150,8|8,0:0|0:0,0:0:0:0:
190,10,66533,1,0,0:0:0:0:
190,10,66752,2,0,B|140:64|140:64|192:120,1,150,8|8,0:0|0:0,0:0:0:0:
256,160,67409,1,0,0:0:0:0:
256,160,67628,2,0,L|256:312,1,150,8|8,0:0|0:0,0:0:0:0:
332,312,68285,5,0,0:0:0:0:
396,352,68504,1,8,0:0:0:0:
460,312,68723,2,0,B|460:268|460:268|480:212|480:212|480:164,1,150,0|0,0:0|0:0,0:0:0:0:
424,116,69380,2,0,P|384:156|300:132,1,150,8|8,0:0|0:0,0:0:0:0:
256,72,70037,2,0,L|256:-4,2,75,0|2|0,0:0|0:0|0:0,0:0:0:0:
72,72,70913,5,0,3:0:0:0:
72,168,71132,2,0,L|72:236,1,37.5,0|0,3:0|3:0,3:0:0:0:
72,244,71351,2,0,L|72:304,2,37.5,0|0|0,3:0|3:0|3:0,3:0:0:0:
240,352,72008,6,0,L|332:352,1,86.2500016450882,12|0,0:0|0:0,0:0:0:0:
476,288,72446,2,0,L|380:288,1,86.2500016450882,8|0,0:0|0:0,0:0:0:0:
388,200,72884,1,8,0:0:0:0:
312,156,73103,1,0,0:0:0:0:
388,112,73322,1,8,0:0:0:0:
312,68,73541,1,0,0:0:0:0:
312,68,73760,2,0,P|252:44|188:68,1,129.375002467632,8|0,0:0|0:0,0:0:0:0:
164,96,74198,2,0,P|124:108|80:96,1,86.2500016450882,8|0,0:0|0:0,0:0:0:0:
44,176,74636,2,0,B|4:252|4:252|44:328,1,172.500003290176,8|8,0:0|0:0,0:0:0:0:
125,356,75293,2,0,L|221:356,1,86.2500016450882,0|8,0:0|0:0,0:0:0:0:
256,284,75731,5,0,0:0:0:0:
300,356,75950,1,8,0:0:0:0:
212,356,76168,1,0,0:0:0:0:
256,284,76387,2,0,B|264:224|264:224|248:172|248:172|256:116,1,172.500003290176,8|8,0:0|0:0,0:0:0:0:
408,32,77263,1,8,0:0:0:0:
496,32,77482,1,0,0:0:0:0:
452,108,77701,2,0,B|444:168|444:168|460:220|460:220|452:276,1,172.500003290176,8|8,0:0|0:0,0:0:0:0:
300,360,78577,6,0,L|196:360,1,86.2500016450882,8|0,0:0|0:0,0:0:0:0:
128,360,79015,1,8,0:0:0:0:
40,360,79234,1,0,0:0:0:0:
84,288,79453,1,8,0:0:0:0:
40,212,79672,1,0,0:0:0:0:
128,212,79891,2,0,P|176:140|128:80,1,172.500003290176,8|8,0:0|0:0,0:0:0:0:
381,80,80767,5,8,0:0:0:0:
381,80,80986,2,0,P|335:147|384:212,1,172.500003290176
312,260,81643,2,0,B|276:248|256:196|256:196|232:248|200:260,1,172.500003290176,8|8,0:0|0:0,0:0:0:0:
52,348,82519,1,8,0:0:0:0:
52,348,82738,2,0,B|52:248|52:248|4:192,1,172.500003290176
4,108,83395,2,0,B|56:108|56:108|112:80|112:80|176:80,1,172.500003290176,8|8,0:0|0:0,0:0:0:0:
344,80,84271,1,8,0:0:0:0:
344,80,84490,2,0,B|401:80|401:80|457:108|457:108|509:108,1,172.500003290176,2|2,0:0|0:0,0:0:0:0:
512,196,85147,6,0,L|512:300,1,86.2500016450882,8|0,0:0|0:0,0:0:0:0:
440,356,85585,2,0,L|440:256,1,86.2500016450882,8|0,0:0|0:0,0:0:0:0:
368,224,86022,6,0,P|328:208|288:224,1,86.2500016450882,12|2,0:0|0:0,0:0:0:0:
208,332,86460,2,0,P|248:348|288:332,1,86.2500016450882,8|2,0:0|0:0,0:0:0:0:
208,220,86898,1,8,0:0:0:0:
164,144,87117,1,2,0:0:0:0:
120,220,87336,1,8,0:0:0:0:
76,292,87555,1,2,0:0:0:0:
32,220,87774,6,0,B|32:176|32:176|20:136|20:136|20:84,1,129.375002467632,8|0,0:0|0:0,0:0:0:0:
49,60,88212,2,0,L|144:60,1,86.2500016450882,8|2,0:0|0:0,0:0:0:0:
220,60,88650,2,0,B|276:60|276:60|332:44|332:44|396:44,1,172.500003290176,8|8,0:0|0:0,0:0:0:0:
488,188,89526,5,8,0:0:0:0:
416,236,89745,1,2,0:0:0:0:
344,192,89964,1,8,0:0:0:0:
416,148,90183,1,2,0:0:0:0:
416,236,90402,2,0,P|348:276|272:236,1,172.500003290176,8|8,0:0|0:0,0:0:0:0:
104,192,91278,5,8,0:0:0:0:
28,148,91497,1,2,0:0:0:0:
28,236,91716,2,0,B|28:320|28:320|104:372,1,172.500003290176,8|8,0:0|0:0,0:0:0:0:
256,296,92592,2,0,L|256:208,1,86.2500016450882,8|2,0:0|0:0,0:0:0:0:
296,132,93030,6,0,P|256:120|212:132,1,86.2500016450882,8|2,0:0|0:0,0:0:0:0:
148,72,93468,1,8,0:0:0:0:
212,16,93687,1,2,0:0:0:0:
300,16,93906,2,0,L|472:16,1,172.500003290176,8|8,0:0|0:0,0:0:0:0:
500,192,94782,5,8,0:0:0:0:
500,192,95001,2,0,B|448:252|448:252|448:352,1,172.500003290176,2|2,0:0|0:0,0:0:0:0:
360,348,95658,2,0,B|308:348|308:348|240:328|240:328|176:328,1,172.500003290176,8|8,0:0|0:0,0:0:0:0:
12,192,96533,5,8,0:0:0:0:
12,192,96752,2,0,B|64:132|64:132|64:32,1,172.500003290176,2|2,0:0|0:0,0:0:0:0:
152,36,97409,2,0,B|204:36|204:36|272:56|272:56|336:56,1,172.500003290176,8|8,0:0|0:0,0:0:0:0:
256,192,98285,12,4,100037,0:0:0:0:
