osu file format v14

[General]
AudioFilename: audio.mp3
AudioLeadIn: 0
PreviewTime: 20000
Countdown: 1
SampleSet: Soft
StackLeniency: 0.7
Mode: 0
LetterboxInBreaks: 0
WidescreenStoryboard: 1

[Editor]
DistanceSpacing: 0.8
BeatDivisor: 4
GridSize: 32
TimelineZoom: 0.9

[Metadata]
Title:GLADIATOR (Loop V.)
TitleUnicode:GLADIATOR (Loop V.)
Artist:Gabriel Castro & Kye Gratton
ArtistUnicode:Gabriel Castro & Kye Gratton
Creator:TBlazeWarriorT
Version:Arena Champion
Source:Swords and Sandals III: Solo Ultratus
Tags:Gladiator Game Swords Sandals
BeatmapID:1978428
BeatmapSetID:947246

[Difficulty]
HPDrainRate:7
CircleSize:5
OverallDifficulty:7
ApproachRate:8
SliderMultiplier:1.4
SliderTickRate:1

[Events]
//Background and Video events
0,0,"s&s3 solo ultratus.jpg",0,0
//Break Periods
//Storyboard Layer 0 (Background)
//Storyboard Layer 1 (Fail)
//Storyboard Layer 2 (Pass)
//Storyboard Layer 3 (Foreground)
//Storyboard Sound Samples

[TimingPoints]
0,400,4,2,0,90,1,0

[Colours]
Combo1 : 230,155,0
Combo2 : 128,0,10
Combo3 : 64,0,24
Combo4 : 203,12,40

[HitObjects]
29,288,300,5,0,0:0:0:0:
36,271,400,2,0,P|281:132|286:132,1,280,0|8,0:0|0:0,0:0:0:0:
271,112,1300,1,0,0:0:0:0:
289,123,1400,1,0,0:0:0:0:
256,192,1600,12,0,3800,0:0:0:0:
224,162,3900,5,0,0:0:0:0:
256,192,4000,12,0,7800,0:0:0:0:
362,245,7900,5,0,0:0:0:0:
256,192,8000,12,0,11000,0:0:0:0:
293,81,11100,5,0,0:0:0:0:
256,192,11200,12,0,13800,0:0:0:0:
165,252,13900,5,0,0:0:0:0:
256,192,14000,12,0,16600,0:0:0:0:
169,190,16700,5,0,0:0:0:0:
256,192,16800,12,0,19400,0:0:0:0:
195,115,19500,5,0,0:0:0:0:
256,192,19600,12,0,21200,0:0:0:0:
52,329,21400,5,0,0:0:0:0:
56,310,21600,2,0,B|85:146|285:158,1,280,0|2,0:0|0:0,0:0:0:0:
274,152,22600,1,0,0:0:0:0:
276,54,23200,1,0,0:0:0:0:
306,95,23400,1,0,0:0:0:0:
336,127,23600,1,0,0:0:0:0:
397,51,24200,1,0,0:0:0:0:
414,105,24400,1,0,0:0:0:0:
428,156,24600,1,0,0:0:0:0:
448,232,24900,6,0,B|293:338|-26:336,1,420,0|2,0:0|0:0,0:0:0:0:
33,326,26200,1,0,0:0:0:0:
34,312,26400,1,2,0:0:0:0:
46,254,26700,1,0,0:0:0:0:
64,148,27000,1,0,0:0:0:0:
100,181,27200,1,0,0:0:0:0:
131,219,27400,1,0,0:0:0:0:
147,116,28000,2,0,B|241:125|263:232,1,140
234,217,28600,1,2,0:0:0:0:
329,207,28900,1,0,0:0:0:0:
279,99,29100,1,0,0:0:0:0:
354,63,29300,2,0,P|422:108|446:178,1,140
435,211,30000,1,0,0:0:0:0:
419,261,30400,1,2,0:0:0:0:
352,197,30700,1,0,0:0:0:0:
337,249,30900,1,0,0:0:0:0:
322,300,31100,1,0,0:0:0:0:
258,213,31600,2,0,B|192:254|194:340,1,140
132,258,32200,1,0,0:0:0:0:
60,335,32400,2,0,B|39:82|353:29,1,420,0|2,0:0|0:0,0:0:0:0:
312,64,33800,1,0,0:0:0:0:
299,81,34000,1,2,0:0:0:0:
363,113,34300,5,0,0:0:0:0:
336,166,34500,1,0,0:0:0:0:
269,170,34700,1,0,0:0:0:0:
363,236,35000,1,0,0:0:0:0:
310,252,35200,1,0,0:0:0:0:
298,304,35400,2,0,L|221:337,1,70
187,349,35900,1,0,0:0:0:0:
163,330,36000,2,0,B|82:33|393:192|393:3,1,420,0|2,0:0|0:0,0:0:0:0:
453,47,37700,1,0,0:0:0:0:
430,93,37900,1,0,0:0:0:0:
396,135,38100,1,0,0:0:0:0:
363,68,38300,1,0,0:0:0:0:
263,47,38500,1,0,0:0:0:0:
216,95,38800,2,0,B|134:157|121:238|-3:305,1,280,0|2,0:0|0:0,0:0:0:0:
31,178,39700,1,0,0:0:0:0:
20,126,39900,1,0,0:0:0:0:
2,85,40100,2,2,P|124:29|248:119,1,280
140,122,41400,5,0,0:0:0:0:
144,134,41600,1,0,0:0:0:0:
194,176,41800,1,0,0:0:0:0:
260,198,42000,1,0,0:0:0:0:
323,89,42400,1,0,0:0:0:0:
371,125,42600,1,0,0:0:0:0:
421,162,42800,2,0,L|406:230,1,70
386,267,43200,2,0,P|262:316|15:183,1,420,0|2,0:0|0:0,0:0:0:0:
26,147,44600,1,0,0:0:0:0:
38,116,44800,1,2,0:0:0:0:
85,52,45200,5,0,0:0:0:0:
93,123,45400,1,0,0:0:0:0:
146,163,45600,1,0,0:0:0:0:
218,95,46100,1,0,0:0:0:0:
272,124,46200,1,0,0:0:0:0:
283,176,46400,2,0,P|314:188|349:168,1,70
332,74,46800,2,0,P|422:164|398:312,1,280,0|2,0:0|0:0,0:0:0:0:
450,309,47800,1,0,0:0:0:0:
299,312,48000,1,2,0:0:0:0:
202,315,48400,5,0,0:0:0:0:
121,320,48600,1,0,0:0:0:0:
71,298,48800,1,0,0:0:0:0:
39,244,49000,1,0,0:0:0:0:
123,174,49600,1,0,0:0:0:0:
40,128,49800,1,0,0:0:0:0:
55,87,50000,1,0,0:0:0:0:
121,49,50200,1,0,0:0:0:0:
163,51,50400,6,0,B|204:13|287:-1|318:60|332:139|377:89|456:68,1,280,4|0,0:0|0:0,0:0:0:0:
422,147,51500,1,0,0:0:0:0:
385,190,51800,2,0,B|279:170|261:252|242:334|138:316,1,280
121,322,52700,1,0,0:0:0:0:
84,310,52800,2,2,P|140:117|348:53,1,420
366,95,54300,5,0,0:0:0:0:
407,124,54500,1,0,0:0:0:0:
431,182,54700,1,0,0:0:0:0:
388,207,54900,1,0,0:0:0:0:
352,248,55100,1,0,0:0:0:0:
342,290,55300,1,0,0:0:0:0:
295,319,55500,1,0,0:0:0:0:
246,322,55700,1,0,0:0:0:0:
190,317,55900,1,0,0:0:0:0:
163,308,56000,1,0,0:0:0:0:
108,289,56200,1,0,0:0:0:0:
54,230,56300,1,0,0:0:0:0:
43,182,56500,2,2,B|63:68|275:35,1,280
330,60,57500,5,0,0:0:0:0:
350,73,57600,1,0,0:0:0:0:
389,133,57900,1,0,0:0:0:0:
392,159,58000,1,0,0:0:0:0:
391,179,58100,1,0,0:0:0:0:
370,246,58300,1,0,0:0:0:0:
358,263,58400,1,0,0:0:0:0:
309,294,58700,1,0,0:0:0:0:
280,303,58800,1,0,0:0:0:0:
213,311,59100,1,0,0:0:0:0:
181,308,59400,1,0,0:0:0:0:
121,285,59600,1,0,0:0:0:0:
53,208,59900,1,0,0:0:0:0:
78,83,60100,1,0,0:0:0:0:
144,59,60400,2,2,P|251:48|360:102,1,210,0|0,0:0|0:0,0:0:0:0:
385,150,61200,5,0,0:0:0:0:
391,174,61300,1,0,0:0:0:0:
382,243,61600,1,0,0:0:0:0:
375,262,61700,1,0,0:0:0:0:
297,305,62000,1,0,0:0:0:0:
284,314,62100,1,0,0:0:0:0:
204,307,62400,1,0,0:0:0:0:
178,297,62500,1,0,0:0:0:0:
143,289,62600,1,0,0:0:0:0:
85,257,62800,1,0,0:0:0:0:
60,203,63200,1,0,0:0:0:0:
63,147,63300,1,4,0:0:0:0:
95,103,63500,5,4,0:0:0:0:
103,96,63600,2,0,B|269:58|390:90,1,280,0|2,0:0|0:0,0:0:0:0:
398,102,64500,1,0,0:0:0:0:
452,176,64800,1,0,0:0:0:0:
397,195,65000,1,0,0:0:0:0:
344,216,65200,1,0,0:0:0:0:
441,283,65600,1,0,0:0:0:0:
388,307,65800,1,0,0:0:0:0:
341,324,66000,1,0,0:0:0:0:
268,335,66300,1,0,0:0:0:0:
240,336,66400,2,2,P|82:241|108:29,1,420
125,23,67700,1,0,0:0:0:0:
192,28,68200,1,0,0:0:0:0:
241,34,68400,1,0,0:0:0:0:
290,41,68600,1,0,0:0:0:0:
336,53,68800,1,0,0:0:0:0:
408,116,69100,1,0,0:0:0:0:
367,128,69300,1,0,0:0:0:0:
374,167,69400,1,0,0:0:0:0:
407,214,69600,2,0,L|300:303,1,140
265,313,70100,1,0,0:0:0:0:
218,309,70200,6,0,P|38:164|116:24,1,420,0|2,0:0|0:0,0:0:0:0:
126,124,71500,1,0,0:0:0:0:
157,220,71600,1,0,0:0:0:0:
241,145,72000,1,0,0:0:0:0:
295,105,72200,1,0,0:0:0:0:
342,57,72400,1,0,0:0:0:0:
238,58,72800,1,0,0:0:0:0:
291,103,73000,1,0,0:0:0:0:
345,148,73200,1,0,0:0:0:0:
405,187,73500,1,0,0:0:0:0:
423,203,73600,2,0,P|200:328|52:253,1,420,0|2,0:0|0:0,0:0:0:0:
61,259,74900,1,0,0:0:0:0:
43,232,75200,1,0,0:0:0:0:
62,162,75400,5,0,0:0:0:0:
90,122,75600,1,0,0:0:0:0:
116,91,75800,1,0,0:0:0:0:
134,62,76000,1,0,0:0:0:0:
201,164,76400,1,0,0:0:0:0:
247,123,76600,1,0,0:0:0:0:
282,81,76800,1,0,0:0:0:0:
341,80,77000,1,0,0:0:0:0:
412,90,77200,2,0,P|345:271|21:213,1,560,0|2,0:0|0:0,0:0:0:0:
60,213,78900,1,0,0:0:0:0:
108,193,79200,1,0,0:0:0:0:
101,138,79400,1,0,0:0:0:0:
99,79,79600,1,0,0:0:0:0:
207,153,80000,1,0,0:0:0:0:
174,89,80200,1,0,0:0:0:0:
230,43,80400,1,0,0:0:0:0:
270,38,80500,1,0,0:0:0:0:
351,40,80800,2,0,P|295:233|105:341,1,420,0|2,0:0|0:0,0:0:0:0:
101,324,82200,1,0,0:0:0:0:
81,304,82400,1,0,0:0:0:0:
48,260,82700,5,0,0:0:0:0:
104,236,82800,1,0,0:0:0:0:
169,221,83000,1,0,0:0:0:0:
239,196,83100,1,0,0:0:0:0:
57,57,83600,1,0,0:0:0:0:
123,55,83700,1,0,0:0:0:0:
187,50,83900,1,0,0:0:0:0:
265,46,84000,1,0,0:0:0:0:
352,43,84300,1,0,0:0:0:0:
397,44,84400,2,0,P|292:243|115:330,1,420,0|2,0:0|0:0,0:0:0:0:
110,328,85700,1,0,0:0:0:0:
40,329,86000,1,0,0:0:0:0:
44,64,86300,5,0,0:0:0:0:
59,99,86400,1,0,0:0:0:0:
141,157,86600,1,0,0:0:0:0:
196,182,86800,1,0,0:0:0:0:
260,46,87200,1,0,0:0:0:0:
305,66,87400,1,0,0:0:0:0:
371,49,87500,1,0,0:0:0:0:
389,118,87600,2,0,L|421:184,1,70
442,206,87900,1,0,0:0:0:0:
465,246,88000,2,0,P|221:320|45:308,1,420,0|2,0:0|0:0,0:0:0:0:
37,284,89400,1,0,0:0:0:0:
54,244,89700,1,0,0:0:0:0:
68,221,90000,1,0,0:0:0:0:
182,142,90200,1,0,0:0:0:0:
289,49,90400,1,0,0:0:0:0:
74,47,90800,1,0,0:0:0:0:
175,142,90900,1,0,0:0:0:0:
275,205,91100,1,0,0:0:0:0:
286,173,91200,1,0,0:0:0:0:
234,132,91500,1,0,0:0:0:0:
201,113,91600,1,0,0:0:0:0:
64,64,92000,5,4,0:0:0:0:
64,108,92200,1,0,0:0:0:0:
63,128,92300,1,0,0:0:0:0:
64,149,92400,1,0,0:0:0:0:
64,234,92800,1,0,0:0:0:0:
62,290,93100,1,0,0:0:0:0:
64,320,93200,1,0,0:0:0:0:
160,320,93500,1,0,0:0:0:0:
208,327,93800,1,0,0:0:0:0:
256,320,94000,1,0,0:0:0:0:
336,317,94300,1,0,0:0:0:0:
384,288,94600,2,0,L|402:247,1,35
416,160,95200,5,0,0:0:0:0:
413,112,95400,1,0,0:0:0:0:
416,64,95700,1,0,0:0:0:0:
351,52,95800,1,0,0:0:0:0:
288,32,96000,1,0,0:0:0:0:
241,33,96200,1,0,0:0:0:0:
192,32,96400,1,0,0:0:0:0:
178,39,96500,1,0,0:0:0:0:
113,61,96800,1,0,0:0:0:0:
32,96,97200,1,0,0:0:0:0:
35,139,97400,1,0,0:0:0:0:
32,184,97600,1,0,0:0:0:0:
42,218,97800,1,0,0:0:0:0:
53,256,98000,1,0,0:0:0:0:
160,256,98400,2,0,P|233:244|279:194,1,140
