osu file format v14

[General]
AudioFilename: Gabe_The_Dog_-_Through_The_Fire_and_Flames.mp3
AudioLeadIn: 0
PreviewTime: -1
Countdown: 1
SampleSet: Normal
StackLeniency: 0.7
Mode: 0
LetterboxInBreaks: 1
WidescreenStoryboard: 1

[Editor]
DistanceSpacing: 2
BeatDivisor: 4
GridSize: 4
TimelineZoom: 2.799999

[Metadata]
Title:Through The Fire and Flames
TitleUnicode:Through The Fire and Flames
Artist:Gabe The Dog
ArtistUnicode:Gabe The Dog
Creator:x U n i c o r n
Version:Gabe streams (AR 10)
Source:
Tags:Dragonforce, Gabe The Dog
BeatmapID:1301228
BeatmapSetID:617075

[Difficulty]
HPDrainRate:6
CircleSize:5
OverallDifficulty:7
ApproachRate:10
SliderMultiplier:1.40000000596046
SliderTickRate:1

[Events]
//Background and Video events
0,0,"maxresdefault.jpg",0,0
//Break Periods
//Storyboard Layer 0 (Background)
//Storyboard Layer 1 (Fail)
//Storyboard Layer 2 (Pass)
//Storyboard Layer 3 (Foreground)
//Storyboard Layer 4 (Overlay)
//Storyboard Sound Samples

[TimingPoints]
0,300,4,1,0,100,1,0
5844,1500,4,1,0,100,1,0
7275,300,4,1,0,100,1,0
7275,-100,4,1,0,100,0,0

[HitObjects]
256,192,1119,5,0,0:0:0:0:
256,192,3519,5,0,0:0:0:0:
216,160,6000,6,0,L|308:232,1,105.000000447034
256,192,8325,5,0,0:0:0:0:
4,196,9450,5,0,0:0:0:0:
8,168,9525,1,0,0:0:0:0:
16,140,9600,1,0,0:0:0:0:
28,116,9675,1,0,0:0:0:0:
44,92,9750,1,0,0:0:0:0:
64,72,9825,1,0,0:0:0:0:
88,56,9900,1,0,0:0:0:0:
112,40,9975,1,0,0:0:0:0:
140,28,10050,1,0,0:0:0:0:
168,24,10125,1,0,0:0:0:0:
196,20,10200,1,0,0:0:0:0:
224,16,10275,1,0,0:0:0:0:
252,16,10350,1,0,0:0:0:0:
280,20,10425,5,0,0:0:0:0:
308,28,10500,1,0,0:0:0:0:
336,36,10575,1,0,0:0:0:0:
360,48,10650,1,0,0:0:0:0:
384,60,10725,1,0,0:0:0:0:
408,76,10800,1,0,0:0:0:0:
428,96,10875,1,0,0:0:0:0:
448,116,10950,1,0,0:0:0:0:
468,136,11025,1,0,0:0:0:0:
484,160,11100,1,0,0:0:0:0:
496,184,11175,1,0,0:0:0:0:
496,212,11250,1,0,0:0:0:0:
492,240,11325,5,0,0:0:0:0:
484,268,11400,1,0,0:0:0:0:
472,292,11475,1,0,0:0:0:0:
456,312,11550,1,0,0:0:0:0:
436,332,11625,1,0,0:0:0:0:
416,352,11700,1,0,0:0:0:0:
388,360,11775,1,0,0:0:0:0:
360,368,11850,1,0,0:0:0:0:
332,372,11925,1,0,0:0:0:0:
304,376,12000,1,0,0:0:0:0:
276,380,12075,1,0,0:0:0:0:
248,380,12150,1,0,0:0:0:0:
220,376,12225,5,0,0:0:0:0:
192,372,12300,1,0,0:0:0:0:
164,360,12375,1,0,0:0:0:0:
140,348,12450,1,0,0:0:0:0:
120,328,12525,1,0,0:0:0:0:
96,312,12600,1,0,0:0:0:0:
76,292,12675,1,0,0:0:0:0:
60,268,12750,1,0,0:0:0:0:
44,244,12825,1,0,0:0:0:0:
28,220,12900,1,0,0:0:0:0:
20,192,12975,1,0,0:0:0:0:
16,164,13050,1,0,0:0:0:0:
20,136,13125,1,0,0:0:0:0:
36,112,13200,1,0,0:0:0:0:
48,88,13275,5,0,0:0:0:0:
68,68,13350,1,0,0:0:0:0:
92,52,13425,1,0,0:0:0:0:
116,40,13500,1,0,0:0:0:0:
144,36,13575,1,0,0:0:0:0:
172,40,13650,1,0,0:0:0:0:
200,48,13725,1,0,0:0:0:0:
220,68,13800,1,0,0:0:0:0:
240,88,13875,1,0,0:0:0:0:
264,100,13950,1,0,0:0:0:0:
292,108,14025,1,0,0:0:0:0:
316,92,14100,1,0,0:0:0:0:
324,64,14175,1,0,0:0:0:0:
312,40,14250,5,0,0:0:0:0:
288,24,14325,1,0,0:0:0:0:
260,16,14400,1,0,0:0:0:0:
232,8,14475,1,0,0:0:0:0:
204,12,14550,1,0,0:0:0:0:
176,20,14625,1,0,0:0:0:0:
156,40,14700,1,0,0:0:0:0:
136,60,14775,1,0,0:0:0:0:
120,84,14850,1,0,0:0:0:0:
112,112,14925,1,0,0:0:0:0:
108,140,15000,1,0,0:0:0:0:
104,168,15075,1,0,0:0:0:0:
104,196,15150,1,0,0:0:0:0:
108,224,15225,5,0,0:0:0:0:
120,248,15300,1,0,0:0:0:0:
140,268,15375,1,0,0:0:0:0:
160,288,15450,1,0,0:0:0:0:
184,304,15525,1,0,0:0:0:0:
208,316,15600,1,0,0:0:0:0:
236,324,15675,1,0,0:0:0:0:
264,324,15750,1,0,0:0:0:0:
292,320,15825,1,0,0:0:0:0:
320,312,15900,1,0,0:0:0:0:
344,300,15975,1,0,0:0:0:0:
368,284,16050,1,0,0:0:0:0:
388,264,16125,1,0,0:0:0:0:
400,240,16200,5,0,0:0:0:0:
408,212,16275,1,0,0:0:0:0:
412,184,16350,1,0,0:0:0:0:
408,156,16425,1,0,0:0:0:0:
396,132,16500,1,0,0:0:0:0:
376,112,16575,1,0,0:0:0:0:
356,92,16650,5,0,0:0:0:0:
332,80,16725,1,0,0:0:0:0:
304,76,16800,1,0,0:0:0:0:
276,72,16875,1,0,0:0:0:0:
248,80,16950,1,0,0:0:0:0:
224,92,17025,1,0,0:0:0:0:
208,116,17100,1,0,0:0:0:0:
204,144,17175,1,0,0:0:0:0:
208,172,17250,1,0,0:0:0:0:
220,196,17325,1,0,0:0:0:0:
240,216,17400,5,0,0:0:0:0:
264,228,17475,1,0,0:0:0:0:
292,236,17550,1,0,0:0:0:0:
320,232,17625,1,0,0:0:0:0:
344,220,17700,1,0,0:0:0:0:
364,204,17775,1,0,0:0:0:0:
380,184,17850,1,0,0:0:0:0:
388,156,17925,1,0,0:0:0:0:
396,132,18000,1,0,0:0:0:0:
392,104,18075,5,0,0:0:0:0:
336,60,18150,1,0,0:0:0:0:
268,44,18225,1,0,0:0:0:0:
200,40,18300,1,0,0:0:0:0:
132,60,18375,1,0,0:0:0:0:
72,100,18450,1,0,0:0:0:0:
52,168,18525,1,0,0:0:0:0:
60,236,18600,1,0,0:0:0:0:
88,300,18675,1,0,0:0:0:0:
140,348,18750,1,0,0:0:0:0:
208,360,18825,1,0,0:0:0:0:
276,360,18900,5,0,0:0:0:0:
344,348,18975,1,0,0:0:0:0:
404,312,19050,1,0,0:0:0:0:
452,264,19125,1,0,0:0:0:0:
480,200,19200,1,0,0:0:0:0:
468,132,19275,1,0,0:0:0:0:
436,68,19350,1,0,0:0:0:0:
380,24,19425,1,0,0:0:0:0:
312,8,19500,1,0,0:0:0:0:
244,0,19575,1,0,0:0:0:0:
176,8,19650,5,0,0:0:0:0:
108,28,19725,1,0,0:0:0:0:
56,76,19800,1,0,0:0:0:0:
40,144,19875,1,0,0:0:0:0:
48,212,19950,1,0,0:0:0:0:
84,272,20025,1,0,0:0:0:0:
144,312,20100,1,0,0:0:0:0:
212,328,20175,1,0,0:0:0:0:
280,320,20250,1,0,0:0:0:0:
348,300,20325,1,0,0:0:0:0:
