osu file format v14

[General]
AudioFilename: audio.mp3
AudioLeadIn: 0
PreviewTime: -1
Countdown: 1
SampleSet: Soft
StackLeniency: 0.7
Mode: 0
LetterboxInBreaks: 0
SkinPreference:-+YUGEN+-
WidescreenStoryboard: 1

[Editor]
DistanceSpacing: 0.8
BeatDivisor: 2
GridSize: 8
TimelineZoom: 1

[Metadata]
Title:Blue Dog
TitleUnicode:Blue Dog
Artist:Gabe The Dog
ArtistUnicode:Gabe The Dog
Creator:Foxe
Version:Normal
Source:
Tags:
BeatmapID:1128258
BeatmapSetID:521620

[Difficulty]
HPDrainRate:4
CircleSize:3
OverallDifficulty:5
ApproachRate:6.5
SliderMultiplier:1.4
SliderTickRate:1

[Events]
//Background and Video events
0,0,"o-GABE-SADDEST-DOG-MONOLOGUE-EVER-facebook.jpg",0,0
//Break Periods
//Storyboard Layer 0 (Background)
//Storyboard Layer 1 (Fail)
//Storyboard Layer 2 (Pass)
//Storyboard Layer 3 (Foreground)
//Storyboard Sound Samples

[TimingPoints]
-794,468.75,7,2,0,100,1,0
13620,-100,7,3,0,30,0,0
15143,-100,7,2,0,100,0,1
28634,-100,7,2,0,100,0,0
28734,-100,7,3,0,30,0,0
30026,-100,7,2,0,100,0,0

[HitObjects]
56,120,143,6,0,P|104:128|120:140,1,70
72,208,612,2,0,P|104:240|128:248,1,70
208,248,1081,1,0,0:0:0:0:
208,160,1315,2,0,P|240:160|284:196,1,70
296,256,1784,1,0,0:0:0:0:
376,256,2018,2,0,B|376:208|392:208|408:196,1,70
488,192,2721,5,0,0:0:0:0:
400,192,2956,2,0,B|400:240|400:240|432:272,1,70
416,336,3424,1,0,0:0:0:0:
336,336,3659,1,0,0:0:0:0:
256,336,3893,2,0,L|256:260,2,70
176,336,4596,1,0,0:0:0:0:
176,256,4831,2,0,B|176:208|176:208|208:184,1,70
280,192,5299,1,0,0:0:0:0:
360,192,5534,2,0,L|444:192,1,70
432,112,6002,1,0,0:0:0:0:
432,200,6471,6,0,B|480:232|480:232|508:232,2,70
352,192,7174,1,0,0:0:0:0:
272,192,7409,1,0,0:0:0:0:
192,192,7643,2,0,B|140:192|128:228|128:252,1,70
128,304,8112,1,0,0:0:0:0:
208,304,8346,1,0,0:0:0:0:
288,304,8581,2,0,L|360:304,1,70
360,224,9036,1,0,0:0:0:0:
280,224,9284,2,0,B|232:224|232:192|232:168,1,70
232,104,9752,1,0,0:0:0:0:
144,112,10221,6,0,B|112:120|96:164|120:192,1,70
104,248,10690,2,0,B|112:280|156:296|184:272,1,70
240,288,11159,1,0,0:0:0:0:
240,200,11393,2,0,L|336:200,1,70
384,200,11862,1,0,0:0:0:0:
384,120,12096,1,0,0:0:0:0:
384,40,12331,1,0,0:0:0:0:
304,40,12565,2,0,L|224:40,1,70
240,120,13034,1,0,0:0:0:0:
240,200,13268,2,0,L|240:280,1,70
240,248,15143,6,0,P|248:222|296:182,1,70
376,192,15612,2,0,P|360:232|336:256,1,70
280,304,16081,1,0,0:0:0:0:
200,304,16315,1,0,0:0:0:0:
120,304,16549,2,0,L|120:232,1,70
120,152,17018,2,0,B|112:120|68:104|40:128,1,70
72,40,17721,5,0,0:0:0:0:
152,40,17956,1,0,0:0:0:0:
232,40,18190,1,0,0:0:0:0:
232,120,18424,2,0,B|208:144|208:144|160:136,1,70
96,136,18893,2,0,B|72:160|72:160|80:208,1,70
88,264,19362,2,0,B|112:288|112:288|160:280,1,70
224,280,19831,1,0,0:0:0:0:
224,200,20067,2,0,L|320:200,1,70
376,200,20536,1,0,0:0:0:0:
376,120,20771,1,0,0:0:0:0:
296,120,21006,1,0,0:0:0:0:
216,120,21475,6,0,L|136:120,1,70
64,120,21944,1,0,0:0:0:0:
64,200,22174,1,0,0:0:0:0:
144,200,22409,2,0,L|144:272,1,70
224,272,22883,1,0,0:0:0:0:
224,192,23112,1,0,0:0:0:0:
224,112,23346,2,0,B|192:88|192:88|160:112,1,70
160,184,23815,2,0,L|160:256,1,70
160,328,24284,2,0,L|88:328,1,70
88,248,24761,1,0,0:0:0:0:
88,168,25221,6,0,L|168:168,1,70
240,168,25690,2,0,L|240:96,1,70
240,24,26159,2,0,L|160:24,1,70
88,32,26627,2,0,L|88:120,1,70
88,184,27096,2,0,L|168:184,1,70
240,184,27565,1,0,0:0:0:0:
320,184,27799,1,0,0:0:0:0:
320,264,28034,2,0,L|416:264,1,70
384,184,28502,1,0,0:0:0:0:
384,184,30143,6,0,L|384:104,1,70
304,112,30612,1,0,0:0:0:0:
224,112,30846,2,0,L|136:112,1,70
72,112,31315,1,0,0:0:0:0:
72,192,31549,2,0,L|72:264,1,70
152,264,32018,2,0,L|224:264,1,70
296,264,32721,5,0,0:0:0:0:
376,264,32956,1,0,0:0:0:0:
456,264,33190,2,0,L|456:184,2,70
456,336,33893,1,0,0:0:0:0:
376,336,34127,1,0,0:0:0:0:
296,336,34362,2,0,L|224:336,1,70
224,256,34831,2,0,L|296:256,1,70
376,256,35299,1,0,0:0:0:0:
376,176,35534,1,0,0:0:0:0:
296,176,35768,2,0,L|224:176,1,70
144,176,36471,5,0,0:0:0:0:
226,176,36706,2,0,P|266:192|282:216,1,70
288,288,37174,1,0,0:0:0:0:
368,288,37409,2,0,L|368:216,1,70
368,144,37877,1,0,0:0:0:0:
288,144,38112,2,0,P|256:136|224:104,1,70
232,32,38581,1,0,0:0:0:0:
312,32,38815,2,0,P|344:40|384:64,1,70
376,136,39284,1,0,0:0:0:0:
376,216,39518,2,0,P|336:208|312:184,1,70
240,184,40221,5,0,0:0:0:0:
160,184,40456,1,0,0:0:0:0:
160,104,40690,2,0,L|160:32,1,70
240,32,41159,1,0,0:0:0:0:
320,32,41393,1,0,0:0:0:0:
320,112,41627,2,0,L|320:208,1,70
320,256,42096,1,0,0:0:0:0:
240,256,42331,2,0,L|152:256,1,70
88,256,42799,1,0,0:0:0:0:
88,176,43034,2,0,L|160:176,1,70
240,184,43502,2,0,P|280:184|312:208,1,70
304,280,43971,2,0,P|264:280|232:256,1,70
240,184,44440,1,0,0:0:0:0:
