osu file format v14

[General]
AudioFilename: audio.mp3
AudioLeadIn: 0
PreviewTime: -1
Countdown: 1
SampleSet: None
StackLeniency: 0.7
Mode: 0
LetterboxInBreaks: 0
WidescreenStoryboard: 1

[Editor]
DistanceSpacing: 0.8
BeatDivisor: 1
GridSize: 16
TimelineZoom: 1

[Metadata]
Title:Blue Dog
TitleUnicode:Blue Dog
Artist:Gabe The Dog
ArtistUnicode:Gabe The Dog
Creator:Foxe
Version:Hard
Source:
Tags:
BeatmapID:1128244
BeatmapSetID:521620

[Difficulty]
HPDrainRate:6
CircleSize:3
OverallDifficulty:7
ApproachRate:7.5
SliderMultiplier:1.4
SliderTickRate:1

[Events]
//Background and Video events
0,0,"o-GABE-SADDEST-DOG-MONOLOGUE-EVER-facebook.jpg",0,0
//Break Periods
//Storyboard Layer 0 (Background)
//Storyboard Layer 1 (Fail)
//Storyboard Layer 2 (Pass)
//Storyboard Layer 3 (Foreground)
//Storyboard Sound Samples

[TimingPoints]
-794,468.75,7,2,0,100,1,0
13620,-100,7,3,0,30,0,0
15143,-100,7,2,0,100,0,1
28620,-100,7,3,0,30,0,1
28634,-100,7,3,0,30,0,0
30026,-100,7,3,0,100,0,0

[HitObjects]
64,96,26,6,0,B|128:96|160:152|160:152,1,105
80,184,612,2,2,B|112:216|112:248,1,70
352,256,1081,5,2,0:0:0:0:
256,128,1315,1,0,0:0:0:0:
192,256,1549,2,2,P|200:288|224:320,1,70
96,256,2018,1,2,0:0:0:0:
96,160,2252,2,2,P|96:128|72:88,1,70
96,256,2721,5,0,0:0:0:0:
192,320,2956,1,2,0:0:0:0:
224,192,3190,1,0,0:0:0:0:
160,96,3424,2,2,P|120:104|96:128,1,70
288,96,3893,1,2,0:0:0:0:
352,224,4127,1,0,0:0:0:0:
192,224,4362,2,2,B|224:256|256:256,1,70
256,160,4831,5,2,0:0:0:0:
416,160,5065,1,0,0:0:0:0:
352,256,5299,1,2,0:0:0:0:
352,96,5534,1,0,0:0:0:0:
224,192,5768,1,2,0:0:0:0:
440,168,6002,2,2,B|456:224|440:256|440:256,1,70
416,320,6471,5,0,0:0:0:0:
288,320,6706,1,2,0:0:0:0:
288,224,6940,1,0,0:0:0:0:
192,224,7174,2,2,B|168:192|192:136|192:136,1,70
288,128,7643,1,0,0:0:0:0:
288,320,7877,1,0,0:0:0:0:
384,320,8112,2,2,B|432:288|472:328|472:328,1,70
448,192,8581,5,2,0:0:0:0:
384,96,8815,1,0,0:0:0:0:
320,192,9049,1,2,0:0:0:0:
384,288,9284,1,0,0:0:0:0:
256,288,9518,1,2,0:0:0:0:
192,192,9752,2,2,P|192:152|176:120,1,70
320,288,10221,5,0,0:0:0:0:
256,96,10456,1,2,0:0:0:0:
384,96,10690,1,0,0:0:0:0:
224,224,10924,1,2,0:0:0:0:
416,224,11159,1,0,0:0:0:0:
320,192,11393,1,2,0:0:0:0:
320,96,11627,1,0,0:0:0:0:
416,96,11862,2,2,B|456:88|488:104|488:104|488:104,1,70
448,192,12331,5,2,0:0:0:0:
384,256,12565,1,0,0:0:0:0:
320,160,12799,2,2,B|304:128|328:80|328:80|320:96,1,70
160,288,13268,1,2,0:0:0:0:
160,96,13502,1,0,0:0:0:0:
248,208,13737,2,2,P|296:208|328:176,1,70
288,96,14206,2,0,P|336:96|368:128,1,70
160,192,15143,6,2,L|224:160,1,70
288,224,15612,2,2,L|224:256,1,70
192,192,16081,5,2,0:0:0:0:
192,64,16315,1,0,0:0:0:0:
288,128,16549,1,2,0:0:0:0:
96,192,16784,1,0,0:0:0:0:
224,288,17018,1,2,0:0:0:0:
320,288,17252,2,2,B|352:288|384:256|384:256,1,70
288,192,17721,5,0,0:0:0:0:
192,128,17956,1,2,0:0:0:0:
288,64,18190,1,0,0:0:0:0:
384,224,18424,1,2,0:0:0:0:
384,96,18659,1,0,0:0:0:0:
224,96,18893,1,2,0:0:0:0:
224,192,19128,1,0,0:0:0:0:
224,320,19363,2,2,B|288:288|288:288,1,70
288,192,19832,5,2,0:0:0:0:
224,128,20067,1,0,0:0:0:0:
288,192,20301,1,2,0:0:0:0:
160,64,20536,1,0,0:0:0:0:
288,192,20771,1,2,0:0:0:0:
160,64,21006,2,2,P|192:48|240:48,2,70
352,96,21710,5,2,0:0:0:0:
288,256,21940,1,0,0:0:0:0:
224,96,22174,1,2,0:0:0:0:
160,288,22409,1,0,0:0:0:0:
288,160,22643,1,2,0:0:0:0:
288,320,22877,1,0,0:0:0:0:
416,192,23112,2,2,B|408:232|384:256|384:256|384:256,1,70
272,192,23581,5,2,0:0:0:0:
400,192,23815,1,0,0:0:0:0:
336,112,24049,1,2,0:0:0:0:
336,288,24284,1,0,0:0:0:0:
336,112,24518,1,2,0:0:0:0:
336,288,24752,2,2,P|336:240|336:208,1,70
112,240,25221,5,0,0:0:0:0:
160,80,25456,1,2,0:0:0:0:
208,240,25690,1,0,0:0:0:0:
80,128,25924,1,2,0:0:0:0:
240,128,26159,1,0,0:0:0:0:
320,96,26393,5,2,0:0:0:0:
384,256,26628,1,0,0:0:0:0:
448,96,26862,1,2,0:0:0:0:
304,208,27096,1,0,0:0:0:0:
464,208,27331,1,2,0:0:0:0:
320,80,27565,5,0,0:0:0:0:
256,288,27799,1,2,0:0:0:0:
192,80,28034,1,0,0:0:0:0:
256,160,28268,2,2,P|296:168|320:192,1,70
240,240,28737,2,2,P|200:232|176:208,1,70
256,128,29206,1,2,0:0:0:0:
256,224,29440,2,2,L|256:320,1,70
256,160,30143,5,2,0:0:0:0:
256,256,30377,1,0,0:0:0:0:
128,224,30612,1,2,0:0:0:0:
160,128,30846,1,0,0:0:0:0:
384,224,31081,1,2,0:0:0:0:
352,128,31315,1,0,0:0:0:0:
256,128,31549,1,2,0:0:0:0:
256,256,31784,1,0,0:0:0:0:
352,256,32018,2,2,P|384:224|416:224,1,70
384,128,32721,5,0,0:0:0:0:
288,64,32956,1,2,0:0:0:0:
224,192,33190,1,0,0:0:0:0:
384,224,33424,1,2,0:0:0:0:
320,288,33659,1,0,0:0:0:0:
320,128,33893,1,2,0:0:0:0:
224,128,34127,1,0,0:0:0:0:
128,128,34362,2,2,B|88:120|88:120|48:160,1,70
128,224,34831,5,2,0:0:0:0:
160,320,35065,1,0,0:0:0:0:
224,224,35299,1,2,0:0:0:0:
224,128,35534,1,0,0:0:0:0:
320,224,35768,1,2,0:0:0:0:
320,320,36002,2,2,B|240:344|176:320|176:320,1,140
96,208,36706,5,2,0:0:0:0:
168,72,36940,1,0,0:0:0:0:
168,304,37174,1,2,0:0:0:0:
256,192,37409,1,0,0:0:0:0:
256,72,37643,1,2,0:0:0:0:
360,192,37877,1,0,0:0:0:0:
352,280,38112,2,2,B|288:280|256:256|256:256,1,70
192,64,38581,5,2,0:0:0:0:
192,256,38815,1,0,0:0:0:0:
288,160,39049,1,2,0:0:0:0:
384,160,39284,1,0,0:0:0:0:
384,288,39518,1,2,0:0:0:0:
288,304,39752,2,2,B|288:272|288:272|288:224,1,70
288,144,40221,5,0,0:0:0:0:
208,224,40456,1,0,0:0:0:0:
288,48,40690,1,0,0:0:0:0:
368,224,40924,1,0,0:0:0:0:
192,128,41159,1,0,0:0:0:0:
384,128,41393,1,0,0:0:0:0:
160,304,41627,5,0,0:0:0:0:
288,48,41862,1,0,0:0:0:0:
416,304,42096,1,0,0:0:0:0:
192,176,42331,5,0,0:0:0:0:
288,304,42565,1,0,0:0:0:0:
384,176,42799,1,0,0:0:0:0:
288,48,43034,1,0,0:0:0:0:
128,192,43502,5,0,0:0:0:0:
128,304,43737,1,0,0:0:0:0:
272,304,43971,2,0,L|368:304,1,70
256,192,44440,5,0,0:0:0:0:
