osu file format v14

[General]
AudioFilename: audio.mp3
AudioLeadIn: 0
PreviewTime: -1
Countdown: 0
SampleSet: Soft
StackLeniency: 0.4
Mode: 0
LetterboxInBreaks: 0
WidescreenStoryboard: 0

[Editor]
Bookmarks: 1140,4140,12144,20144,24144,26144,27140,28144,36144,48144,50144,52144,60144,64144,72144,76144,78144
DistanceSpacing: 0.5
BeatDivisor: 4
GridSize: 4
TimelineZoom: 1

[Metadata]
Title:S.A.W
TitleUnicode:S.A.W
Artist:Gabe Castro
ArtistUnicode:Gabe Castro
Creator:Pozy
Version:Cannibal
Source:The Forest
Tags:Game Soundtrack Cassette 5
BeatmapID:2017399
BeatmapSetID:963574

[Difficulty]
HPDrainRate:6
CircleSize:4
OverallDifficulty:8
ApproachRate:9
SliderMultiplier:2.1
SliderTickRate:1

[Events]
//Background and Video events
0,0,"forest-wallpapers-61408-8646824.jpg",0,0
//Break Periods
//Storyboard Layer 0 (Background)
//Storyboard Layer 1 (Fail)
//Storyboard Layer 2 (Pass)
//Storyboard Layer 3 (Foreground)
//Storyboard Sound Samples

[TimingPoints]
140,500,4,2,0,100,1,0
2140,-66.6666666666667,4,2,0,100,0,0
2640,-100,4,2,0,100,0,0
4140,-57.1428571428571,4,2,0,100,0,0

[Colours]
Combo1 : 3,36,45
Combo2 : 153,168,54

[HitObjects]
176,362,140,6,0,P|212:327|232:315,1,52.5
302,278,390,2,0,P|266:243|246:231,1,52.5
128,167,640,5,0,0:0:0:0:
151,173,765,1,0,0:0:0:0:
182,165,890,1,0,0:0:0:0:
205,168,1015,1,0,0:0:0:0:
235,159,1140,2,0,P|281:157|300:162,1,52.5
407,235,1390,2,0,P|429:231|465:231,2,52.5
282,332,1765,1,0,0:0:0:0:
243,315,1890,1,0,0:0:0:0:
201,312,2015,1,0,0:0:0:0:
161,324,2140,6,0,P|102:303|71:258,1,78.7500030040742
30,349,2390,1,0,0:0:0:0:
16,356,2640,5,0,0:0:0:0:
9,333,2765,1,0,0:0:0:0:
18,302,2890,1,0,0:0:0:0:
15,279,3015,1,0,0:0:0:0:
24,249,3140,2,0,P|26:203|21:184,1,52.5
117,106,3390,2,0,P|115:60|120:41,2,52.5
126,208,3765,1,0,0:0:0:0:
24,249,3890,1,0,0:0:0:0:
307,348,4140,5,0,0:0:0:0:
281,354,4390,2,0,P|175:350|121:376,1,91.8750008761883
109,302,4640,5,0,0:0:0:0:
147,218,4765,1,0,0:0:0:0:
114,132,4890,1,0,0:0:0:0:
85,168,5015,1,0,0:0:0:0:
222,180,5140,2,0,P|287:200|334:250,1,91.8750008761883
398,315,5390,2,0,P|463:295|510:245,2,91.8750008761883
306,308,5765,1,0,0:0:0:0:
237,368,5890,1,0,0:0:0:0:
195,349,6015,1,0,0:0:0:0:
108,380,6140,6,0,P|61:353|37:313,1,91.8750008761883
163,259,6390,2,0,P|210:232|234:192,1,91.8750008761883
248,110,6640,1,0,0:0:0:0:
186,42,6765,1,0,0:0:0:0:
153,127,6890,1,0,0:0:0:0:
107,117,7015,1,0,0:0:0:0:
21,185,7140,2,0,B|13:215|13:215|17:247|17:247|4:293,1,91.8750008761883
120,356,7390,5,0,0:0:0:0:
165,346,7515,2,0,L|257:365,1,91.8750008761883
335,318,7765,1,0,0:0:0:0:
380,308,7890,2,0,L|469:326,1,91.8750008761883
401,205,8140,6,0,B|366:200|366:200|341:206|341:206|304:200,1,91.8750008761883
180,245,8390,2,0,P|173:185|200:130,1,91.8750008761883
112,94,8640,1,0,0:0:0:0:
198,63,8765,1,0,0:0:0:0:
264,126,8890,1,0,0:0:0:0:
308,113,9015,1,0,0:0:0:0:
365,40,9140,2,0,P|398:101|387:147,1,91.8750008761883
471,175,9390,1,0,0:0:0:0:
475,220,9515,6,0,P|414:253|368:242,1,91.8750008761883
304,228,9765,1,0,0:0:0:0:
212,217,9890,1,0,0:0:0:0:
177,247,10015,1,0,0:0:0:0:
149,159,10140,6,0,P|200:133|262:143,1,91.8750008761883
367,166,10390,2,0,P|412:163|451:140,1,91.8750008761883
385,74,10640,1,0,0:0:0:0:
306,122,10765,1,0,0:0:0:0:
287,212,10890,1,0,0:0:0:0:
241,214,11015,1,0,0:0:0:0:
179,281,11140,2,0,B|226:299|226:299|293:294,1,91.8750008761883
157,179,11390,5,0,0:0:0:0:
99,363,11515,1,0,0:0:0:0:
209,115,11640,5,0,0:0:0:0:
267,299,11765,1,0,0:0:0:0:
161,55,11890,5,0,0:0:0:0:
103,239,12015,1,0,0:0:0:0:
298,139,12140,2,0,L|323:227,1,91.8750008761883
393,286,12390,2,0,L|368:374,1,91.8750008761883
275,376,12640,5,0,0:0:0:0:
233,363,12765,1,0,0:0:0:0:
161,303,12890,1,0,0:0:0:0:
203,290,13015,1,0,0:0:0:0:
256,222,13140,6,0,P|183:206|155:215,1,91.8750008761883
86,252,13390,2,0,P|43:268|-1:264,2,91.8750008761883
161,303,13765,1,0,0:0:0:0:
168,209,13890,2,0,L|179:99,1,91.8750008761883
348,124,14140,6,0,P|295:166|253:172,1,91.8750008761883
362,150,14390,2,0,P|300:176|258:171,1,91.8750008761883
369,179,14640,2,0,P|302:188|263:173,1,91.8750008761883
369,208,14890,2,0,P|301:201|268:175,1,91.8750008761883
225,260,15140,1,0,0:0:0:0:
194,294,15265,1,0,0:0:0:0:
118,241,15390,2,0,P|76:221|31:221,2,91.8750008761883
126,251,15765,1,0,0:0:0:0:
123,342,15890,1,0,0:0:0:0:
208,374,16015,1,0,0:0:0:0:
276,312,16140,6,0,P|345:283|397:292,1,91.8750008761883
271,289,16390,2,0,P|345:278|393:300,1,91.8750008761883
272,265,16640,2,0,P|346:274|386:308,1,91.8750008761883
279,242,16890,2,0,P|348:270|378:313,1,91.8750008761883
407,359,17140,1,0,0:0:0:0:
441,329,17265,1,0,0:0:0:0:
444,237,17390,2,0,B|440:186|440:186|455:113,2,91.8750008761883
354,211,17765,1,0,0:0:0:0:
344,119,17890,2,0,L|377:-5,1,91.8750008761883
268,173,18140,6,0,P|195:153|145:162,1,91.8750008761883
97,196,18390,2,0,P|51:193|8:176,1,91.8750008761883
68,107,18640,1,0,0:0:0:0:
151,67,18765,1,0,0:0:0:0:
179,153,18890,2,0,P|187:210|174:245,1,91.8750008761883
139,326,19140,2,0,P|196:318|231:331,1,91.8750008761883
317,308,19390,2,0,P|360:320|405:310,2,91.8750008761883
250,243,19765,1,0,0:0:0:0:
335,210,19890,1,0,0:0:0:0:
83,72,20140,6,0,L|58:192,1,91.8750008761883
155,144,20390,2,0,L|130:264,1,91.8750008761883
227,216,20640,2,0,L|202:336,1,91.8750008761883
233,344,20890,1,0,0:0:0:0:
299,280,21015,1,0,0:0:0:0:
324,242,21141,2,0,L|305:152,1,91.8750008761883
236,90,21390,1,0,0:0:0:0:
211,128,21515,2,0,P|145:151|86:125,1,91.8750008761883
49,200,21765,1,0,0:0:0:0:
108,269,21890,2,0,P|131:335|105:394,1,91.8750008761883
240,205,22140,6,0,P|217:271|243:330,1,91.8750008761883
261,212,22390,2,0,P|221:269|231:333,1,91.8750008761883
279,225,22640,2,0,P|226:270|219:334,1,91.8750008761883
293,241,22890,2,0,P|230:271|206:331,1,91.8750008761883
302,261,23140,2,0,P|233:274|195:326,1,91.8750008761883
287,347,23390,1,0,0:0:0:0:
373,317,23515,2,0,P|392:247|372:202,1,91.8750008761883
318,169,23765,1,0,0:0:0:0:
299,126,23890,2,0,P|311:54|348:22,1,91.8750008761883
160,170,24140,6,0,P|118:110|71:96,1,91.8750008761883
50,205,24390,2,0,P|91:264|138:278,1,91.8750008761883
174,169,24640,6,0,P|122:94|62:77,1,91.8750008761883
36,213,24890,2,0,P|87:287|147:304,1,91.8750008761883
229,268,25140,6,0,P|270:208|317:194,1,91.8750008761883
339,303,25390,2,0,P|297:362|250:376,1,91.8750008761883
215,267,25640,6,0,P|266:192|326:175,1,91.8750008761883
353,311,25890,2,0,P|301:385|241:402,1,91.8750008761883
162,332,26140,5,0,0:0:0:0:
141,239,26265,1,0,0:0:0:0:
120,148,26390,1,0,0:0:0:0:
223,271,26515,5,0,0:0:0:0:
198,161,26640,1,0,0:0:0:0:
173,54,26765,1,0,0:0:0:0:
276,87,26890,2,0,L|380:129,1,91.8750008761883
401,310,27140,5,0,0:0:0:0:
198,161,27265,1,0,0:0:0:0:
42,362,27390,1,0,0:0:0:0:
302,324,27515,1,0,0:0:0:0:
106,161,27640,1,0,0:0:0:0:
243,379,27765,1,0,0:0:0:0:
308,131,27890,1,0,0:0:0:0:
69,42,28015,1,0,0:0:0:0:
124,327,28140,6,0,L|217:234,1,91.8750008761883
322,165,28390,2,0,L|229:258,1,91.8750008761883
138,361,28640,1,0,0:0:0:0:
