osu file format v14

[General]
AudioFilename: audio.mp3
AudioLeadIn: 0
PreviewTime: 55921
Countdown: 0
SampleSet: Soft
StackLeniency: 0.7
Mode: 0
LetterboxInBreaks: 0
WidescreenStoryboard: 1

[Editor]
Bookmarks: 98698
DistanceSpacing: 2
BeatDivisor: 4
GridSize: 8
TimelineZoom: 1

[Metadata]
Title:American Dream (Not Your Dope remix)
TitleUnicode:American Dream (Not Your Dope remix)
Artist:Gabbie June
ArtistUnicode:Gabbie June
Creator:[ M I N A K O ]
Version:Hyper
Source:
Tags:short version drop jukkaduei zyl
BeatmapID:1131548
BeatmapSetID:534172

[Difficulty]
HPDrainRate:5.5
CircleSize:4.3
OverallDifficulty:6.5
ApproachRate:8
SliderMultiplier:1.25
SliderTickRate:1

[Events]
//Background and Video events
0,0,"hyper bg.png",0,0
//Break Periods
//Storyboard Layer 0 (Background)
//Storyboard Layer 1 (Fail)
//Storyboard Layer 2 (Pass)
//Storyboard Layer 3 (Foreground)
//Storyboard Sound Samples

[TimingPoints]
4030,324.324324324324,4,1,1,50,1,0
5002,-142.857142857143,4,2,1,50,0,0
24786,-161.290322580645,4,2,1,50,0,0
26084,-100,4,2,1,50,0,0
36462,-100,4,1,1,50,0,0
55921,-200,4,2,1,50,0,0
57219,-90.9090909090909,4,1,1,50,0,1
75381,-100,4,1,1,50,0,0
77327,-100,4,2,1,50,0,0
77975,-90.9090909090909,4,1,1,50,0,1
80570,-90.9090909090909,4,3,1,50,0,1
88354,-90.9090909090909,4,1,1,50,0,1
90948,-90.9090909090909,4,3,1,50,0,1
96138,-200,4,2,1,50,0,0
102624,-200,4,2,1,5,0,0

[Colours]
Combo1 : 158,208,245
Combo2 : 5,185,237
Combo3 : 250,255,244
Combo4 : 168,244,172

[HitObjects]
337,96,5002,5,0,0:0:0:0:
266,146,5165,1,0,0:0:0:0:
206,85,5327,2,0,P|190:115|211:218,1,131.249995994568,6|0,0:0|0:0,0:0:0:0:
277,255,5975,2,0,B|345:243|327:282|417:253,1,131.249995994568,2|0,0:0|0:0,0:0:0:0:
471,201,6624,1,2,0:0:0:0:
334,79,6948,1,0,0:0:0:0:
471,201,7273,1,0,0:0:0:0:
334,79,7597,1,0,0:0:0:0:
471,201,7921,6,0,P|434:213|392:263,1,87.499997329712
303,356,8570,2,0,P|340:344|382:294,1,87.499997329712
443,173,9219,2,0,P|406:185|364:235,1,87.499997329712
275,328,9867,2,0,P|312:316|354:266,1,87.499997329712
266,243,10354,1,0,0:0:0:0:
200,299,10516,6,0,P|190:251|228:167,1,131.249995994568,2|0,0:0|0:0,0:0:0:0:
291,126,11165,2,0,B|352:116|352:116|422:138,1,131.249995994568
495,182,11813,1,0,0:0:0:0:
397,337,12138,1,0,0:0:0:0:
495,182,12462,1,0,0:0:0:0:
397,337,12786,1,0,0:0:0:0:
495,182,13111,6,0,L|417:130,1,87.499997329712,2|0,0:0|0:0,0:0:0:0:
294,43,13759,2,0,L|372:95,1,87.499997329712
472,209,14408,2,0,L|394:157,2,87.499997329712,2|0|0,0:0|0:0|0:0,0:0:0:0:
475,295,15219,1,0,0:0:0:0:
393,331,15381,1,0,0:0:0:0:
310,302,15543,1,0,0:0:0:0:
256,235,15705,6,0,B|246:164|272:189|255:103,1,131.249995994568,2|0,0:0|0:0,0:0:0:0:
210,31,16354,2,0,P|168:26|101:94,1,131.249995994568
185,113,17002,1,0,0:0:0:0:
130,288,17327,1,0,0:0:0:0:
301,220,17651,2,0,P|363:208|384:211,2,65.624997997284,0|2|2,0:0|0:0|0:0,0:0:0:0:
374,278,18300,6,0,L|402:141,1,131.249995994568,2|0,0:0|0:0,0:0:0:0:
421,62,18948,2,0,P|366:69|282:57,1,131.249995994568
220,6,19597,2,0,B|209:36|209:36|221:104,1,87.499997329712
233,244,20246,2,0,B|244:214|244:214|232:146,1,87.499997329712
150,124,20732,1,0,0:0:0:0:
203,314,20894,6,0,P|263:309|310:253,1,131.249995994568,2|0,0:0|0:0,0:0:0:0:
325,170,21543,2,0,P|322:133|314:111,1,43.749998664856
245,80,21867,2,0,P|243:53|256:24,1,43.749998664856
326,1,22192,2,0,L|421:23,1,87.499997329712
247,37,22840,2,0,L|152:15,1,87.499997329712,2|0,0:0|0:0,0:0:0:0:
65,177,23489,1,0,0:0:0:0:
236,109,23813,1,0,0:0:0:0:
206,292,24138,1,0,0:0:0:0:
206,292,24786,6,0,B|188:231|203:205|203:205|249:215|294:201|294:201|305:243|340:252|384:233|377:198,1,290.624988470078,2|0,0:0|0:0,0:0:0:0:
383,177,26084,5,6,0:0:0:0:
457,95,26246,1,0,0:0:0:0:
483,203,26408,1,0,0:0:0:0:
407,285,26570,1,0,0:0:0:0:
383,177,26732,2,0,P|370:132|368:64,1,93.75
375,51,27057,2,0,P|314:60|303:58,1,62.5
221,3,27381,6,0,B|192:38|192:38|196:134,1,125,2|0,0:0|0:0,0:0:0:0:
211,228,27867,1,0,0:0:0:0:
211,228,28029,1,0,0:0:0:0:
305,167,28192,1,0,0:0:0:0:
416,166,28354,1,0,0:0:0:0:
502,228,28516,1,0,0:0:0:0:
416,166,28678,6,0,P|409:114|417:87,1,62.5,2|0,0:0|0:0,0:0:0:0:
481,25,29002,1,0,0:0:0:0:
481,25,29165,1,0,0:0:0:0:
371,43,29327,2,0,P|319:52|239:44,1,125
150,0,29813,1,0,0:0:0:0:
108,100,29975,6,0,B|93:138|93:138|104:229,1,125,2|0,0:0|0:0,0:0:0:0:
153,315,30462,1,0,0:0:0:0:
153,315,30624,2,0,P|210:294|237:295,1,62.5
323,299,30948,2,0,P|353:305|381:320,1,62.5
275,354,31273,5,2,0:0:0:0:
269,244,31435,1,0,0:0:0:0:
324,149,31597,1,0,0:0:0:0:
417,89,31759,1,0,0:0:0:0:
324,149,31921,2,0,B|293:164|293:164|268:142|218:141,1,93.75
209,163,32246,2,0,L|200:86,1,62.5
255,7,32570,6,0,P|183:6|117:26,1,125,2|0,0:0|0:0,0:0:0:0:
73,113,33057,1,0,0:0:0:0:
121,213,33219,2,0,P|154:235|190:248,1,62.5
270,190,33543,2,0,P|309:188|343:191,1,62.5
301,295,33867,5,2,0:0:0:0:
301,295,34029,1,0,0:0:0:0:
406,325,34192,1,0,0:0:0:0:
406,325,34354,1,0,0:0:0:0:
492,259,34516,2,0,B|430:218|483:206|410:151,1,125
328,95,35002,1,0,0:0:0:0:
228,137,35165,6,0,B|165:148|165:148|86:129,1,125,2|0,0:0|0:0,0:0:0:0:
24,61,35651,2,0,P|68:37|94:31,1,62.5
232,15,35975,1,2,0:0:0:0:
94,78,36138,1,2,0:0:0:0:
241,46,36300,1,2,0:0:0:0:
108,113,36462,6,0,B|107:148|107:148|144:243,1,125,6|8,0:0|0:0,0:0:0:0:
208,318,36948,1,0,0:0:0:0:
285,241,37111,2,0,P|309:188|297:112,1,125,0|8,0:0|0:0,0:0:0:0:
229,43,37597,1,0,0:0:0:0:
367,73,37759,2,0,B|412:79|439:66|439:66|421:107|422:137,1,125,2|8,0:0|0:0,0:0:0:0:
395,221,38246,2,0,L|405:291,1,62.5
320,355,38570,1,0,0:0:0:0:
320,355,38732,2,0,L|310:285,1,62.5,8|0,0:0|0:0,0:0:0:0:
294,154,39057,6,0,B|232:142|234:173|159:151,1,125,2|8,0:0|0:0,0:0:0:0:
101,69,39543,1,0,0:0:0:0:
76,175,39705,2,0,P|79:224|106:313,1,125,0|8,0:0|0:0,0:0:0:0:
188,364,40192,1,0,0:0:0:0:
255,239,40354,2,0,P|252:190|225:101,1,125,2|8,0:0|0:0,0:0:0:0:
210,14,40840,2,0,L|283:21,2,62.5
106,4,41327,1,8,0:0:0:0:
106,4,41489,1,0,0:0:0:0:
71,141,41651,6,0,P|95:189|91:269,1,125,2|8,0:0|0:0,0:0:0:0:
60,364,42138,1,0,0:0:0:0:
163,327,42300,2,0,L|209:250,1,62.5
255,180,42624,1,0,0:0:0:0:
255,180,42786,1,0,0:0:0:0:
184,57,42948,6,0,B|217:47|250:61|250:61|249:35|272:6,1,125,2|8,0:0|0:0,0:0:0:0:
341,91,43435,1,0,0:0:0:0:
403,182,43597,2,0,P|409:222|401:269,1,62.5
317,307,43921,2,0,P|315:258|322:227,1,62.5,8|0,0:0|0:0,0:0:0:0:
379,117,44246,6,0,B|317:106|318:146|245:117,1,125,2|8,0:0|0:0,0:0:0:0:
165,51,44732,1,0,0:0:0:0:
114,146,44894,2,0,L|128:224,1,62.5
183,302,45219,2,0,L|203:228,1,62.5,8|0,0:0|0:0,0:0:0:0:
243,108,45543,2,0,P|297:106|362:166,1,125,2|0,0:0|0:0,0:0:0:0:
370,253,46029,1,0,0:0:0:0:
370,253,46192,5,0,0:0:0:0:
256,200,46354,1,0,0:0:0:0:
313,308,46516,1,8,0:0:0:0:
328,186,46678,1,0,0:0:0:0:
248,272,46840,5,12,0:0:0:0:
232,272,47165,1,0,0:0:0:0:
216,272,47489,1,8,0:0:0:0:
200,272,47813,1,0,0:0:0:0:
104,144,48138,1,8,0:0:0:0:
120,144,48462,1,0,0:0:0:0:
136,144,48786,1,8,0:0:0:0:
152,144,49111,1,0,0:0:0:0:
304,88,49435,5,8,0:0:0:0:
312,104,49759,1,0,0:0:0:0:
312,120,50084,1,8,0:0:0:0:
304,136,50408,1,0,0:0:0:0:
160,72,50732,1,8,0:0:0:0:
152,56,51057,1,0,0:0:0:0:
152,40,51381,1,8,0:0:0:0:
160,24,51705,1,0,0:0:0:0:
252,152,52029,6,0,P|259:195|252:231,1,62.5,10|0,0:0|0:0,0:0:0:0:
185,293,52354,1,8,0:0:0:0:
99,228,52516,1,0,0:0:0:0:
128,122,52678,2,0,P|156:93|190:71,1,62.5,8|0,0:0|0:0,0:0:0:0:
272,30,53002,1,8,0:0:0:0:
346,108,53165,1,0,0:0:0:0:
298,206,53327,6,0,P|296:244|309:290,1,62.5,10|0,0:0|0:0,0:0:0:0:
362,359,53651,1,8,0:0:0:0:
413,260,53813,1,0,0:0:0:0:
387,153,53975,2,0,P|349:110|324:96,1,62.5,8|0,0:0|0:0,0:0:0:0:
248,58,54300,1,8,0:0:0:0:
159,124,54462,1,0,0:0:0:0:
222,215,54624,5,10,0:0:0:0:
238,221,54705,1,2,0:0:0:0:
256,224,54786,1,10,0:0:0:0:
273,221,54867,1,2,0:0:0:0:
288,215,54948,2,0,P|315:205|340:201,3,31.25,10|2|10|2,0:0|0:0|0:0|0:0,0:0:0:0:
341,207,55273,2,0,P|369:215|393:228,3,31.25,10|2|10|2,0:0|0:0|0:0|0:0,0:0:0:0:
386,229,55597,6,0,P|396:254|398:285,3,31.25,10|10|10|10,0:0|0:0|0:0|0:0,0:0:0:0:
391,290,55921,6,0,L|385:353,2,62.5,2|0|0,0:0|0:0|0:0,0:0:0:0:
402,200,56894,1,0,0:0:0:0:
402,200,57219,6,0,P|365:177|314:172,1,68.7500020980836,6|0,0:0|0:0,0:0:0:0:
234,233,57543,2,0,P|271:256|322:261,1,68.7500020980836,10|0,0:0|0:0,0:0:0:0:
229,126,57867,2,0,L|158:333,1,206.250006294251,2|0,0:0|0:0,0:0:0:0:
155,338,58435,1,0,0:0:0:0:
148,354,58516,1,2,0:0:0:0:
89,248,58678,1,0,0:0:0:0:
166,152,58840,2,0,P|219:127|249:123,1,68.7500020980836,10|0,0:0|0:0,0:0:0:0:
76,148,59165,6,0,P|127:93|190:64,2,137.500004196167,2|10|6,0:0|0:0|0:0,0:0:0:0:
83,269,59975,1,0,0:0:0:0:
188,204,60138,1,0,0:0:0:0:
275,289,60300,1,0,0:0:0:0:
365,208,60462,2,0,P|359:164|340:131,1,68.7500020980836,10|0,0:0|0:0,0:0:0:0:
268,52,60786,1,0,0:0:0:0:
268,52,60948,1,0,0:0:0:0:
177,135,61111,6,0,P|118:148|86:147,1,68.7500020980836,2|0,0:0|0:0,0:0:0:0:
163,40,61435,1,8,0:0:0:0:
252,126,61597,1,0,0:0:0:0:
194,233,61759,2,0,L|203:311,1,68.7500020980836,10|0,0:0|0:0,0:0:0:0:
292,214,62084,2,0,L|265:293,1,68.7500020980836,2|0,0:0|0:0,0:0:0:0:
353,174,62408,6,0,P|325:152|276:140,1,68.7500020980836,6|0,0:0|0:0,0:0:0:0:
173,139,62732,2,0,P|140:150|113:171,1,68.7500020980836,10|0,0:0|0:0,0:0:0:0:
239,84,63057,2,0,B|220:198|260:170|231:305,1,206.250006294251,2|0,0:0|0:0,0:0:0:0:
231,304,63624,1,0,0:0:0:0:
222,322,63705,1,2,0:0:0:0:
144,223,63867,1,0,0:0:0:0:
85,328,64029,2,0,P|68:290|61:245,1,68.7500020980836
96,117,64354,6,0,B|137:64|197:78|197:78|183:102,2,137.500004196167,2|10|6,0:0|0:0|0:0,0:0:0:0:
180,204,65165,1,0,0:0:0:0:
276,129,65327,1,0,0:0:0:0:
290,249,65489,1,0,0:0:0:0:
388,169,65651,2,0,P|396:122|385:79,1,68.7500020980836,10|0,0:0|0:0,0:0:0:0:
312,11,65975,1,0,0:0:0:0:
276,129,66138,1,0,0:0:0:0:
312,11,66300,6,0,L|222:26,1,68.7500020980836,2|0,0:0|0:0,0:0:0:0:
123,44,66624,1,8,0:0:0:0:
73,157,66786,1,0,0:0:0:0:
114,269,66948,2,0,P|156:278|187:278,1,68.7500020980836,10|0,0:0|0:0,0:0:0:0:
302,284,67273,2,0,P|336:282|369:274,1,68.7500020980836
258,230,67597,6,0,L|308:291,1,68.7500020980836,6|0,0:0|0:0,0:0:0:0:
317,166,67921,2,0,L|228:154,1,68.7500020980836,10|0,0:0|0:0,0:0:0:0:
136,256,68246,2,0,B|128:138|128:138|165:57,1,206.250006294251,2|0,0:0|0:0,0:0:0:0:
174,47,68813,1,0,0:0:0:0:
187,33,68894,1,2,0:0:0:0:
244,142,69057,1,0,0:0:0:0:
329,55,69219,2,0,L|310:-24,1,68.7500020980836,10|0,0:0|0:0,0:0:0:0:
326,140,69543,6,0,P|369:118|408:31,2,137.500004196167,2|10|2,0:0|0:0|0:0,0:0:0:0:
230,62,70354,1,0,0:0:0:0:
235,185,70516,1,0,0:0:0:0:
151,95,70678,1,0,0:0:0:0:
159,217,70840,2,0,B|163:256|195:309,1,68.7500020980836,10|0,0:0|0:0,0:0:0:0:
277,354,71165,1,0,0:0:0:0:
258,235,71327,1,0,0:0:0:0:
350,317,71489,6,0,P|379:282|390:250,1,68.7500020980836,2|0,0:0|0:0,0:0:0:0:
374,143,71813,1,8,0:0:0:0:
374,143,71975,1,0,0:0:0:0:
279,77,72138,1,10,0:0:0:0:
306,195,72300,1,0,0:0:0:0:
279,77,72462,1,0,0:0:0:0:
306,195,72624,1,0,0:0:0:0:
279,77,72786,6,0,L|197:66,1,68.7500020980836,6|0,0:0|0:0,0:0:0:0:
94,102,73111,2,0,L|185:117,1,68.7500020980836,10|0,0:0|0:0,0:0:0:0:
52,9,73435,2,0,L|105:224,1,206.250006294251,2|0,0:0|0:0,0:0:0:0:
107,226,74002,1,0,0:0:0:0:
113,242,74084,2,0,P|155:212|194:198,1,68.7500020980836,2|0,0:0|0:0,0:0:0:0:
282,249,74408,2,0,P|248:266|206:278,1,68.7500020980836,10|0,0:0|0:0,0:0:0:0:
326,161,74732,6,0,B|372:210|372:210|378:298,2,137.500004196167,2|10|2,0:0|0:0|0:0,0:0:0:0:
326,161,75543,1,0,0:0:0:0:
256,72,75705,1,0,0:0:0:0:
256,72,75867,1,0,0:0:0:0:
150,125,76029,1,8,0:0:0:0:
150,125,76192,1,0,0:0:0:0:
218,233,76354,1,0,0:0:0:0:
218,233,76516,1,0,0:0:0:0:
323,113,76678,6,0,L|355:97,3,31.25,2|0|0|0,0:0|0:0|0:0|0:0,0:0:0:0:
387,89,77002,2,0,L|425:106,3,31.25,2|0|0|0,0:0|0:0|0:0|0:0,0:0:0:0:
430,113,77327,5,8,0:0:0:0:
439,133,77408,1,8,0:0:0:0:
437,155,77489,1,8,0:0:0:0:
425,173,77570,1,8,0:0:0:0:
410,187,77651,1,8,0:0:0:0:
397,205,77732,1,8,0:0:0:0:
394,225,77813,1,8,0:0:0:0:
394,249,77894,1,8,0:0:0:0:
399,270,77975,6,0,L|321:292,1,68.7500020980836,6|0,0:0|0:0,0:0:0:0:
223,341,78300,2,0,L|295:348,1,68.7500020980836,8|0,0:0|0:0,0:0:0:0:
197,268,78624,2,0,L|141:317,1,68.7500020980836
107,198,78948,1,8,0:0:0:0:
210,129,79111,1,0,0:0:0:0:
50,145,79273,6,0,P|31:193|35:228,1,68.7500020980836,2|0,0:0|0:0,0:0:0:0:
124,131,79597,2,0,P|94:85|59:66,1,68.7500020980836,8|0,0:0|0:0,0:0:0:0:
107,198,79921,2,0,P|151:199|186:186,1,68.7500020980836
246,97,80246,1,8,0:0:0:0:
274,214,80408,1,0,0:0:0:0:
337,66,80570,6,0,P|385:53|448:73,1,103.125003147125,6|0,0:0|0:0,0:0:0:0:
445,78,80894,2,0,L|425:193,1,103.125003147125
419,198,81219,2,0,P|372:221|300:215,1,103.125003147125,8|0,0:0|0:0,0:0:0:0:
310,210,81543,2,0,L|325:318,1,103.125003147125
326,328,81867,2,0,B|270:317|284:343|196:324,1,103.125003147125,2|0,0:0|0:0,0:0:0:0:
212,324,82192,2,0,P|188:270|199:205,1,103.125003147125
201,212,82516,2,0,B|254:216|254:216|318:193,1,103.125003147125,8|0,0:0|0:0,0:0:0:0:
314,188,82840,2,0,P|292:137|292:66,1,103.125003147125
321,27,83165,6,0,P|265:19|218:73,1,103.125003147125,2|0,0:0|0:0,0:0:0:0:
214,78,83489,2,0,P|169:93|119:43,1,103.125003147125
117,38,83813,1,10,0:0:0:0:
63,185,84138,1,0,0:0:0:0:
63,185,84300,1,0,0:0:0:0:
63,185,84462,6,0,P|117:171|139:235,1,103.125003147125,2|0,0:0|0:0,0:0:0:0:
150,222,84786,2,0,P|194:242|235:195,1,103.125003147125
240,188,85111,1,10,0:0:0:0:
321,322,85435,1,0,0:0:0:0:
321,322,85597,1,0,0:0:0:0:
321,322,85759,6,0,L|327:191,1,103.125003147125,6|0,0:0|0:0,0:0:0:0:
328,201,86084,2,0,L|334:70,1,103.125003147125
334,79,86408,2,0,P|283:82|203:62,1,103.125003147125,8|0,0:0|0:0,0:0:0:0:
217,58,86732,2,0,P|232:120|216:189,1,103.125003147125
214,168,87057,2,0,B|161:157|161:157|97:182,1,103.125003147125,2|0,0:0|0:0,0:0:0:0:
108,191,87381,2,0,P|110:248|137:302,1,103.125003147125
143,300,87705,2,0,L|247:276,1,103.125003147125,8|0,0:0|0:0,0:0:0:0:
262,273,88029,2,0,P|299:257|375:274,1,103.125003147125
372,280,88354,6,0,L|382:189,1,68.7500020980836,6|0,0:0|0:0,0:0:0:0:
356,91,88678,2,0,L|332:174,1,68.7500020980836,8|0,0:0|0:0,0:0:0:0:
426,75,89002,2,0,L|392:14,1,68.7500020980836
275,41,89327,1,8,0:0:0:0:
159,9,89489,1,0,0:0:0:0:
93,108,89651,6,0,P|83:170|94:202,1,68.7500020980836,2|0,0:0|0:0,0:0:0:0:
165,262,89975,2,0,P|159:207|130:178,1,68.7500020980836,8|0,0:0|0:0,0:0:0:0:
101,305,90300,2,0,P|142:331|189:333,1,68.7500020980836
268,282,90624,1,8,0:0:0:0:
368,345,90786,1,0,0:0:0:0:
420,200,90948,6,0,P|415:148|370:93,1,103.125003147125,6|0,0:0|0:0,0:0:0:0:
362,107,91273,2,0,P|365:175|403:219,1,103.125003147125
402,213,91597,2,0,L|293:236,1,103.125003147125,8|0,0:0|0:0,0:0:0:0:
286,238,91921,2,0,P|240:193|231:134,1,103.125003147125
232,139,92246,2,0,B|177:153|177:153|117:136,1,103.125003147125,2|0,0:0|0:0,0:0:0:0:
121,126,92570,2,0,L|123:244,1,103.125003147125
125,251,92894,2,0,B|184:237|171:276|252:255,1,103.125003147125,8|0,0:0|0:0,0:0:0:0:
248,253,93219,2,0,P|293:242|363:262,1,103.125003147125
415,294,93543,6,0,P|425:242|394:190,1,103.125003147125,2|0,0:0|0:0,0:0:0:0:
388,184,93867,2,0,P|368:134|382:75,1,103.125003147125
392,69,94192,1,8,0:0:0:0:
243,97,94516,1,0,0:0:0:0:
243,97,94678,1,0,0:0:0:0:
243,97,94840,6,0,B|205:93|205:93|221:135|221:172,1,103.125003147125,2|0,0:0|0:0,0:0:0:0:
217,178,95165,2,0,P|200:222|130:248,1,103.125003147125
134,244,95489,1,0,0:0:0:0:
73,100,95813,1,0,0:0:0:0:
73,100,95975,1,0,0:0:0:0:
73,100,96138,6,0,P|125:92|148:93,1,62.5,2|0,0:0|0:0,0:0:0:0:
217,119,96786,2,0,P|254:124|291:120,1,62.5,2|0,0:0|0:0,0:0:0:0:
342,63,97435,2,0,P|381:58|417:62,1,62.5,2|0,0:0|0:0,0:0:0:0:
465,120,98084,2,0,P|470:153|461:195,1,62.5,2|2,0:0|0:0,0:0:0:0:
422,257,98732,5,6,0:0:0:0:
256,192,98813,12,0,102624,0:0:0:0:
