osu file format v14

[General]
AudioFilename: audio.mp3
AudioLeadIn: 0
PreviewTime: 55921
Countdown: 0
SampleSet: Soft
StackLeniency: 0.7
Mode: 0
LetterboxInBreaks: 0
WidescreenStoryboard: 1

[Editor]
Bookmarks: 98732
DistanceSpacing: 2
BeatDivisor: 1
GridSize: 4
TimelineZoom: 1

[Metadata]
Title:American Dream (Not Your Dope remix)
TitleUnicode:American Dream (Not Your Dope remix)
Artist:Gabbie June
ArtistUnicode:Gabbie June
Creator:[ M I N A K O ]
Version:Extra
Source:
Tags:short version drop jukkaduei zyl
BeatmapID:1169695
BeatmapSetID:534172

[Difficulty]
HPDrainRate:7
CircleSize:4.7
OverallDifficulty:8
ApproachRate:8.5
SliderMultiplier:1.45
SliderTickRate:1

[Events]
//Background and Video events
0,0,"bg3.jpg",0,0
//Break Periods
//Storyboard Layer 0 (Background)
//Storyboard Layer 1 (Fail)
//Storyboard Layer 2 (Pass)
//Storyboard Layer 3 (Foreground)
//Storyboard Sound Samples

[TimingPoints]
4030,324.324324324324,4,1,1,50,1,0
5002,-142.857142857143,4,2,1,50,0,0
26084,-100,4,2,1,50,0,0
36462,-100,4,1,1,50,0,0
54624,-66.6666666666667,4,1,1,50,0,0
55921,-200,4,2,1,20,0,0
57219,-100,4,1,1,50,0,1
57867,-125,4,1,1,50,0,1
58354,-100,4,1,1,50,0,1
59165,-125,4,1,1,50,0,1
59813,-100,4,1,1,50,0,1
63057,-200,4,1,1,50,0,1
63513,-100,4,1,1,50,0,1
64354,-111.111111111111,4,1,1,50,0,1
65002,-90.9090909090909,4,1,1,50,0,1
67597,-100,4,1,1,50,0,1
68246,-142.857142857143,4,1,1,50,0,1
68732,-100,4,1,1,50,0,1
69543,-133.333333333333,4,1,1,50,0,1
70192,-76.9230769230769,4,1,1,50,0,1
72786,-66.6666666666667,4,1,1,50,0,1
73435,-200,4,1,1,50,0,1
74732,-100,4,1,1,50,0,1
75381,-100,4,1,1,50,0,0
76678,-66.6666666666667,4,1,1,50,0,0
77327,-200,4,2,1,50,0,0
77975,-100,4,1,1,50,0,1
80570,-100,4,3,0,50,0,1
80894,-66.6666666666667,4,3,0,50,0,1
81219,-83.3333333333333,4,3,0,50,0,1
81543,-58.8235294117647,4,3,0,50,0,1
81867,-100,4,3,0,50,0,1
82192,-66.6666666666667,4,3,0,50,0,1
82516,-83.3333333333333,4,3,0,50,0,1
82840,-58.8235294117647,4,3,0,50,0,1
83165,-66.6666666666667,4,3,0,50,0,1
83489,-83.3333333333333,4,3,0,50,0,1
83813,-200,4,2,1,50,0,1
84462,-100,4,3,0,50,0,1
84786,-66.6666666666667,4,3,0,50,0,1
85111,-200,4,2,1,50,0,1
85759,-83.3333333333333,4,3,0,50,0,1
86084,-62.5,4,3,0,50,0,1
86408,-71.4285714285714,4,3,0,50,0,1
86732,-142.857142857143,4,3,0,50,0,1
87057,-166.666666666667,4,3,0,50,0,1
87381,-90.9090909090909,4,3,0,50,0,1
87705,-166.666666666667,4,3,0,50,0,1
88029,-90.9090909090909,4,3,0,50,0,1
88354,-66.6666666666667,4,1,1,50,0,1
90948,-100,4,3,0,50,0,1
91273,-66.6666666666667,4,3,0,50,0,1
91597,-83.3333333333333,4,3,0,50,0,1
91921,-58.8235294117647,4,3,0,50,0,1
92246,-71.4285714285714,4,3,0,50,0,1
92570,-55.5555555555556,4,3,0,50,0,1
92894,-71.4285714285714,4,3,0,50,0,1
93219,-50,4,3,0,50,0,1
93543,-66.6666666666667,4,3,0,50,0,1
93867,-100,4,3,0,50,0,1
94192,-200,4,2,1,50,0,1
94840,-80,4,3,0,50,0,1
95165,-64.5161290322581,4,3,0,50,0,1
95489,-125,4,2,1,50,0,1
96138,-200,4,2,1,50,0,0
98732,-66.6666666666667,4,1,1,50,0,0
102624,-200,4,2,1,5,0,0

[Colours]
Combo1 : 243,207,131
Combo2 : 255,81,81
Combo3 : 255,255,128
Combo4 : 255,126,64

[HitObjects]
168,80,5002,5,0,0:0:0:0:
128,196,5165,1,0,0:0:0:0:
116,24,5327,2,0,P|192:8|252:68,1,152.249995353699,4|0,0:0|0:0,0:0:0:0:
224,152,5975,2,0,P|216:220|224:268,1,101.499996902466,2|0,0:0|0:0,0:0:0:0:
287,114,6624,1,0,0:0:0:0:
320,268,6948,1,0,0:0:0:0:
176,320,7273,1,0,0:0:0:0:
100,184,7597,1,0,0:0:0:0:
244,72,7921,6,0,P|292:64|352:72,1,101.499996902466,2|0,0:0|0:0,0:0:0:0:
208,136,8570,2,0,P|172:104|156:48,1,101.499996902466
288,132,9219,2,0,P|272:176|228:224,1,101.499996902466
264,60,9867,2,0,P|316:56|352:100,1,101.499996902466
300,208,10354,1,0,0:0:0:0:
412,60,10516,6,0,B|444:20|444:20|420:84|424:132,1,152.249995353699,2|0,0:0|0:0,0:0:0:0:
460,236,11165,2,0,P|392:260|296:284,1,152.249995353699,2|0,0:0|0:0,0:0:0:0:
272,204,11813,2,0,P|228:180|172:168,1,101.499996902466
176,320,12462,1,0,0:0:0:0:
160,132,12786,1,0,0:0:0:0:
156,344,13111,6,0,L|256:320,2,101.499996902466
272,212,14084,2,0,L|172:236,2,101.499996902466
124,164,15057,1,0,0:0:0:0:
232,64,15219,2,0,P|254:69|292:83,2,50.749998451233
140,16,15705,6,0,P|172:144|180:180,1,152.249995353699,2|0,0:0|0:0,0:0:0:0:
260,128,16354,2,0,P|280:208|216:252,1,152.249995353699,2|0,0:0|0:0,0:0:0:0:
272,60,17002,2,0,P|320:88|340:128,1,101.499996902466,2|0,0:0|0:0,0:0:0:0:
160,88,17651,2,0,P|104:88|68:84,2,76.1249976768494,0|2|0,0:0|0:0|0:0,0:0:0:0:
296,56,18300,6,0,B|336:56|376:88|428:88|460:72,1,152.249995353699,2|0,0:0|0:0,0:0:0:0:
408,0,18948,2,0,P|388:96|392:164,1,152.249995353699,2|0,0:0|0:0,0:0:0:0:
480,176,19597,2,0,B|464:224|464:224|404:264,2,101.499996902466,2|0|0,0:0|0:0|0:0,0:0:0:0:
316,232,20570,1,0,0:0:0:0:
316,232,20732,1,0,0:0:0:0:
316,232,20894,6,0,P|288:152|288:124,1,101.499996902466,2|0,0:0|0:0,0:0:0:0:
212,264,21543,1,0,0:0:0:0:
152,128,21867,1,0,0:0:0:0:
312,56,22192,2,0,P|360:68|412:108,1,101.499996902466
248,92,22840,2,0,P|236:140|196:192,1,101.499996902466
128,56,23489,5,2,0:0:0:0:
84,200,23813,1,0,0:0:0:0:
240,200,24138,2,0,B|332:196|344:196|344:196|308:176|268:132,1,202.999993804932,0|2,0:0|0:0,0:0:0:0:
408,72,25111,2,0,P|448:112|496:128,1,101.499996902466
309,74,25759,1,0,0:0:0:0:
309,74,26084,5,4,0:0:0:0:
224,168,26246,1,0,0:0:0:0:
121,98,26408,1,0,0:0:0:0:
204,5,26570,1,0,0:0:0:0:
224,168,26732,2,0,P|240:296|240:320,1,145
136,252,27219,1,0,0:0:0:0:
224,168,27381,6,0,B|300:172|300:172|372:152,1,145,2|0,0:0|0:0,0:0:0:0:
308,48,27867,1,0,0:0:0:0:
136,132,28029,2,0,P|116:180|112:212,1,72.5
228,104,28354,2,0,P|196:44|164:28,1,72.5
192,200,28678,6,0,P|236:212|280:208,1,72.5,2|0,0:0|0:0,0:0:0:0:
136,132,29002,2,0,P|100:152|68:180,1,72.5
262,211,29327,2,0,B|290:163|290:163|278:107|286:63,1,145
396,116,29813,1,0,0:0:0:0:
396,116,29975,6,0,P|400:224|400:264,1,145,2|0,0:0|0:0,0:0:0:0:
472,160,30462,1,0,0:0:0:0:
284,232,30624,1,0,0:0:0:0:
435,167,30786,1,0,0:0:0:0:
256,192,30948,1,0,0:0:0:0:
404,176,31111,1,0,0:0:0:0:
236,152,31273,6,0,P|172:124|152:108,1,72.5,2|0,0:0|0:0,0:0:0:0:
256,40,31597,1,0,0:0:0:0:
84,104,31759,1,0,0:0:0:0:
256,40,31921,2,0,B|368:28|368:28|360:48|360:76,1,145
404,172,32408,1,0,0:0:0:0:
288,144,32570,6,0,P|232:156|204:168,2,72.5,2|0|0,0:0|0:0|0:0,0:0:0:0:
280,264,33057,1,0,0:0:0:0:
168,224,33219,1,0,0:0:0:0:
124,336,33381,1,0,0:0:0:0:
240,372,33543,1,0,0:0:0:0:
280,264,33705,1,0,0:0:0:0:
112,152,33867,6,0,P|76:188|72:224,1,72.5,2|0,0:0|0:0,0:0:0:0:
52,88,34192,1,0,0:0:0:0:
180,120,34354,1,0,0:0:0:0:
320,56,34516,2,0,P|352:88|380:200,1,145
264,156,35002,1,0,0:0:0:0:
128,232,35165,6,0,B|144:160|144:160|112:64,1,145,2|0,0:0|0:0,0:0:0:0:
128,232,35651,2,0,L|228:252,1,72.5
368,112,35975,1,0,0:0:0:0:
256,316,36138,1,0,0:0:0:0:
204,112,36300,1,0,0:0:0:0:
392,264,36462,6,0,P|448:272|472:288,1,72.5,6|0,0:0|0:0,0:0:0:0:
372,156,36786,1,0,0:0:0:0:
308,288,36948,1,0,0:0:0:0:
244,188,37111,2,0,P|240:140|244:108,1,72.5
332,200,37435,1,0,0:0:0:0:
224,264,37597,6,0,P|160:264|128:256,2,72.5,0|2|0,0:0|0:0|0:0,0:0:0:0:
144,172,38084,1,0,0:0:0:0:
60,256,38246,1,0,0:0:0:0:
128,356,38408,1,0,0:0:0:0:
244,328,38570,6,0,L|394:328,1,145
320,232,39057,1,0,0:0:0:0:
208,176,39381,1,0,0:0:0:0:
244,60,39543,1,0,0:0:0:0:
244,60,39705,2,0,P|323:42|391:83,1,145
328,224,40192,1,0,0:0:0:0:
328,224,40354,6,0,P|392:240|480:184,1,145,2|0,0:0|0:0,0:0:0:0:
352,144,40840,1,0,0:0:0:0:
244,196,41002,1,0,0:0:0:0:
360,44,41165,1,0,0:0:0:0:
248,88,41327,2,0,P|208:68|144:116,1,108.75
160,120,41651,6,0,P|180:196|168:264,1,145,2|0,0:0|0:0,0:0:0:0:
72,188,42138,1,0,0:0:0:0:
64,304,42300,1,0,0:0:0:0:
44,164,42462,1,0,0:0:0:0:
100,316,42624,2,0,P|164:312|192:320,1,72.5
276,232,42948,6,0,P|256:92|256:56,1,145,2|0,0:0|0:0,0:0:0:0:
372,104,43435,1,0,0:0:0:0:
440,232,43597,2,0,P|424:288|396:328,1,72.5
376,184,43921,2,0,P|416:164|452:156,1,72.5
304,216,44246,6,0,B|216:220|216:220|132:184,1,145,2|0,0:0|0:0,0:0:0:0:
248,108,44732,1,0,0:0:0:0:
163,197,44894,2,0,L|83:209,1,72.5
200,264,45219,2,0,L|280:248,1,72.5
344,156,45543,6,0,P|356:100|300:32,1,145,2|0,0:0|0:0,0:0:0:0:
232,180,46029,1,0,0:0:0:0:
280,16,46192,1,0,0:0:0:0:
200,164,46354,1,0,0:0:0:0:
244,8,46516,1,0,0:0:0:0:
168,140,46678,1,0,0:0:0:0:
472,192,46840,5,12,0:0:0:0:
472,192,47165,1,8,0:0:0:0:
472,192,47489,1,8,0:0:0:0:
472,192,47813,1,8,0:0:0:0:
40,192,48138,5,8,0:0:0:0:
40,192,48462,1,8,0:0:0:0:
40,192,48786,1,8,0:0:0:0:
40,192,49111,1,8,0:0:0:0:
256,32,49435,5,8,0:0:0:0:
256,32,49759,1,8,0:0:0:0:
256,32,50084,1,8,0:0:0:0:
256,32,50408,1,8,0:0:0:0:
256,352,50732,5,8,0:0:0:0:
256,352,51057,1,8,0:0:0:0:
256,352,51381,1,8,0:0:0:0:
256,352,51705,1,8,0:0:0:0:
208,80,52029,5,8,0:0:0:0:
184,248,52192,1,8,0:0:0:0:
312,120,52354,1,8,0:0:0:0:
124,144,52516,1,8,0:0:0:0:
300,232,52678,5,8,0:0:0:0:
184,76,52840,1,8,0:0:0:0:
188,280,53002,1,8,0:0:0:0:
324,104,53165,1,8,0:0:0:0:
124,176,53327,5,8,0:0:0:0:
328,248,53489,1,8,0:0:0:0:
180,56,53651,1,8,0:0:0:0:
200,280,53813,1,8,0:0:0:0:
312,136,53975,5,8,0:0:0:0:
104,168,54138,1,8,0:0:0:0:
316,256,54300,1,8,0:0:0:0:
196,76,54462,1,8,0:0:0:0:
88,144,54624,5,8,0:0:0:0:
68,184,54705,1,8,0:0:0:0:
84,228,54786,1,8,0:0:0:0:
128,240,54867,1,8,0:0:0:0:
168,216,54948,1,8,0:0:0:0:
200,184,55029,1,8,0:0:0:0:
240,164,55111,1,8,0:0:0:0:
284,160,55192,1,8,0:0:0:0:
328,168,55273,5,8,0:0:0:0:
364,188,55354,1,8,0:0:0:0:
396,216,55435,1,8,0:0:0:0:
416,252,55516,1,8,0:0:0:0:
416,296,55597,1,8,0:0:0:0:
392,332,55678,1,8,0:0:0:0:
352,344,55759,1,8,0:0:0:0:
312,336,55840,1,8,0:0:0:0:
276,324,55921,6,0,P|232:328|196:324,2,72.5,2|2|2,0:0|0:0|0:0,0:0:0:0:
160,264,56894,2,0,P|132:304|128:316,1,54.375,2|0,0:0|0:0,0:0:0:0:
144,336,57219,5,4,0:0:0:0:
176,184,57381,1,0,0:0:0:0:
60,288,57543,1,8,0:0:0:0:
212,268,57705,1,0,0:0:0:0:
80,184,57867,2,0,P|80:136|176:68,1,174,2|0,0:0|0:0,0:0:0:0:
204,72,58435,1,0,0:0:0:0:
232,80,58516,5,8,0:0:0:0:
280,224,58678,1,0,0:0:0:0:
376,60,58840,1,8,0:0:0:0:
240,232,59002,1,0,0:0:0:0:
400,92,59165,2,0,B|408:144|408:144|392:212,2,116,2|8|0,0:0|0:0|0:0,0:0:0:0:
304,216,59975,5,0,0:0:0:0:
268,52,60138,1,0,0:0:0:0:
196,152,60300,1,0,0:0:0:0:
276,280,60462,2,0,P|336:280|372:260,1,72.5,8|0,0:0|0:0,0:0:0:0:
296,144,60786,1,0,0:0:0:0:
196,264,60948,1,0,0:0:0:0:
328,132,61111,6,0,L|316:32,1,72.5,8|0,0:0|0:0,0:0:0:0:
392,208,61435,1,0,0:0:0:0:
204,156,61597,1,0,0:0:0:0:
432,88,61759,1,10,0:0:0:0:
296,240,61921,1,0,0:0:0:0:
296,60,62084,1,2,0:0:0:0:
396,208,62246,1,0,0:0:0:0:
200,144,62408,6,0,L|112:156,1,72.5,6|0,0:0|0:0,0:0:0:0:
276,188,62732,2,0,L|352:176,1,72.5,2|0,0:0|0:0,0:0:0:0:
128,153,63057,2,0,B|116:208|116:208|124:277,1,108.75
152,144,63624,2,0,L|140:100,1,36.25
264,188,63867,1,0,0:0:0:0:
112,88,64029,1,0,0:0:0:0:
320,84,64192,1,0,0:0:0:0:
212,232,64354,6,0,P|276:256|328:196,2,130.499996017456,2|8|0,0:0|0:0|0:0,0:0:0:0:
288,88,65165,1,0,0:0:0:0:
144,152,65327,1,0,0:0:0:0:
168,4,65489,1,0,0:0:0:0:
312,120,65651,2,0,P|364:128|416:112,1,79.7500024337769,8|0,0:0|0:0,0:0:0:0:
312,20,65975,1,0,0:0:0:0:
240,152,66138,1,0,0:0:0:0:
456,136,66300,6,0,P|440:80|396:56,1,79.7500024337769,8|0,0:0|0:0,0:0:0:0:
352,196,66624,1,0,0:0:0:0:
352,196,66786,1,0,0:0:0:0:
256,56,66948,1,10,0:0:0:0:
220,232,67111,1,0,0:0:0:0:
376,80,67273,1,0,0:0:0:0:
160,132,67435,1,0,0:0:0:0:
356,224,67597,6,0,L|440:208,1,72.5,12|0,0:0|0:0,0:0:0:0:
260,224,67921,2,0,L|172:204,1,72.5,8|0,0:0|0:0,0:0:0:0:
308,160,68246,2,0,B|295:93|337:89|306:8,1,152.249995353699,2|0,0:0|0:0,0:0:0:0:
328,176,68813,2,0,L|332:224,1,36.25,0|12,0:0|0:0,0:0:0:0:
419,172,69057,1,0,0:0:0:0:
288,240,69219,1,8,0:0:0:0:
276,97,69381,1,0,0:0:0:0:
272,268,69543,6,0,L|160:284,2,108.750004148483,2|8|4,0:0|0:0|0:0,0:0:0:0:
82,226,70354,1,0,0:0:0:0:
82,226,70435,1,0,0:0:0:0:
82,226,70516,1,0,0:0:0:0:
212,204,70678,1,0,0:0:0:0:
104,96,70840,2,0,P|128:84|212:88,1,94.2499956855776,8|0,0:0|0:0,0:0:0:0:
136,220,71165,1,0,0:0:0:0:
216,56,71327,1,0,0:0:0:0:
152,252,71489,6,0,L|168:348,1,94.2499956855776,8|0,0:0|0:0,0:0:0:0:
264,272,71813,1,0,0:0:0:0:
212,168,71975,1,0,0:0:0:0:
352,268,72138,1,2,0:0:0:0:
160,216,72300,1,0,0:0:0:0:
392,200,72462,1,10,0:0:0:0:
156,284,72624,1,0,0:0:0:0:
332,316,72786,5,4,0:0:0:0:
300,164,72948,1,0,0:0:0:0:
416,268,73111,1,8,0:0:0:0:
264,248,73273,1,0,0:0:0:0:
400,80,73435,2,0,P|356:52|288:52,1,108.75,2|0,0:0|0:0,0:0:0:0:
272,52,74002,1,0,0:0:0:0:
244,60,74084,5,8,0:0:0:0:
196,204,74246,1,0,0:0:0:0:
100,40,74408,1,8,0:0:0:0:
236,212,74570,1,0,0:0:0:0:
76,72,74732,2,0,B|68:124|68:124|100:220,2,145,2|8|2,0:0|0:0|0:0,0:0:0:0:
104,52,75543,1,0,0:0:0:0:
180,96,75705,1,0,0:0:0:0:
176,128,75867,1,0,0:0:0:0:
264,96,76029,5,8,0:0:0:0:
256,60,76192,1,0,0:0:0:0:
340,80,76354,1,0,0:0:0:0:
336,112,76516,1,0,0:0:0:0:
236,228,76678,5,10,0:0:0:0:
200,212,76759,1,0,0:0:0:0:
184,180,76840,1,0,0:0:0:0:
192,144,76921,1,0,0:0:0:0:
220,120,77002,1,10,0:0:0:0:
256,104,77084,1,0,0:0:0:0:
260,64,77165,1,0,0:0:0:0:
244,32,77246,1,0,0:0:0:0:
220,16,77327,6,8,L|192:20,1,18.125
88,28,77489,2,8,L|112:36,1,18.125
168,76,77651,2,8,L|136:88,1,18.125
56,104,77813,2,8,L|84:108,1,18.125
128,160,77975,6,0,P|152:216|160:256,1,72.5,4|0,0:0|0:0,0:0:0:0:
224,124,78300,2,0,P|268:128|324:156,1,72.5,8|0,0:0|0:0,0:0:0:0:
248,252,78624,1,0,0:0:0:0:
328,112,78786,1,0,0:0:0:0:
264,280,78948,2,0,L|248:360,1,72.5,8|2,0:0|0:0,0:0:0:0:
288,100,79273,6,0,P|240:112|188:112,1,72.5,2|0,0:0|0:0,0:0:0:0:
356,80,79597,2,0,P|408:96|444:124,1,72.5
336,204,79921,1,8,0:0:0:0:
452,108,80084,1,0,0:0:0:0:
340,232,80246,2,0,L|264:268,1,72.5,0|2,0:0|0:0,0:0:0:0:
140,132,80570,6,0,P|156:88|204:40,1,108.75,4|0,0:0|0:0,0:0:0:0:
112,152,80894,2,0,P|136:80|212:12,1,163.125006222725,2|0,0:0|0:0,0:0:0:0:
252,160,81219,2,0,B|248:208|248:208|328:168,1,130.499996017456,8|0,0:0|0:0,0:0:0:0:
232,188,81543,2,0,B|228:236|228:236|380:156,1,184.875003526211,2|0,0:0|0:0,0:0:0:0:
168,128,81867,2,0,P|144:160|124:252,1,108.75
164,88,82192,2,0,P|108:180|96:256,1,163.125006222725,2|0,0:0|0:0,0:0:0:0:
252,300,82516,6,0,L|388:292,1,130.499996017456,8|0,0:0|0:0,0:0:0:0:
228,336,82840,2,0,L|432:320,1,184.875003526211,2|0,0:0|0:0,0:0:0:0:
316,204,83165,2,0,B|312:160|312:160|356:100|296:8,1,163.125006222725
192,34,83489,2,0,B|236:30|236:30|296:74|352:26,1,130.499996017456,2|0,0:0|0:0,0:0:0:0:
128,8,83813,6,0,P|128:48|148:88,1,72.5,2|0,0:0|0:0,0:0:0:0:
188,132,84300,1,0,0:0:0:0:
164,204,84462,6,0,P|220:196|292:228,1,108.75,4|0,0:0|0:0,0:0:0:0:
140,236,84786,2,0,P|208:220|304:252,1,163.125006222725,2|0,0:0|0:0,0:0:0:0:
352,280,85111,6,0,L|344:204,1,72.5,2|0,0:0|0:0,0:0:0:0:
312,140,85597,1,0,0:0:0:0:
248,92,85759,6,0,B|216:84|160:104|160:104|164:80|168:40,1,130.499996017456,4|0,0:0|0:0,0:0:0:0:
268,56,86084,2,0,B|236:48|172:80|172:80|184:44|188:4,1,174,2|0,0:0|0:0,0:0:0:0:
332,28,86408,2,0,P|352:84|316:172,1,152.249995353699,8|0,0:0|0:0,0:0:0:0:
245,177,86732,2,0,L|333:165,1,76.1249976768494,2|0,0:0|0:0,0:0:0:0:
184,132,87057,2,0,P|176:188|176:212,1,65.2499980087281
160,96,87381,2,0,P|148:212|148:244,1,119.625003650665,2|0,0:0|0:0,0:0:0:0:
232,44,87705,2,0,L|168:20,1,65.2499980087281,8|0,0:0|0:0,0:0:0:0:
260,60,88029,2,0,L|392:40,1,119.625003650665,2|0,0:0|0:0,0:0:0:0:
412,40,88354,6,0,P|404:104|408:160,1,108.750004148483,4|0,0:0|0:0,0:0:0:0:
316,224,88678,2,0,P|320:132|304:80,1,108.750004148483,8|0,0:0|0:0,0:0:0:0:
240,204,89002,1,0,0:0:0:0:
332,88,89165,1,0,0:0:0:0:
216,224,89327,2,0,L|84:232,1,108.750004148483,8|2,0:0|0:0,0:0:0:0:
256,276,89651,6,0,P|272:192|232:160,1,108.750004148483,2|0,0:0|0:0,0:0:0:0:
204,72,89975,2,0,P|188:156|228:188,1,108.750004148483,8|0,0:0|0:0,0:0:0:0:
280,76,90300,1,0,0:0:0:0:
176,192,90462,1,0,0:0:0:0:
308,64,90624,2,0,P|388:48|436:48,1,108.750004148483,8|2,0:0|0:0,0:0:0:0:
208,96,90948,6,0,B|176:88|176:88|72:100,1,108.75,4|0,0:0|0:0,0:0:0:0:
232,68,91273,2,0,B|176:44|176:44|44:64,1,163.125006222725,2|0,0:0|0:0,0:0:0:0:
200,196,91597,2,0,P|256:188|336:216,1,130.499996017456,8|0,0:0|0:0,0:0:0:0:
180,168,91921,2,0,P|272:160|368:216,1,184.875003526211,2|0,0:0|0:0,0:0:0:0:
336,276,92246,6,0,L|372:100,1,152.249995353699
368,312,92570,2,0,L|408:96,1,195.749994026184,2|0,0:0|0:0,0:0:0:0:
316,36,92894,2,0,B|260:52|260:52|216:28|148:36,1,152.249995353699,8|0,0:0|0:0,0:0:0:0:
336,72,93219,2,0,B|280:88|280:88|212:60|108:76,1,217.5,2|0,0:0|0:0,0:0:0:0:
108,168,93543,6,0,B|164:232|164:232|252:272,1,163.125006222725,4|0,0:0|0:0,0:0:0:0:
339,271,93867,2,0,P|267:255|227:267,1,108.75,2|0,0:0|0:0,0:0:0:0:
339,271,94192,6,0,L|368:204,1,72.5,2|0,0:0|0:0,0:0:0:0:
360,128,94678,1,0,0:0:0:0:
316,60,94840,6,0,P|252:48|208:116,1,135.9375,4|0,0:0|0:0,0:0:0:0:
312,28,95165,2,0,P|220:24|192:108,1,168.56250128603,2|0,0:0|0:0,0:0:0:0:
220,168,95489,6,0,B|212:200|240:236|220:288,1,116,2|0,0:0|0:0,0:0:0:0:
152,312,95975,1,0,0:0:0:0:
221,282,96138,6,0,L|309:282,1,72.5,6|2,0:0|0:0,0:0:0:0:
344,208,96786,2,0,L|268:208,1,72.5,2|2,0:0|0:0,0:0:0:0:
216,136,97435,2,0,L|288:136,1,72.5,2|2,0:0|0:0,0:0:0:0:
368,68,98084,2,0,L|288:68,1,72.5,2|2,0:0|0:0,0:0:0:0:
256,192,98732,5,4,0:0:0:0:
256,192,98813,12,0,102624,0:0:0:0:
