osu file format v14

[General]
AudioFilename: audio.mp3
AudioLeadIn: 0
PreviewTime: 55921
Countdown: 0
SampleSet: Normal
StackLeniency: 0.7
Mode: 0
LetterboxInBreaks: 0
WidescreenStoryboard: 1

[Editor]
Bookmarks: 98698
DistanceSpacing: 1
BeatDivisor: 2
GridSize: 4
TimelineZoom: 1

[Metadata]
Title:American Dream (Not Your Dope remix)
TitleUnicode:American Dream (Not Your Dope remix)
Artist:Gabbie June
ArtistUnicode:Gabbie June
Creator:[ M I N A K O ]
Version:Easy
Source:
Tags:short version drop jukkaduei zyl
BeatmapID:1131546
BeatmapSetID:534172

[Difficulty]
HPDrainRate:3
CircleSize:2.5
OverallDifficulty:3
ApproachRate:3
SliderMultiplier:0.9
SliderTickRate:1

[Events]
//Background and Video events
0,0,"bg1.jpg",0,0
//Break Periods
2,47040,50589
//Storyboard Layer 0 (Background)
//Storyboard Layer 1 (Fail)
//Storyboard Layer 2 (Pass)
//Storyboard Layer 3 (Foreground)
//Storyboard Sound Samples

[TimingPoints]
4030,324.324324324324,4,1,1,50,1,0
5002,-100,4,2,1,50,0,0
36462,-100,4,1,1,50,0,0
55921,-100,4,2,1,50,0,0
57219,-100,4,1,1,50,0,1
75381,-100,4,1,1,50,0,0
77975,-100,4,1,1,50,0,1
98732,-100,4,2,1,50,0,0
102624,-100,4,2,1,5,0,0

[Colours]
Combo1 : 188,185,249
Combo2 : 255,128,128
Combo3 : 255,204,230
Combo4 : 255,206,183

[HitObjects]
176,179,5002,5,0,0:0:0:0:
120,104,5327,2,0,P|160:76|260:144,1,180,6|0,0:0|0:0,0:0:0:0:
280,316,6624,2,0,P|223:337|130:260,1,180,2|0,0:0|0:0,0:0:0:0:
221,233,7597,1,0,0:0:0:0:
172,152,7921,2,0,P|163:79|252:38,1,180,2|0,0:0|0:0,0:0:0:0:
408,104,9219,2,0,L|500:100,2,90
324,140,10192,1,0,0:0:0:0:
396,202,10516,6,0,P|368:290|293:359,1,180,2|0,0:0|0:0,0:0:0:0:
164,245,11813,2,0,P|192:157|267:88,1,180,2|0,0:0|0:0,0:0:0:0:
314,28,12786,1,0,0:0:0:0:
389,78,13111,2,0,P|425:106|453:250,1,180
252,220,14408,2,0,L|232:308,2,90
260,132,15381,1,0,0:0:0:0:
200,64,15705,6,0,B|143:85|143:85|59:178,1,180,2|0,0:0|0:0,0:0:0:0:
220,260,17002,2,0,B|273:231|273:231|345:129,1,180,2|0,0:0|0:0,0:0:0:0:
264,88,17975,1,0,0:0:0:0:
176,108,18300,2,0,B|120:152|132:228|132:228|176:260,1,180,2|0,0:0|0:0,0:0:0:0:
348,272,19597,2,0,B|404:228|392:152|392:152|348:120,1,180,2|0,0:0|0:0,0:0:0:0:
280,76,20570,1,0,0:0:0:0:
240,156,20894,6,0,P|164:168|84:112,1,180,2|0,0:0|0:0,0:0:0:0:
108,24,21867,1,0,0:0:0:0:
180,76,22192,2,0,L|152:260,1,180,2|2,0:0|0:0,0:0:0:0:
322,333,23489,2,0,P|365:336|422:321,1,90
474,255,24138,1,2,0:0:0:0:
276,234,24786,2,0,P|266:135|266:135,1,90,2|0,0:0|0:0,0:0:0:0:
243,49,25435,2,0,P|191:49|147:65,1,90
134,150,26084,6,0,P|161:197|279:196,1,180,6|0,0:0|0:0,0:0:0:0:
335,130,27057,1,0,0:0:0:0:
364,216,27381,2,0,B|343:308|274:256|250:365,1,180,2|0,0:0|0:0,0:0:0:0:
179,299,28354,1,0,0:0:0:0:
125,223,28678,2,0,L|109:127,1,90,2|0,0:0|0:0,0:0:0:0:
199,152,29327,2,0,L|183:56,1,90
102,25,29975,6,0,L|298:33,2,180,2|0|2,0:0|0:0|0:0,0:0:0:0:
71,109,31597,1,0,0:0:0:0:
124,184,31921,2,0,P|180:192|216:192,1,90
284,136,32570,2,0,P|332:156|356:276,1,180,2|0,0:0|0:0,0:0:0:0:
278,227,33543,1,0,0:0:0:0:
208,280,33867,6,0,B|164:280|164:280|72:304|72:304|24:300,1,180,2|0,0:0|0:0,0:0:0:0:
36,212,34840,1,0,0:0:0:0:
124,184,35165,2,0,P|188:180|232:76,1,180,2|0,0:0|0:0,0:0:0:0:
156,30,36138,1,0,0:0:0:0:
83,84,36462,6,0,P|64:115|40:177,1,90,2|8,0:0|0:0,0:0:0:0:
73,258,37111,2,0,P|96:306|213:314,1,180
278,244,38084,2,0,P|262:184|250:148,2,90,8|0|8,0:0|0:0|0:0,0:0:0:0:
368,236,39057,6,0,P|400:188|368:72,1,180,10|0,0:0|0:0,0:0:0:0:
283,73,40029,1,8,0:0:0:0:
260,160,40354,2,0,P|184:172|132:88,1,180
208,48,41327,1,8,0:0:0:0:
298,47,41651,6,0,L|390:43,1,90,2|8,0:0|0:0,0:0:0:0:
363,129,42300,2,0,L|453:147,1,90,0|8,0:0|0:0,0:0:0:0:
420,231,42948,2,0,B|344:279|344:279|252:267,1,180,2|0,0:0|0:0,0:0:0:0:
158,118,44246,6,0,P|126:158|114:198,2,90,0|8|0,0:0|0:0|0:0,0:0:0:0:
250,100,45219,1,8,0:0:0:0:
328,148,45543,2,0,P|364:153|420:143,1,90,2|8,0:0|0:0,0:0:0:0:
415,50,46192,2,0,P|382:43|312:53,1,90,0|8,0:0|0:0,0:0:0:0:
250,100,46840,5,4,0:0:0:0:
256,192,52029,12,0,55921,0:0:0:0:
165,104,57219,6,0,P|199:82|261:84,1,90,4|0,0:0|0:0,0:0:0:0:
228,168,57867,2,0,L|192:348,1,180,2|0,0:0|0:0,0:0:0:0:
112,304,58840,1,0,0:0:0:0:
108,216,59165,2,0,L|92:112,1,90,2|8,0:0|0:0,0:0:0:0:
124,40,59813,6,0,P|200:76|288:32,1,180,0|8,0:0|0:0,0:0:0:0:
344,208,61111,2,0,P|268:172|180:216,1,180,0|8,0:0|0:0,0:0:0:0:
260,260,62084,1,0,0:0:0:0:
344,292,62408,6,0,L|440:332,1,90,4|0,0:0|0:0,0:0:0:0:
436,236,63057,2,0,P|416:192|348:64,1,180,2|0,0:0|0:0,0:0:0:0:
264,88,64029,1,0,0:0:0:0:
184,44,64354,2,0,P|148:92|132:128,1,90,2|8,0:0|0:0,0:0:0:0:
196,184,65002,2,0,B|282:151|282:223|380:180,1,180,0|8,0:0|0:0,0:0:0:0:
220,280,66300,2,0,B|143:308|123:243|40:278,1,180,0|8,0:0|0:0,0:0:0:0:
32,188,67273,1,0,0:0:0:0:
88,116,67597,6,0,L|192:108,1,90,4|0,0:0|0:0,0:0:0:0:
252,56,68246,2,0,B|284:92|280:132|280:132|252:172|252:228,1,180,2|0,0:0|0:0,0:0:0:0:
340,252,69219,1,0,0:0:0:0:
429,240,69543,2,0,P|413:304|385:336,1,90,2|8,0:0|0:0,0:0:0:0:
308,340,70192,6,0,B|264:312|220:316|220:316|208:264|168:240,1,180,0|8,0:0|0:0,0:0:0:0:
276,96,71489,2,0,B|320:124|364:120|364:120|376:172|416:196,1,180,0|8,0:0|0:0,0:0:0:0:
344,256,72462,1,0,0:0:0:0:
260,284,72786,2,0,P|212:308|164:300,1,90,8|0,0:0|0:0,0:0:0:0:
200,216,73435,6,0,B|174:124|229:129|204:35,1,180,2|0,0:0|0:0,0:0:0:0:
116,28,74408,1,0,0:0:0:0:
84,112,74732,2,0,L|84:204,1,90,2|8,0:0|0:0,0:0:0:0:
172,176,75381,2,0,P|256:152|304:304,1,270
240,238,76678,6,0,B|237:210|251:169|302:144|345:149|380:180|380:180|368:144|368:144|380:104|380:104|368:68|368:68|376:40|376:40|368:8,1,360,0|4,0:0|0:0,0:0:0:0:
280,32,78300,1,0,0:0:0:0:
212,92,78624,2,0,P|164:104|124:96,2,90,8|0|0,0:0|0:0|0:0,0:0:0:0:
280,32,79597,1,0,0:0:0:0:
312,116,79921,2,0,L|332:220,1,90,8|0,0:0|0:0,0:0:0:0:
260,260,80570,6,0,P|176:268|132:192,1,180,6|8,0:0|0:0,0:0:0:0:
152,104,81543,1,0,0:0:0:0:
228,55,81867,2,0,B|285:60|339:105|339:105|316:43,2,180,2|8|0,0:0|0:0|0:0,0:0:0:0:
168,120,83489,1,0,0:0:0:0:
188,208,83813,6,0,P|224:236|244:148,1,180,10|0,0:0|0:0,0:0:0:0:
320,96,84786,1,0,0:0:0:0:
408,76,85111,2,0,B|408:152|408:152|440:178|446:222|428:267,1,180,10|4,0:0|0:0,0:0:0:0:
352,217,86084,1,0,0:0:0:0:
273,262,86408,2,0,P|225:286|113:234,2,180,8|0|8,0:0|0:0|0:0,0:0:0:0:
352,216,88029,5,0,0:0:0:0:
352,124,88354,2,0,L|376:32,2,90,8|0|8,0:0|0:0|0:0,0:0:0:0:
288,187,89327,1,0,0:0:0:0:
264,100,89651,2,0,L|240:8,1,90,0|8,0:0|0:0,0:0:0:0:
160,56,90300,2,0,L|184:149,1,90,8|0,0:0|0:0,0:0:0:0:
92,136,90948,6,0,L|76:336,1,180,6|8,0:0|0:0,0:0:0:0:
164,292,91921,1,0,0:0:0:0:
228,228,92246,2,0,B|296:200|364:220|364:220|324:256,2,180,0|8|0,0:0|0:0|0:0,0:0:0:0:
156,283,93867,1,0,0:0:0:0:
132,196,94192,6,0,B|112:112|112:112|196:44,1,180,2|8,0:0|0:0,0:0:0:0:
264,96,95165,1,0,0:0:0:0:
344,52,95489,2,0,P|388:128|388:144,1,90,2|0,0:0|0:0,0:0:0:0:
340,204,96138,6,0,P|294:214|156:200,1,180,2|0,0:0|0:0,0:0:0:0:
110,126,97111,1,2,0:0:0:0:
52,197,97435,2,0,L|43:299,1,90,2|0,0:0|0:0,0:0:0:0:
115,343,98084,2,0,L|143:256,1,90,2|0,0:0|0:0,0:0:0:0:
177,175,98732,5,4,0:0:0:0:
256,192,98894,12,0,102624,0:0:0:0:
