osu file format v14

[General]
AudioFilename: audio.mp3
AudioLeadIn: 0
PreviewTime: 55921
Countdown: 0
SampleSet: Normal
StackLeniency: 0.7
Mode: 0
LetterboxInBreaks: 0
WidescreenStoryboard: 0

[Editor]
Bookmarks: 98732
DistanceSpacing: 2
BeatDivisor: 2
GridSize: 4
TimelineZoom: 1

[Metadata]
Title:American Dream (Not Your Dope remix)
TitleUnicode:American Dream (Not Your Dope remix)
Artist:Gabbie June
ArtistUnicode:Gabbie June
Creator:[ M I N A K O ]
Version:Dreaming
Source:
Tags:short version drop jukkaduei zyl
BeatmapID:1131545
BeatmapSetID:534172

[Difficulty]
HPDrainRate:7.5
CircleSize:5
OverallDifficulty:9
ApproachRate:9
SliderMultiplier:1.6
SliderTickRate:1

[Events]
//Background and Video events
0,0,"bg.jpg",0,0
//Break Periods
//Storyboard Layer 0 (Background)
//Storyboard Layer 1 (Fail)
//Storyboard Layer 2 (Pass)
//Storyboard Layer 3 (Foreground)
//Storyboard Sound Samples

[TimingPoints]
4030,324.324324324324,4,1,1,50,1,0
5002,-142.857142857143,4,2,1,50,0,0
26084,-100,4,2,1,50,0,0
36462,-100,4,1,1,50,0,0
54624,-66.6666666666667,4,1,1,50,0,0
55921,-200,4,2,1,5,0,0
57219,-100,4,1,1,50,0,1
57867,-125,4,1,1,50,0,1
58192,-100,4,1,1,50,0,1
59165,-125,4,1,1,50,0,1
59813,-100,4,1,1,50,0,1
63057,-200,4,1,1,50,0,1
63543,-100,4,1,1,50,0,1
64354,-111.111111111111,4,1,1,50,0,1
65002,-66.6666666666667,4,1,1,50,0,1
67597,-100,4,1,1,50,0,1
68246,-90.9090909090909,4,1,1,50,0,1
68570,-100,4,1,1,50,0,1
69543,-133.333333333333,4,1,1,50,0,1
70192,-76.9230769230769,4,1,1,50,0,1
72786,-66.6666666666667,4,1,1,50,0,1
73435,-166.666666666667,4,1,1,50,0,1
74732,-100,4,1,1,50,0,1
75381,-100,4,1,1,50,0,0
76678,-66.6666666666667,4,1,1,50,0,0
77327,-50,4,2,1,50,0,0
77975,-100,4,1,1,50,0,1
80570,-100,4,3,0,50,0,1
80894,-66.6666666666667,4,3,0,50,0,1
81219,-83.3333333333333,4,3,0,50,0,1
81543,-58.8235294117647,4,3,0,50,0,1
81867,-100,4,3,0,50,0,1
82192,-66.6666666666667,4,3,0,50,0,1
82516,-83.3333333333333,4,3,0,50,0,1
82840,-58.8235294117647,4,3,0,50,0,1
83165,-66.6666666666667,4,3,0,50,0,1
83489,-83.3333333333333,4,3,0,50,0,1
83813,-200,4,2,1,50,0,1
84300,-100,4,3,0,50,0,1
84786,-66.6666666666667,4,3,0,50,0,1
85111,-200,4,2,1,50,0,1
85759,-83.3333333333333,4,3,0,50,0,1
86084,-62.5,4,3,0,50,0,1
86408,-71.4285714285714,4,3,0,50,0,1
86732,-142.857142857143,4,3,0,50,0,1
87057,-166.666666666667,4,3,0,50,0,1
87381,-90.9090909090909,4,3,0,50,0,1
87705,-166.666666666667,4,3,0,50,0,1
88029,-90.9090909090909,4,3,0,50,0,1
88354,-66.6666666666667,4,1,1,50,0,1
90948,-100,4,3,0,50,0,1
91273,-66.6666666666667,4,3,0,50,0,1
91597,-83.3333333333333,4,3,0,50,0,1
91921,-58.8235294117647,4,3,0,50,0,1
92246,-71.4285714285714,4,3,0,50,0,1
92570,-55.5555555555556,4,3,0,50,0,1
92894,-71.4285714285714,4,3,0,50,0,1
93219,-50,4,3,0,50,0,1
93543,-66.6666666666667,4,3,0,50,0,1
93867,-100,4,3,0,50,0,1
94192,-200,4,2,1,50,0,1
94840,-80,4,3,0,50,0,1
95165,-64.5161290322581,4,3,0,50,0,1
95489,-125,4,2,1,50,0,1
96138,-200,4,2,1,50,0,0
98732,-66.6666666666667,4,1,1,50,0,0
102624,-200,4,2,1,5,0,0

[Colours]
Combo1 : 255,179,179
Combo2 : 190,248,194
Combo3 : 216,240,254
Combo4 : 255,206,183

[HitObjects]
136,116,5002,5,0,0:0:0:0:
136,116,5165,1,0,0:0:0:0:
136,116,5327,2,0,P|188:128|192:40,1,167.999994873047,6|0,0:0|0:0,0:0:0:0:
168,200,5975,2,0,P|232:180|280:136,2,111.999996582031,2|0|0,0:0|0:0|0:0,0:0:0:0:
320,228,6948,1,0,0:0:0:0:
296,76,7273,2,0,P|340:48|404:64,1,111.999996582031
240,140,7921,5,2,0:0:0:0:
200,112,8246,1,0,0:0:0:0:
192,64,8570,1,0,0:0:0:0:
216,20,8894,1,0,0:0:0:0:
264,188,9219,5,0,0:0:0:0:
220,216,9543,1,0,0:0:0:0:
168,208,9867,1,0,0:0:0:0:
124,180,10192,1,0,0:0:0:0:
124,180,10354,1,0,0:0:0:0:
124,180,10516,6,0,B|136:160|128:112|128:112|164:124|192:120,1,111.999996582031,2|0,0:0|0:0,0:0:0:0:
264,84,11002,1,0,0:0:0:0:
264,84,11165,2,0,P|296:156|288:192,2,111.999996582031,2|0|0,0:0|0:0|0:0,0:0:0:0:
150,185,12138,1,0,0:0:0:0:
260,300,12462,2,0,P|304:312|360:252,1,111.999996582031
164,216,13111,6,0,P|136:252|152:328,1,111.999996582031,2|0,0:0|0:0,0:0:0:0:
148,136,13597,1,0,0:0:0:0:
148,136,13759,2,0,P|96:128|32:164,1,111.999996582031
264,168,14408,1,0,0:0:0:0:
272,120,14732,1,0,0:0:0:0:
256,76,15057,1,0,0:0:0:0:
172,64,15219,2,0,P|136:92|100:96,2,55.9999982910157,0|2|0,0:0|0:0|0:0,0:0:0:0:
112,20,15705,6,0,P|72:48|56:168,1,167.999994873047,2|0,0:0|0:0,0:0:0:0:
84,248,16354,2,0,P|156:264|192:224,1,111.999996582031,2|0,0:0|0:0,0:0:0:0:
264,224,16840,1,0,0:0:0:0:
296,144,17002,1,2,0:0:0:0:
160,176,17327,1,0,0:0:0:0:
72,148,17651,2,0,L|40:52,2,83.9999974365235
188,76,18300,6,0,B|232:68|232:68|300:84|300:84|360:72,1,167.999994873047,2|0,0:0|0:0,0:0:0:0:
136,28,18948,2,0,P|120:88|164:136,1,111.999996582031,2|0,0:0|0:0,0:0:0:0:
396,120,19435,1,0,0:0:0:0:
396,120,19597,2,0,P|412:60|368:12,1,111.999996582031,2|0,0:0|0:0,0:0:0:0:
296,76,20246,1,0,0:0:0:0:
192,112,20570,1,0,0:0:0:0:
192,112,20732,1,0,0:0:0:0:
192,112,20894,6,0,B|196:148|196:148|168:144|148:136|108:152|104:160,2,111.999996582031,2|0|0,0:0|0:0|0:0,0:0:0:0:
84,52,21867,1,0,0:0:0:0:
256,52,22192,2,0,L|380:72,1,111.999996582031,2|0,0:0|0:0,0:0:0:0:
200,8,22840,2,0,P|192:72|232:116,1,111.999996582031,2|0,0:0|0:0,0:0:0:0:
320,228,23489,5,0,0:0:0:0:
168,204,23813,1,0,0:0:0:0:
384,148,24138,2,0,B|363:127|324:128|324:128|292:152|240:152|240:152|216:128|216:80,1,223.999993164063,2|0,0:0|0:0,0:0:0:0:
284,36,25111,1,0,0:0:0:0:
284,36,25273,1,0,0:0:0:0:
284,36,25435,2,0,P|336:0|404:12,1,111.999996582031
396,236,26084,5,6,0:0:0:0:
396,236,26246,2,0,B|376:224|336:224|296:260|252:252|220:232,1,160
164,200,26732,2,0,P|152:156|224:72,1,160
236,160,27219,1,0,0:0:0:0:
316,124,27381,6,0,B|352:144|352:144|324:192|328:248|340:276,1,160,2|0,0:0|0:0,0:0:0:0:
412,208,27867,1,0,0:0:0:0:
424,112,28029,1,0,0:0:0:0:
356,48,28192,1,0,0:0:0:0:
264,32,28354,1,0,0:0:0:0:
176,64,28516,1,0,0:0:0:0:
124,140,28678,6,0,P|112:172|116:228,1,80,2|0,0:0|0:0,0:0:0:0:
188,272,29002,2,0,P|200:240|196:184,1,80
112,216,29327,2,0,P|60:224|24:212,1,80
199,194,29651,2,0,P|251:186|287:198,1,80
433,216,29975,6,0,B|393:216|393:216|320:192|320:192|265:192,1,160,2|0,0:0|0:0,0:0:0:0:
264,280,30462,2,0,P|304:292|360:280,1,80
432,128,30786,1,0,0:0:0:0:
368,68,30948,1,0,0:0:0:0:
276,60,31111,1,0,0:0:0:0:
176,136,31273,6,0,P|196:212|208:236,1,80,2|0,0:0|0:0,0:0:0:0:
312,156,31597,1,0,0:0:0:0:
288,296,31759,1,0,0:0:0:0:
196,212,31921,2,0,B|152:224|152:224|120:152|68:140,1,160
176,56,32408,1,0,0:0:0:0:
176,56,32570,6,0,L|284:56,1,80,2|0,0:0|0:0,0:0:0:0:
328,160,32894,2,0,L|220:160,1,80
140,120,33219,1,0,0:0:0:0:
140,244,33381,1,0,0:0:0:0:
264,248,33543,1,0,0:0:0:0:
264,120,33705,1,0,0:0:0:0:
152,180,33867,5,2,0:0:0:0:
208,292,34029,1,0,0:0:0:0:
320,228,34192,1,0,0:0:0:0:
248,128,34354,1,0,0:0:0:0:
48,196,34516,2,0,B|88:188|88:188|132:208|176:208|208:180,1,160
136,80,35002,1,0,0:0:0:0:
136,304,35165,6,0,L|136:132,1,160,2|0,0:0|0:0,0:0:0:0:
248,92,35651,1,0,0:0:0:0:
264,216,35813,1,0,0:0:0:0:
320,104,35975,1,0,0:0:0:0:
352,224,36138,1,0,0:0:0:0:
408,104,36300,1,0,0:0:0:0:
232,276,36462,6,0,P|200:244|192:204,1,80,6|0,0:0|0:0,0:0:0:0:
296,84,36786,1,8,0:0:0:0:
144,112,36948,1,0,0:0:0:0:
312,164,37111,2,0,B|392:144|394:191|481:158,1,160,0|8,0:0|0:0,0:0:0:0:
360,40,37597,1,0,0:0:0:0:
220,96,37759,6,0,P|200:152|212:176,1,80,2|0,0:0|0:0,0:0:0:0:
192,316,38084,2,0,P|212:260|200:236,1,80,8|0,0:0|0:0,0:0:0:0:
68,164,38408,1,0,0:0:0:0:
364,192,38570,1,0,0:0:0:0:
276,56,38732,1,8,0:0:0:0:
172,172,38894,1,0,0:0:0:0:
384,120,39057,6,0,P|432:168|412:252,1,160,2|8,0:0|0:0,0:0:0:0:
336,56,39543,1,0,0:0:0:0:
336,56,39705,2,0,P|376:48|487:107,1,160,0|8,0:0|0:0,0:0:0:0:
248,52,40192,1,0,0:0:0:0:
248,52,40354,6,0,P|292:8|388:-16,1,160,2|8,0:0|0:0,0:0:0:0:
320,124,40840,1,0,0:0:0:0:
188,208,41002,2,0,P|175:277|174:300,2,80,0|0|8,0:0|0:0|0:0,0:0:0:0:
320,276,41489,1,0,0:0:0:0:
80,180,41651,6,0,B|52:140|52:140|72:264,1,160,2|8,0:0|0:0,0:0:0:0:
200,176,42138,1,0,0:0:0:0:
340,240,42300,2,0,P|376:192|364:152,1,80
312,36,42624,2,0,B|264:56|264:56|156:40,1,160,8|2,0:0|0:0,0:0:0:0:
152,196,43111,1,0,0:0:0:0:
296,160,43273,5,8,0:0:0:0:
144,120,43435,1,0,0:0:0:0:
260,224,43597,1,0,0:0:0:0:
216,24,43759,1,0,0:0:0:0:
192,232,43921,2,0,P|160:272|168:212,1,120,8|0,0:0|0:0,0:0:0:0:
192,232,44246,6,0,B|233:224|276:240|276:240|311:224|356:224,1,160,2|8,0:0|0:0,0:0:0:0:
280,84,44732,1,0,0:0:0:0:
116,68,44894,2,0,B|96:40|68:40|32:72|96:108|112:160,1,160,0|8,0:0|0:0,0:0:0:0:
112,224,45381,1,0,0:0:0:0:
116,68,45543,2,0,B|136:40|164:40|200:72|112:104|108:160,2,160,2|8|0,0:0|0:0|0:0,0:0:0:0:
48,200,46354,1,0,0:0:0:0:
272,168,46516,1,8,0:0:0:0:
56,304,46678,1,0,0:0:0:0:
236,72,46840,5,12,0:0:0:0:
296,56,47165,1,8,0:0:0:0:
360,56,47489,1,8,0:0:0:0:
420,80,47813,1,8,0:0:0:0:
276,312,48138,5,8,0:0:0:0:
216,328,48462,1,8,0:0:0:0:
152,328,48786,1,8,0:0:0:0:
92,304,49111,1,8,0:0:0:0:
376,100,49435,5,8,0:0:0:0:
392,159,49759,1,8,0:0:0:0:
392,223,50084,1,8,0:0:0:0:
368,283,50408,1,8,0:0:0:0:
136,276,50732,5,8,0:0:0:0:
120,217,51057,1,8,0:0:0:0:
120,153,51381,1,8,0:0:0:0:
144,93,51705,1,8,0:0:0:0:
360,176,52029,5,8,0:0:0:0:
272,56,52192,1,0,0:0:0:0:
284,204,52354,1,8,0:0:0:0:
360,72,52516,1,0,0:0:0:0:
220,128,52678,5,8,0:0:0:0:
380,184,52840,1,0,0:0:0:0:
264,32,53002,1,8,0:0:0:0:
272,228,53165,1,0,0:0:0:0:
376,48,53327,5,8,0:0:0:0:
192,132,53489,1,0,0:0:0:0:
408,196,53651,1,8,0:0:0:0:
256,8,53813,1,0,0:0:0:0:
268,252,53975,5,8,0:0:0:0:
396,24,54138,1,0,0:0:0:0:
168,144,54300,1,8,0:0:0:0:
436,208,54462,1,0,0:0:0:0:
132,132,54624,5,8,0:0:0:0:
96,144,54705,1,0,0:0:0:0:
76,172,54786,1,8,0:0:0:0:
80,208,54867,1,0,0:0:0:0:
108,240,54948,1,8,0:0:0:0:
152,240,55029,1,0,0:0:0:0:
188,216,55111,1,8,0:0:0:0:
216,184,55192,1,0,0:0:0:0:
248,156,55273,5,8,0:0:0:0:
288,148,55354,1,0,0:0:0:0:
332,156,55435,1,8,0:0:0:0:
368,184,55516,1,0,0:0:0:0:
396,224,55597,2,8,P|404:244|400:296,1,60.0000022888184
256,214,55759,2,8,P|248:194|252:142,1,60.0000022888184
268,80,55921,5,2,0:0:0:0:
360,180,57219,5,12,0:0:0:0:
156,104,57381,1,0,0:0:0:0:
400,64,57543,1,8,0:0:0:0:
192,240,57705,1,0,0:0:0:0:
268,68,57867,2,0,B|292:80|284:116|256:136|264:176|292:200,1,128,2|0,0:0|0:0,0:0:0:0:
456,112,58354,1,0,0:0:0:0:
456,112,58435,1,0,0:0:0:0:
456,112,58516,5,8,0:0:0:0:
208,148,58678,1,0,0:0:0:0:
400,200,58840,1,8,0:0:0:0:
268,68,59002,1,0,0:0:0:0:
276,244,59165,2,0,B|308:276|312:324|312:324|280:304,2,128,2|0|8,0:0|0:0|0:0,0:0:0:0:
352,120,59975,1,0,0:0:0:0:
128,208,60138,5,0,0:0:0:0:
372,192,60300,1,0,0:0:0:0:
80,168,60462,2,0,P|64:212|88:256,1,80,8|0,0:0|0:0,0:0:0:0:
108,60,60786,1,0,0:0:0:0:
244,216,60948,1,0,0:0:0:0:
284,48,61111,5,8,0:0:0:0:
152,232,61273,1,0,0:0:0:0:
360,108,61435,1,0,0:0:0:0:
92,160,61597,1,0,0:0:0:0:
376,208,61759,2,0,P|332:184|288:176,1,80,8|0,0:0|0:0,0:0:0:0:
236,288,62084,1,0,0:0:0:0:
152,184,62246,1,0,0:0:0:0:
304,176,62408,5,12,0:0:0:0:
160,44,62570,1,0,0:0:0:0:
240,216,62732,1,8,0:0:0:0:
232,24,62894,1,0,0:0:0:0:
192,264,63057,2,0,P|248:284|300:252,1,120,2|0,0:0|0:0,0:0:0:0:
308,224,63624,1,0,0:0:0:0:
304,192,63705,5,8,0:0:0:0:
104,264,63867,1,0,0:0:0:0:
276,76,64029,1,8,0:0:0:0:
56,104,64192,1,0,0:0:0:0:
224,264,64354,2,0,B|301:250|288:297|372:272,2,143.999995605469,2|0|8,0:0|0:0|0:0,0:0:0:0:
388,168,65165,1,0,0:0:0:0:
144,224,65327,5,0,0:0:0:0:
243,89,65489,1,0,0:0:0:0:
444,244,65651,1,8,0:0:0:0:
248,176,65813,1,0,0:0:0:0:
404,36,65975,1,0,0:0:0:0:
332,256,66138,1,0,0:0:0:0:
108,128,66300,6,0,P|80:176|104:244,1,120.000004577637,8|0,0:0|0:0,0:0:0:0:
220,48,66624,1,0,0:0:0:0:
180,268,66786,1,0,0:0:0:0:
332,156,66948,1,8,0:0:0:0:
48,196,67111,1,0,0:0:0:0:
376,144,67273,1,0,0:0:0:0:
0,204,67435,1,0,0:0:0:0:
408,136,67597,5,12,0:0:0:0:
280,16,67759,1,0,0:0:0:0:
380,164,67921,1,8,0:0:0:0:
248,40,68084,1,0,0:0:0:0:
344,188,68246,2,0,B|281:177|248:224|248:224|282:213|316:228,1,176.000005371094,2|0,0:0|0:0,0:0:0:0:
204,156,68732,1,0,0:0:0:0:
204,156,68813,1,0,0:0:0:0:
204,156,68894,5,8,0:0:0:0:
380,260,69057,1,0,0:0:0:0:
296,72,69219,1,8,0:0:0:0:
248,308,69381,1,0,0:0:0:0:
408,120,69543,2,0,P|436:92|408:16,2,120.000004577637,2|0|8,0:0|0:0|0:0,0:0:0:0:
272,56,70354,1,0,0:0:0:0:
172,212,70516,6,0,L|156:320,1,103.999995239258
112,136,70840,1,8,0:0:0:0:
288,236,71002,1,0,0:0:0:0:
244,96,71165,1,0,0:0:0:0:
132,48,71327,1,0,0:0:0:0:
364,88,71489,6,0,P|384:140|356:184,1,103.999995239258,8|0,0:0|0:0,0:0:0:0:
436,40,71813,1,0,0:0:0:0:
284,36,71975,1,0,0:0:0:0:
184,148,72138,1,8,0:0:0:0:
362,179,72300,2,0,B|374:207|374:207|358:239|362:279,1,103.999995239258
92,96,72624,1,0,0:0:0:0:
92,96,72786,6,0,L|256:96,1,120.000004577637,12|0,0:0|0:0,0:0:0:0:
404,96,73111,2,0,L|240:96,1,120.000004577637,8|0,0:0|0:0,0:0:0:0:
256,168,73435,2,0,B|240:136|240:104|268:80|264:52|236:12,1,143.999995605469,2|0,0:0|0:0,0:0:0:0:
236,24,74002,1,0,0:0:0:0:
224,20,74084,5,8,0:0:0:0:
120,136,74246,1,0,0:0:0:0:
276,232,74408,1,8,0:0:0:0:
372,112,74570,1,0,0:0:0:0:
120,136,74732,2,0,B|144:168|132:216|132:216|180:228|184:292,2,160,2|0|4,0:0|0:0|0:0,0:0:0:0:
224,68,75543,1,0,0:0:0:0:
236,188,75705,5,0,0:0:0:0:
256,52,75867,1,0,0:0:0:0:
264,216,76029,1,0,0:0:0:0:
292,24,76192,1,0,0:0:0:0:
296,244,76354,1,0,0:0:0:0:
320,0,76516,1,0,0:0:0:0:
328,268,76678,5,8,0:0:0:0:
296,304,76759,1,0,0:0:0:0:
256,296,76840,1,0,0:0:0:0:
220,260,76921,1,0,0:0:0:0:
220,216,77002,1,8,0:0:0:0:
248,180,77084,1,0,0:0:0:0:
280,144,77165,1,0,0:0:0:0:
280,100,77246,1,0,0:0:0:0:
264,64,77327,5,8,0:0:0:0:
256,60,77408,1,8,0:0:0:0:
248,56,77489,1,8,0:0:0:0:
240,52,77570,1,8,0:0:0:0:
232,48,77651,1,8,0:0:0:0:
224,44,77732,1,8,0:0:0:0:
216,40,77813,1,8,0:0:0:0:
208,36,77894,1,8,0:0:0:0:
200,32,77975,5,4,0:0:0:0:
72,200,78138,1,0,0:0:0:0:
284,120,78300,1,8,0:0:0:0:
16,76,78462,1,0,0:0:0:0:
216,208,78624,1,0,0:0:0:0:
128,32,78786,1,0,0:0:0:0:
152,268,78948,1,8,0:0:0:0:
344,160,79111,1,0,0:0:0:0:
108,168,79273,5,0,0:0:0:0:
356,224,79435,1,0,0:0:0:0:
196,56,79597,1,8,0:0:0:0:
256,268,79759,1,0,0:0:0:0:
340,72,79921,1,0,0:0:0:0:
128,208,80084,1,0,0:0:0:0:
424,156,80246,1,8,0:0:0:0:
88,108,80408,1,0,0:0:0:0:
340,72,80570,6,0,P|296:84|328:56,1,120,2|0,0:0|0:0,0:0:0:0:
340,116,80894,2,0,P|280:108|324:32,1,180.000006866455
124,184,81219,2,0,P|160:184|116:200,1,143.999995605469,2|0,0:0|0:0,0:0:0:0:
144,160,81543,2,0,P|196:216|104:212,1,204.000003890991
372,232,81867,6,0,P|328:220|360:248,1,120,2|0,0:0|0:0,0:0:0:0:
364,188,82192,2,0,P|304:212|372:260,1,180.000006866455
156,120,82516,2,0,P|192:120|148:104,1,143.999995605469,2|0,0:0|0:0,0:0:0:0:
176,144,82840,2,0,P|228:88|136:92,1,204.000003890991
368,264,83165,6,0,B|368:216|368:216|408:144|408:144|408:72,1,180.000006866455,2|0,0:0|0:0,0:0:0:0:
312,292,83489,2,0,P|368:324|428:276,1,143.999995605469
312,312,83813,2,0,P|360:336|432:304,1,120,2|2,0:0|0:0,0:0:0:0:
188,164,84462,2,0,B|152:148|152:148|192:232,1,120,2|0,0:0|0:0,0:0:0:0:
176,148,84786,2,0,B|116:120|116:120|168:228,1,180.000006866455
280,240,85111,6,0,P|300:232|328:212,1,40,2|0,0:0|0:0,0:0:0:0:
312,144,85435,2,0,P|324:112|336:96,1,40
96,72,85759,2,0,B|124:72|124:72|200:104|200:104|244:104,1,143.999995605469,2|0,0:0|0:0,0:0:0:0:
68,108,86084,2,0,B|112:104|112:104|196:140|196:140|264:136,1,192
396,280,86408,2,0,P|384:212|488:208,1,167.999994873047,2|0,0:0|0:0,0:0:0:0:
456,268,86732,2,0,P|452:308|416:336,1,83.9999974365235
216,268,87057,6,0,L|128:288,1,71.9999978027344,2|0,0:0|0:0,0:0:0:0:
274,255,87381,2,0,L|130:287,1,132.00000402832
296,116,87705,6,0,L|384:96,1,71.9999978027344,2|0,0:0|0:0,0:0:0:0:
237,128,88029,2,0,L|381:96,1,132.00000402832
432,84,88354,5,2,0:0:0:0:
256,40,88516,1,0,0:0:0:0:
348,192,88678,1,8,0:0:0:0:
360,20,88840,1,0,0:0:0:0:
220,192,89002,1,0,0:0:0:0:
320,116,89165,1,0,0:0:0:0:
168,96,89327,1,8,0:0:0:0:
240,224,89489,1,0,0:0:0:0:
208,36,89651,5,0,0:0:0:0:
320,108,89813,1,0,0:0:0:0:
160,200,89975,1,8,0:0:0:0:
296,116,90138,1,0,0:0:0:0:
116,136,90300,1,0,0:0:0:0:
296,200,90462,1,0,0:0:0:0:
172,76,90624,1,8,0:0:0:0:
232,264,90786,1,2,0:0:0:0:
340,72,90948,6,0,P|296:84|328:56,1,120,2|0,0:0|0:0,0:0:0:0:
344,112,91273,2,0,P|284:96|348:40,1,180.000006866455
124,184,91597,2,0,P|160:184|116:200,1,143.999995605469,2|0,0:0|0:0,0:0:0:0:
144,160,91921,2,0,P|196:216|104:212,1,204.000003890991
312,184,92246,6,0,B|348:176|392:196|392:196|432:172|488:184,1,167.999994873047,2|0,0:0|0:0,0:0:0:0:
300,196,92570,2,0,B|344:184|396:216|396:216|448:180|508:200,1,215.999993408203
300,196,92894,2,0,B|264:204|220:184|220:184|180:208|124:196,1,167.999994873047,2|0,0:0|0:0,0:0:0:0:
304,180,93219,2,0,B|264:184|216:156|216:156|175:186|96:168,1,160
328,120,93543,6,0,P|368:184|296:248,1,180.000006866455,2|0,0:0|0:0,0:0:0:0:
344,104,93867,2,0,P|388:140|380:224,1,120
300,140,94192,2,0,P|288:100|300:64,1,80,2|0,0:0|0:0,0:0:0:0:
384,28,94678,1,2,0:0:0:0:
184,100,94840,2,0,B|140:104|116:160|116:160|84:164|64:140,1,150,2|0,0:0|0:0,0:0:0:0:
200,120,95165,2,0,B|156:124|136:184|136:184|84:196|52:148,1,186.000001419067
144,48,95489,2,0,P|164:40|216:40,2,64,2|0|0,0:0|0:0|0:0,0:0:0:0:
312,56,95975,1,0,0:0:0:0:
220,196,96138,6,0,P|204:228|196:272,1,80,2|0,0:0|0:0,0:0:0:0:
340,224,96786,2,0,P|328:190|303:153,1,80,2|0,0:0|0:0,0:0:0:0:
196,271,97435,2,0,P|207:304|232:341,1,80,2|0,0:0|0:0,0:0:0:0:
300,205,98084,2,0,P|268:189|224:181,1,80,2|0,0:0|0:0,0:0:0:0:
84,308,98732,5,4,0:0:0:0:
256,192,98813,12,0,102624,0:0:0:0:
