osu file format v14

[General]
AudioFilename: Gabba Front Berlin - Lacrima Mosa Est!.mp3
AudioLeadIn: 0
PreviewTime: 88060
Countdown: 0
SampleSet: Soft
StackLeniency: 0.7
Mode: 3
LetterboxInBreaks: 0
SpecialStyle: 0
WidescreenStoryboard: 0

[Editor]
Bookmarks: 108058
DistanceSpacing: 0.7
BeatDivisor: 4
GridSize: 4
TimelineZoom: 1.9

[Metadata]
Title:Lacrima Mosa Est
TitleUnicode:Lacrima Mosa Est
Artist:Gabba Front Berlin
ArtistUnicode:Gabba Front Berlin
Creator:Janko
Version:Normal
Source:
Tags:terrorcore speedcore hardcore techno hardstyle GFB MEGAtive Project Enigma electronic sv Darkera
BeatmapID:965435
BeatmapSetID:407237

[Difficulty]
HPDrainRate:7.5
CircleSize:4
OverallDifficulty:7.5
ApproachRate:5
SliderMultiplier:1.80000000596047
SliderTickRate:1

[Events]
//Background and Video events
0,0,"maxresdefault.jpg",0,0
//Break Periods
//Storyboard Layer 0 (Background)
//Storyboard Layer 1 (Fail)
//Storyboard Layer 2 (Pass)
//Storyboard Layer 3 (Foreground)
//Storyboard Sound Samples

[TimingPoints]
85,250,4,2,1,20,1,0
16085,249.480249480249,4,2,1,20,1,0
24068,250,4,2,1,20,1,0
32068,249.480249480249,4,2,1,20,1,0
40051,250,4,2,1,20,1,0
48051,249.791840133222,4,2,1,20,1,0
64037,249.687890137328,4,2,1,20,1,0
72027,250,4,2,1,20,1,0
80027,251.046025104603,4,2,1,20,1,0
96061,250,4,2,1,20,1,1
104061,250.836120401338,4,2,1,20,1,1
112087,249.791840133222,4,2,1,20,1,1
120080,250.731299623903,4,2,1,20,1,1
128103,250,4,2,1,10,1,0
128103,-117.647058823529,4,2,1,10,0,0
140103,249.791840133222,4,2,1,20,1,0
140103,-117.647058823529,4,2,1,20,0,0
158281,250.208507089241,4,2,1,20,1,1
166287,251.046025104603,4,2,1,20,1,1
174320,249.791840133222,4,2,1,20,1,1
182313,251.046025104603,4,2,1,20,1,1
190346,250,4,2,1,20,1,0
198346,249.895876718034,4,2,1,20,1,0
206376,249.480249480249,4,2,1,20,1,0
214359,250.941028858218,4,2,1,20,1,0
222389,250.521920668058,4,2,1,20,1,0
230405,251.046025104603,4,2,1,20,1,0
238438,250.208507089241,4,2,1,20,1,0
245443,249.687890137328,4,2,1,20,1,0
250436,-100,4,2,1,10,0,0
259223,250,4,2,1,20,1,0

[HitObjects]
192,192,85,128,4,2085:3:0:0:0:
448,192,2085,128,4,3085:3:0:0:0:
320,192,3085,128,4,4085:3:0:0:0:
64,192,4085,128,4,8085:3:0:0:0:
448,192,8085,1,0,0:0:0:0:
192,192,8585,1,0,0:0:0:0:
448,192,9085,1,0,0:0:0:0:
320,192,9335,128,4,9585:0:0:0:0:
64,192,9585,1,0,0:0:0:0:
192,192,10085,1,0,0:0:0:0:
448,192,10335,128,4,10585:0:0:0:0:
320,192,10585,1,0,0:0:0:0:
64,192,11085,1,0,0:0:0:0:
192,192,11335,128,4,11585:0:0:0:0:
448,192,11585,1,0,0:0:0:0:
320,192,12085,1,0,0:0:0:0:
192,192,12585,1,0,0:0:0:0:
448,192,13085,1,0,0:0:0:0:
64,192,13335,128,4,13585:0:0:0:0:
320,192,13585,1,0,0:0:0:0:
448,192,14085,1,0,0:0:0:0:
192,192,14335,128,4,14585:0:0:0:0:
64,192,14585,1,0,0:0:0:0:
448,192,15085,1,0,0:0:0:0:
320,192,15335,128,4,15585:0:0:0:0:
192,192,15585,1,0,0:0:0:0:
448,192,15835,1,2,0:0:0:0:
64,192,16085,128,0,18080:0:0:0:0:
320,192,16583,1,0,0:0:0:0:
192,192,17082,1,0,0:0:0:0:
320,192,17332,128,4,17581:0:0:0:0:
448,192,17581,1,0,0:0:0:0:
448,192,18080,128,0,19078:0:0:0:0:
192,192,18330,128,4,18579:0:0:0:0:
64,192,18579,1,0,0:0:0:0:
320,192,19078,128,0,20076:0:0:0:0:
64,192,19328,128,4,19577:0:0:0:0:
448,192,19577,1,0,0:0:0:0:
192,192,20076,128,0,22072:0:0:0:0:
64,192,20575,1,0,0:0:0:0:
320,192,21074,1,0,0:0:0:0:
448,192,21324,128,4,21573:0:0:0:0:
64,192,21573,1,0,0:0:0:0:
320,192,21823,1,0,0:0:0:0:
64,192,22072,128,0,24068:0:0:0:0:
448,192,22322,128,4,22571:0:0:0:0:
192,192,22571,1,0,0:0:0:0:
320,192,23070,1,0,0:0:0:0:
192,192,23319,128,4,23569:0:0:0:0:
448,192,23569,1,0,0:0:0:0:
320,192,23818,1,0,0:0:0:0:
448,192,24068,128,0,26068:0:0:0:0:
192,192,24568,1,0,0:0:0:0:
320,192,25068,1,0,0:0:0:0:
64,192,25318,128,4,25568:0:0:0:0:
192,192,25568,1,0,0:0:0:0:
320,192,26068,128,0,27068:0:0:0:0:
192,192,26318,128,4,26568:0:0:0:0:
448,192,26568,1,0,0:0:0:0:
64,192,27068,128,0,28068:0:0:0:0:
448,192,27318,128,4,27568:0:0:0:0:
320,192,27568,1,0,0:0:0:0:
192,192,28068,128,0,32068:0:0:0:0:
320,192,28318,1,0,0:0:0:0:
448,192,28568,1,0,0:0:0:0:
64,192,28818,1,0,0:0:0:0:
320,192,29068,1,0,0:0:0:0:
448,192,29318,1,0,0:0:0:0:
320,192,29568,1,0,0:0:0:0:
64,192,29818,1,0,0:0:0:0:
448,192,30068,1,0,0:0:0:0:
320,192,30318,1,0,0:0:0:0:
64,192,30568,1,0,0:0:0:0:
448,192,30818,1,0,0:0:0:0:
320,192,31068,1,0,0:0:0:0:
448,192,31318,1,0,0:0:0:0:
64,192,31568,1,0,0:0:0:0:
320,192,31818,1,0,0:0:0:0:
448,192,32068,1,8,3:0:0:0:
64,192,32317,1,8,3:0:0:0:
320,192,32566,1,8,3:0:0:0:
192,192,32816,1,8,3:0:0:0:
448,192,33065,1,8,3:0:0:0:
64,192,33315,1,8,3:0:0:0:
320,192,33564,1,8,3:0:0:0:
192,192,33814,1,8,3:0:0:0:
448,192,34063,1,8,3:0:0:0:
320,192,34313,1,8,3:0:0:0:
64,192,34562,1,8,3:0:0:0:
192,192,34812,1,8,3:0:0:0:
448,192,35061,1,8,3:0:0:0:
320,192,35311,1,8,3:0:0:0:
64,192,35560,1,8,3:0:0:0:
448,192,35810,1,8,3:0:0:0:
192,192,36059,1,8,3:0:0:0:
320,192,36309,1,8,3:0:0:0:
64,192,36558,1,8,3:0:0:0:
192,192,36808,1,8,3:0:0:0:
448,192,37057,1,8,3:0:0:0:
320,192,37307,1,8,3:0:0:0:
64,192,37556,1,8,3:0:0:0:
192,192,37806,1,8,3:0:0:0:
320,192,38055,1,8,3:0:0:0:
448,192,38305,1,8,3:0:0:0:
192,192,38554,1,8,3:0:0:0:
64,192,38803,1,8,3:0:0:0:
320,192,39053,1,8,3:0:0:0:
192,192,39302,1,8,3:0:0:0:
448,192,39552,1,8,3:0:0:0:
64,192,39801,1,8,3:0:0:0:
320,192,40051,1,8,3:0:0:0:
192,192,40301,1,8,3:0:0:0:
448,192,40551,1,8,3:0:0:0:
320,192,40801,1,8,3:0:0:0:
64,192,41051,1,8,3:0:0:0:
192,192,41301,1,8,3:0:0:0:
320,192,41551,1,8,3:0:0:0:
448,192,41801,1,8,3:0:0:0:
192,192,42051,1,8,3:0:0:0:
320,192,42301,1,8,3:0:0:0:
64,192,42551,1,8,3:0:0:0:
192,192,42801,1,8,3:0:0:0:
448,192,43051,1,8,3:0:0:0:
320,192,43301,1,8,3:0:0:0:
64,192,43551,1,8,3:0:0:0:
192,192,43801,1,8,3:0:0:0:
448,192,44051,1,8,3:0:0:0:
64,192,44301,1,8,3:0:0:0:
320,192,44551,1,8,3:0:0:0:
192,192,44801,1,8,3:0:0:0:
448,192,45051,1,8,3:0:0:0:
64,192,45301,1,8,3:0:0:0:
320,192,45551,1,8,3:0:0:0:
192,192,45801,1,8,3:0:0:0:
448,192,46051,1,8,3:0:0:0:
192,192,47051,1,0,3:1:0:0:
448,192,47551,1,0,3:1:0:0:
320,192,47801,1,0,3:1:0:0:
64,192,48051,128,8,50049:3:0:0:0:
192,192,48300,1,8,3:0:0:0:
448,192,48550,1,8,3:0:0:0:
320,192,48800,1,8,3:0:0:0:
448,192,49050,1,8,3:0:0:0:
192,192,49299,1,8,3:0:0:0:
320,192,49549,1,8,3:0:0:0:
192,192,49799,1,8,3:0:0:0:
448,192,50049,128,8,51298:3:0:0:0:
320,192,50299,1,8,3:0:0:0:
192,192,50548,1,8,3:0:0:0:
64,192,50798,1,8,3:0:0:0:
192,192,51048,1,8,3:0:0:0:
64,192,51298,128,8,52297:3:0:0:0:
320,192,51548,1,8,3:0:0:0:
448,192,51797,1,8,3:0:0:0:
192,192,52047,1,8,3:0:0:0:
448,192,52297,128,8,56044:3:0:0:0:
320,192,52547,1,8,3:0:0:0:
192,192,52797,1,8,3:0:0:0:
64,192,53046,1,8,3:0:0:0:
320,192,53296,1,8,3:0:0:0:
64,192,53546,1,8,3:0:0:0:
192,192,53796,1,8,3:0:0:0:
64,192,54046,1,8,3:0:0:0:
320,192,54295,1,8,3:0:0:0:
192,192,54545,1,8,3:0:0:0:
64,192,54795,1,8,3:0:0:0:
320,192,55045,1,8,3:0:0:0:
64,192,55294,1,8,3:0:0:0:
192,192,55544,1,8,3:0:0:0:
320,192,55794,1,8,3:0:0:0:
192,192,56044,128,8,58042:3:0:0:0:
64,192,56294,1,8,3:0:0:0:
320,192,56543,1,8,3:0:0:0:
448,192,56793,1,8,3:0:0:0:
320,192,57043,1,8,3:0:0:0:
64,192,57293,1,8,3:0:0:0:
448,192,57543,1,8,3:0:0:0:
320,192,57792,1,8,3:0:0:0:
64,192,58042,128,8,59041:3:0:0:0:
448,192,58292,1,8,3:0:0:0:
320,192,58542,1,8,3:0:0:0:
192,192,58792,1,8,3:0:0:0:
320,192,59041,128,8,60041:3:0:0:0:
448,192,59291,1,8,3:0:0:0:
192,192,59541,1,8,3:0:0:0:
64,192,59791,1,8,3:0:0:0:
448,192,60041,128,8,62039:3:0:0:0:
192,192,60290,1,8,3:0:0:0:
64,192,60540,1,8,3:0:0:0:
320,192,60790,1,8,3:0:0:0:
192,192,61040,1,8,3:0:0:0:
320,192,61289,1,8,3:0:0:0:
64,192,61539,1,8,3:0:0:0:
192,192,61789,1,8,3:0:0:0:
320,192,62039,1,8,3:0:0:0:
64,192,62289,1,8,3:0:0:0:
192,192,62538,1,8,3:0:0:0:
64,192,62788,1,8,3:0:0:0:
320,192,63038,1,8,3:0:0:0:
192,192,63288,1,8,3:0:0:0:
448,192,63538,128,8,64037:3:0:0:0:
320,192,63787,1,8,3:0:0:0:
64,192,64037,128,8,66034:3:0:0:0:
192,192,64037,1,8,3:0:0:0:
192,192,65035,1,8,3:0:0:0:
320,192,65784,1,8,3:0:0:0:
448,192,66034,128,8,68032:3:0:0:0:
192,192,66533,1,8,3:0:0:0:
320,192,67532,1,8,3:0:0:0:
64,192,67782,1,8,3:0:0:0:
192,192,68032,128,8,72027:3:0:0:0:
320,192,69030,1,8,3:0:0:0:
64,192,69530,1,8,3:0:0:0:
448,192,70029,1,8,3:0:0:0:
320,192,70279,1,8,3:0:0:0:
64,192,70528,1,8,3:0:0:0:
448,192,71777,1,0,0:0:0:0:
64,192,72027,128,8,74027:3:0:0:0:
320,192,72027,1,8,3:0:0:0:
448,192,72277,1,8,3:0:0:0:
192,192,73027,1,8,3:0:0:0:
320,192,73777,1,8,3:0:0:0:
448,192,74027,128,8,76027:3:0:0:0:
192,192,74527,1,8,3:0:0:0:
64,192,75527,1,8,3:0:0:0:
192,192,75777,1,8,3:0:0:0:
320,192,76027,128,8,80027:3:0:0:0:
64,192,77027,1,8,3:0:0:0:
448,192,77527,1,8,3:0:0:0:
64,192,78027,1,8,3:0:0:0:
192,192,78277,1,8,3:0:0:0:
448,192,78527,1,8,3:0:0:0:
192,192,80027,1,4,3:0:0:0:
448,192,80529,1,4,3:0:0:0:
64,192,81031,1,0,0:0:0:0:
192,192,81282,128,4,81533:0:0:0:0:
448,192,81533,1,4,3:0:0:0:
320,192,82035,1,0,0:0:0:0:
64,192,82286,128,4,82537:0:0:0:0:
448,192,82537,1,4,3:0:0:0:
192,192,83039,1,0,0:0:0:0:
320,192,83290,128,4,83541:0:0:0:0:
64,192,83541,1,4,3:0:0:0:
192,192,84043,1,4,3:0:0:0:
320,192,84545,1,4,3:0:0:0:
192,192,85047,1,0,0:0:0:0:
448,192,85298,128,4,85550:0:0:0:0:
64,192,85550,1,4,3:0:0:0:
320,192,86052,1,0,0:0:0:0:
192,192,86303,128,4,86554:0:0:0:0:
448,192,86554,1,4,3:0:0:0:
320,192,86805,1,0,0:0:0:0:
64,192,87056,1,0,0:0:0:0:
448,192,87307,128,4,87558:0:0:0:0:
320,192,87558,1,0,0:0:0:0:
192,192,87809,1,0,0:0:0:0:
64,192,88060,128,0,90068:0:0:0:0:
320,192,88562,1,0,0:0:0:0:
192,192,89064,1,0,0:0:0:0:
448,192,89315,128,4,89566:0:0:0:0:
320,192,89566,1,0,0:0:0:0:
192,192,90068,128,0,91073:0:0:0:0:
320,192,90319,128,4,90570:0:0:0:0:
64,192,90570,1,0,0:0:0:0:
448,192,91073,128,0,92077:0:0:0:0:
64,192,91324,128,4,91575:0:0:0:0:
192,192,91575,1,0,0:0:0:0:
320,192,92077,128,0,93081:0:0:0:0:
64,192,93081,1,8,3:0:0:0:
320,192,94085,1,8,3:0:0:0:
448,192,94336,1,8,3:0:0:0:
64,192,94587,1,8,3:0:0:0:
192,192,94838,1,8,3:0:0:0:
320,192,94964,1,8,3:0:0:0:
448,192,95089,1,8,3:0:0:0:
64,192,95340,1,8,3:0:0:0:
320,192,95591,1,8,3:0:0:0:
192,192,95717,1,8,3:0:0:0:
64,192,95842,1,8,3:0:0:0:
448,192,96061,1,8,3:0:0:0:
192,192,96311,1,0,0:0:0:0:
320,192,96561,1,0,0:0:0:0:
64,192,96811,1,0,0:0:0:0:
192,192,96936,1,0,0:0:0:0:
320,192,97061,1,0,0:0:0:0:
448,192,97311,1,0,0:0:0:0:
64,192,97561,1,0,0:0:0:0:
320,192,97811,1,0,0:0:0:0:
192,192,98061,1,8,3:0:0:0:
448,192,98311,1,0,0:0:0:0:
64,192,98561,1,0,0:0:0:0:
192,192,98811,1,0,0:0:0:0:
320,192,99061,1,8,3:0:0:0:
448,192,99061,1,8,3:0:0:0:
64,192,99311,1,0,0:0:0:0:
448,192,99561,1,8,3:0:0:0:
320,192,99561,1,8,3:0:0:0:
192,192,99811,1,0,0:0:0:0:
64,192,100061,1,8,3:0:0:0:
448,192,100311,1,0,0:0:0:0:
320,192,100561,1,0,0:0:0:0:
192,192,100811,1,0,0:0:0:0:
64,192,101061,1,0,0:0:0:0:
320,192,101311,1,0,0:0:0:0:
192,192,101561,1,0,0:0:0:0:
320,192,101811,1,0,0:0:0:0:
448,192,102061,128,8,102311:3:0:0:0:
192,192,102311,128,8,102811:3:0:0:0:
320,192,102561,1,0,0:0:0:0:
448,192,102811,128,8,103061:3:0:0:0:
64,192,103061,1,0,0:0:0:0:
320,192,103311,128,8,103561:3:0:0:0:
192,192,103561,128,8,103811:3:0:0:0:
448,192,103811,128,8,104061:3:0:0:0:
64,192,104061,1,8,3:0:0:0:
320,192,104311,1,0,0:0:0:0:
192,192,104562,1,0,0:0:0:0:
64,192,104813,1,0,0:0:0:0:
448,192,105064,1,0,0:0:0:0:
320,192,105315,1,0,0:0:0:0:
192,192,105566,1,0,0:0:0:0:
64,192,105816,1,0,0:0:0:0:
448,192,106067,1,8,3:0:0:0:
320,192,106318,1,0,0:0:0:0:
64,192,106569,1,0,0:0:0:0:
192,192,106820,1,0,0:0:0:0:
448,192,107071,1,8,3:0:0:0:
320,192,107071,1,8,3:0:0:0:
64,192,107321,1,0,0:0:0:0:
448,192,107572,1,8,3:0:0:0:
320,192,107572,1,8,3:0:0:0:
192,192,107823,1,0,0:0:0:0:
64,192,108074,1,8,3:0:0:0:
320,192,108325,1,8,3:0:0:0:
448,192,108576,1,0,0:0:0:0:
192,192,108826,1,0,0:0:0:0:
320,192,109077,1,0,0:0:0:0:
64,192,109328,1,0,0:0:0:0:
192,192,109579,1,0,0:0:0:0:
64,192,109830,1,0,0:0:0:0:
448,192,110081,128,8,110331:3:0:0:0:
320,192,110331,128,8,110582:3:0:0:0:
64,192,110582,128,8,110833:3:0:0:0:
192,192,110833,128,8,111084:3:0:0:0:
448,192,111084,128,8,111335:3:0:0:0:
320,192,111084,1,8,3:0:0:0:
64,192,111335,128,8,111586:3:0:0:0:
320,192,111586,128,8,111836:3:0:0:0:
192,192,112087,1,8,3:0:0:0:
320,192,112336,1,0,0:0:0:0:
448,192,112586,1,0,0:0:0:0:
192,192,112836,1,0,0:0:0:0:
64,192,113086,1,0,0:0:0:0:
448,192,113335,1,0,0:0:0:0:
320,192,113585,1,0,0:0:0:0:
192,192,113835,1,0,0:0:0:0:
320,192,114085,1,8,3:0:0:0:
448,192,114335,1,0,0:0:0:0:
192,192,114584,1,0,0:0:0:0:
64,192,114834,1,0,0:0:0:0:
320,192,114959,1,8,3:0:0:0:
448,192,115084,1,8,3:0:0:0:
192,192,115209,1,8,3:0:0:0:
64,192,115334,1,8,3:0:0:0:
320,192,115584,1,8,3:0:0:0:
448,192,115708,1,8,3:0:0:0:
64,192,115833,1,8,3:0:0:0:
192,192,115958,1,8,3:0:0:0:
320,192,116083,1,8,3:0:0:0:
64,192,116333,1,0,0:0:0:0:
448,192,116583,1,0,0:0:0:0:
192,192,116833,1,0,0:0:0:0:
320,192,117082,1,0,0:0:0:0:
64,192,117332,1,0,0:0:0:0:
192,192,117582,1,0,0:0:0:0:
64,192,117832,1,0,0:0:0:0:
320,192,118082,128,8,118331:3:0:0:0:
192,192,118331,128,8,118831:3:0:0:0:
64,192,118581,1,0,0:0:0:0:
448,192,118831,128,8,119081:3:0:0:0:
320,192,119081,1,0,0:0:0:0:
192,192,119330,128,8,119580:3:0:0:0:
64,192,119580,128,8,119830:3:0:0:0:
448,192,119830,128,8,120080:3:0:0:0:
320,192,120080,1,8,3:0:0:0:
192,192,120330,1,0,0:0:0:0:
448,192,120581,1,0,0:0:0:0:
320,192,120832,1,0,0:0:0:0:
64,192,121082,1,0,0:0:0:0:
192,192,121333,1,0,0:0:0:0:
320,192,121584,1,0,0:0:0:0:
448,192,121835,1,0,0:0:0:0:
320,192,122085,1,8,3:0:0:0:
64,192,122336,1,0,0:0:0:0:
448,192,122587,1,0,0:0:0:0:
320,192,122838,1,0,0:0:0:0:
192,192,123088,1,8,3:0:0:0:
64,192,123088,1,8,3:0:0:0:
448,192,123339,1,0,0:0:0:0:
64,192,123590,1,8,3:0:0:0:
192,192,123590,1,8,3:0:0:0:
320,192,123840,1,0,0:0:0:0:
448,192,124091,1,8,3:0:0:0:
192,192,124342,1,8,3:0:0:0:
64,192,124593,1,0,0:0:0:0:
320,192,124843,1,0,0:0:0:0:
192,192,125094,1,0,0:0:0:0:
448,192,125345,1,0,0:0:0:0:
320,192,125596,1,0,0:0:0:0:
64,192,125846,1,0,0:0:0:0:
320,192,126097,128,8,126348:3:0:0:0:
192,192,126348,128,8,126599:3:0:0:0:
64,192,126599,128,8,126849:3:0:0:0:
320,192,126849,128,8,127100:3:0:0:0:
448,192,127100,128,8,127351:3:0:0:0:
64,192,127100,1,8,3:0:0:0:
192,192,127351,128,8,127601:3:0:0:0:
64,192,127601,128,8,127852:3:0:0:0:
448,192,128103,1,4,0:0:0:0:
320,192,128103,1,4,0:0:0:0:
192,192,129103,1,0,0:0:0:0:
448,192,130103,128,0,130353:0:0:0:0:
320,192,130353,128,0,130603:0:0:0:0:
64,192,130603,128,0,130853:0:0:0:0:
192,192,130853,128,0,131103:0:0:0:0:
448,192,131103,128,0,132103:0:0:0:0:
64,192,132103,128,0,135103:0:0:0:0:
320,192,133103,1,0,0:0:0:0:
192,192,134103,1,0,0:0:0:0:
448,192,135103,128,0,136103:0:0:0:0:
320,192,136103,128,0,139103:0:0:0:0:
64,192,137103,1,0,0:0:0:0:
192,192,138103,1,0,0:0:0:0:
64,192,139103,128,0,140103:0:0:0:0:
448,192,140103,128,0,143100:0:0:0:0:
192,192,141102,1,0,0:0:0:0:
320,192,142101,1,0,0:0:0:0:
64,192,143100,128,0,144099:0:0:0:0:
192,192,144099,128,0,147097:0:0:0:0:
320,192,145098,1,0,0:0:0:0:
448,192,146098,1,0,0:0:0:0:
320,192,147097,128,0,148096:0:0:0:0:
64,192,148096,128,0,151093:0:0:0:0:
192,192,149095,1,0,0:0:0:0:
320,192,150094,1,0,0:0:0:0:
448,192,151093,128,0,152093:0:0:0:0:
192,192,152093,128,4,153841:0:0:0:0:
320,192,154840,1,0,0:0:0:0:
64,192,154840,1,0,0:0:0:0:
192,192,158281,1,8,3:0:0:0:
448,192,158531,1,0,0:0:0:0:
320,192,158781,1,0,0:0:0:0:
64,192,159031,1,0,0:0:0:0:
192,192,159156,1,0,0:0:0:0:
320,192,159281,1,0,0:0:0:0:
448,192,159532,1,0,0:0:0:0:
64,192,159782,1,0,0:0:0:0:
320,192,160032,1,0,0:0:0:0:
192,192,160282,1,8,3:0:0:0:
64,192,160532,1,0,0:0:0:0:
448,192,160783,1,0,0:0:0:0:
320,192,161033,1,0,0:0:0:0:
192,192,161283,1,8,3:0:0:0:
64,192,161283,1,8,3:0:0:0:
448,192,161533,1,0,0:0:0:0:
64,192,161783,1,8,3:0:0:0:
192,192,161783,1,8,3:0:0:0:
320,192,162034,1,0,0:0:0:0:
448,192,162284,1,8,3:0:0:0:
64,192,162534,1,0,0:0:0:0:
192,192,162784,1,0,0:0:0:0:
320,192,163034,1,0,0:0:0:0:
192,192,163285,1,0,0:0:0:0:
448,192,163535,1,0,0:0:0:0:
64,192,163785,1,0,0:0:0:0:
320,192,164035,1,0,0:0:0:0:
448,192,164286,128,8,164536:3:0:0:0:
192,192,164536,128,8,165036:3:0:0:0:
320,192,164786,1,0,0:0:0:0:
448,192,165036,128,8,165286:3:0:0:0:
64,192,165286,1,0,0:0:0:0:
320,192,165537,128,8,165787:3:0:0:0:
192,192,165787,128,8,166037:3:0:0:0:
448,192,166037,128,8,166287:3:0:0:0:
64,192,166287,1,8,3:0:0:0:
320,192,166538,1,0,0:0:0:0:
192,192,166789,1,0,0:0:0:0:
448,192,167040,1,0,0:0:0:0:
320,192,167291,1,0,0:0:0:0:
192,192,167542,1,0,0:0:0:0:
64,192,167793,1,0,0:0:0:0:
320,192,168044,1,0,0:0:0:0:
448,192,168295,1,8,3:0:0:0:
320,192,168546,1,0,0:0:0:0:
64,192,168797,1,0,0:0:0:0:
192,192,169048,1,0,0:0:0:0:
448,192,169299,1,8,3:0:0:0:
320,192,169299,1,8,3:0:0:0:
64,192,169550,1,0,0:0:0:0:
448,192,169801,1,8,3:0:0:0:
320,192,169801,1,8,3:0:0:0:
192,192,170052,1,0,0:0:0:0:
64,192,170303,1,8,3:0:0:0:
320,192,170554,1,8,3:0:0:0:
448,192,170805,1,0,0:0:0:0:
192,192,171056,1,0,0:0:0:0:
320,192,171307,1,0,0:0:0:0:
64,192,171558,1,0,0:0:0:0:
192,192,171810,1,0,0:0:0:0:
64,192,172061,1,0,0:0:0:0:
320,192,172312,128,8,172563:3:0:0:0:
448,192,172563,128,8,172814:3:0:0:0:
192,192,172814,128,8,173065:3:0:0:0:
64,192,173065,128,8,173316:3:0:0:0:
448,192,173316,128,8,173567:3:0:0:0:
192,192,173316,1,0,0:0:0:0:
320,192,173567,128,8,173818:3:0:0:0:
192,192,173818,128,8,174069:3:0:0:0:
64,192,174320,1,8,3:0:0:0:
320,192,174569,1,0,0:0:0:0:
448,192,174819,1,0,0:0:0:0:
192,192,175069,1,0,0:0:0:0:
64,192,175319,1,0,0:0:0:0:
320,192,175568,1,0,0:0:0:0:
448,192,175818,1,0,0:0:0:0:
192,192,176068,1,0,0:0:0:0:
320,192,176318,1,8,3:0:0:0:
64,192,176568,1,0,0:0:0:0:
448,192,176817,1,0,0:0:0:0:
64,192,177067,1,0,0:0:0:0:
320,192,177192,1,8,3:0:0:0:
448,192,177317,1,8,3:0:0:0:
192,192,177442,1,8,3:0:0:0:
64,192,177567,1,8,3:0:0:0:
320,192,177817,1,8,3:0:0:0:
192,192,177941,1,8,3:0:0:0:
448,192,178066,1,8,3:0:0:0:
320,192,178191,1,8,3:0:0:0:
192,192,178316,1,8,3:0:0:0:
64,192,178566,1,0,0:0:0:0:
320,192,178816,1,0,0:0:0:0:
448,192,179066,1,0,0:0:0:0:
64,192,179315,1,0,0:0:0:0:
192,192,179565,1,0,0:0:0:0:
320,192,179815,1,0,0:0:0:0:
64,192,180065,1,0,0:0:0:0:
448,192,180315,128,8,180564:3:0:0:0:
192,192,180564,128,8,181064:3:0:0:0:
320,192,180814,1,0,0:0:0:0:
448,192,181064,128,8,181314:3:0:0:0:
64,192,181314,1,0,0:0:0:0:
320,192,181563,128,8,181813:3:0:0:0:
192,192,181813,128,8,182063:3:0:0:0:
448,192,182063,128,8,182313:3:0:0:0:
64,192,182313,1,8,3:0:0:0:
320,192,182564,1,0,0:0:0:0:
448,192,182815,1,0,0:0:0:0:
192,192,183066,1,0,0:0:0:0:
64,192,183317,1,0,0:0:0:0:
320,192,183568,1,0,0:0:0:0:
448,192,183819,1,0,0:0:0:0:
192,192,184070,1,0,0:0:0:0:
320,192,184321,1,8,3:0:0:0:
448,192,184572,1,0,0:0:0:0:
64,192,184823,1,0,0:0:0:0:
192,192,185074,1,0,0:0:0:0:
320,192,185325,1,8,3:0:0:0:
448,192,185325,1,8,3:0:0:0:
64,192,185576,1,0,0:0:0:0:
320,192,185827,1,8,3:0:0:0:
448,192,185827,1,8,3:0:0:0:
192,192,186078,1,0,0:0:0:0:
64,192,186329,1,8,3:0:0:0:
448,192,186580,1,8,3:0:0:0:
320,192,186831,1,0,0:0:0:0:
192,192,187082,1,0,0:0:0:0:
64,192,187333,1,0,0:0:0:0:
448,192,187584,1,0,0:0:0:0:
320,192,187836,1,0,0:0:0:0:
448,192,188087,1,0,0:0:0:0:
192,192,188338,128,8,188589:3:0:0:0:
64,192,188589,128,8,188840:3:0:0:0:
320,192,188840,128,8,189091:3:0:0:0:
448,192,189091,128,8,189342:3:0:0:0:
64,192,189342,128,8,189593:3:0:0:0:
320,192,189342,1,8,3:0:0:0:
192,192,189593,128,8,189844:3:0:0:0:
320,192,189844,128,8,190095:3:0:0:0:
192,192,190346,128,0,192346:3:0:0:0:
448,192,190596,1,0,0:0:0:0:
64,192,190846,1,0,0:0:0:0:
320,192,191096,1,0,0:0:0:0:
64,192,191346,1,0,0:0:0:0:
448,192,191596,1,0,0:0:0:0:
320,192,191846,1,0,0:0:0:0:
64,192,192096,1,0,0:0:0:0:
448,192,192346,1,8,3:0:0:0:
320,192,192596,1,0,0:0:0:0:
192,192,192846,128,0,193096:0:0:0:0:
64,192,193096,128,0,193346:0:0:0:0:
448,192,193221,1,8,3:0:0:0:
320,192,193346,1,8,3:0:0:0:
192,192,193471,1,8,3:0:0:0:
448,192,193596,1,8,3:0:0:0:
64,192,193846,1,8,3:0:0:0:
192,192,193971,1,8,3:0:0:0:
448,192,194096,1,8,3:0:0:0:
320,192,194221,1,8,3:0:0:0:
192,192,194346,128,0,197846:3:0:0:0:
64,192,194596,1,0,0:0:0:0:
448,192,194846,1,0,0:0:0:0:
320,192,195096,1,0,0:0:0:0:
64,192,195346,1,0,0:0:0:0:
448,192,195596,1,0,0:0:0:0:
320,192,195846,1,0,0:0:0:0:
448,192,196096,1,0,0:0:0:0:
64,192,196346,1,8,3:0:0:0:
320,192,196596,1,8,3:0:0:0:
64,192,196846,1,0,0:0:0:0:
448,192,197096,1,8,3:0:0:0:
320,192,197346,1,0,0:0:0:0:
64,192,197596,1,8,3:0:0:0:
448,192,197846,1,8,3:0:0:0:
320,192,198096,1,0,0:0:0:0:
64,192,198346,128,0,200345:3:0:0:0:
192,192,198595,1,0,0:0:0:0:
448,192,198845,1,0,0:0:0:0:
320,192,199095,1,0,0:0:0:0:
448,192,199345,1,0,0:0:0:0:
192,192,199595,1,0,0:0:0:0:
320,192,199845,1,0,0:0:0:0:
192,192,200095,1,0,0:0:0:0:
448,192,200345,1,8,3:0:0:0:
320,192,200595,1,0,0:0:0:0:
192,192,200844,1,0,0:0:0:0:
64,192,201094,1,0,0:0:0:0:
448,192,201344,128,0,201844:3:0:0:0:
192,192,201344,1,8,3:0:0:0:
320,192,201594,1,0,0:0:0:0:
64,192,201844,1,8,3:0:0:0:
192,192,201844,1,8,3:0:0:0:
448,192,202094,1,0,0:0:0:0:
320,192,202344,128,0,204343:3:0:0:0:
192,192,202594,1,0,0:0:0:0:
64,192,202844,1,0,0:0:0:0:
448,192,203094,1,0,0:0:0:0:
192,192,203343,1,0,0:0:0:0:
448,192,203593,1,0,0:0:0:0:
64,192,203843,1,0,0:0:0:0:
192,192,204093,1,0,0:0:0:0:
448,192,204343,1,8,3:0:0:0:
64,192,204593,1,8,3:0:0:0:
448,192,204843,1,8,3:0:0:0:
320,192,205093,1,8,3:0:0:0:
448,192,205343,1,8,3:0:0:0:
192,192,205343,128,0,205842:3:0:0:0:
64,192,205592,1,0,0:0:0:0:
320,192,205842,1,0,0:0:0:0:
448,192,206092,1,0,0:0:0:0:
64,192,206376,128,0,210367:3:0:0:0:
192,192,206625,1,0,0:0:0:0:
448,192,206874,1,0,0:0:0:0:
320,192,207124,1,0,0:0:0:0:
192,192,207373,1,0,0:0:0:0:
448,192,207623,1,0,0:0:0:0:
320,192,207872,1,0,0:0:0:0:
448,192,208122,1,0,0:0:0:0:
192,192,208371,1,8,3:0:0:0:
320,192,208621,1,0,0:0:0:0:
192,192,208870,1,8,3:0:0:0:
448,192,209120,1,8,3:0:0:0:
320,192,209245,1,8,3:0:0:0:
192,192,209369,1,8,3:0:0:0:
448,192,209494,1,8,3:0:0:0:
320,192,209619,1,8,3:0:0:0:
192,192,209868,1,8,3:0:0:0:
320,192,209993,1,8,3:0:0:0:
448,192,210118,1,8,3:0:0:0:
192,192,210242,1,8,3:0:0:0:
320,192,210367,128,0,213860:3:0:0:0:
448,192,210617,1,0,0:0:0:0:
192,192,210866,1,0,0:0:0:0:
64,192,211116,1,0,0:0:0:0:
192,192,211365,1,0,0:0:0:0:
448,192,211615,1,0,0:0:0:0:
64,192,211864,1,0,0:0:0:0:
192,192,212114,1,0,0:0:0:0:
64,192,212363,1,8,3:0:0:0:
448,192,212613,1,8,3:0:0:0:
192,192,212862,1,0,0:0:0:0:
64,192,213111,1,8,3:0:0:0:
192,192,213361,1,0,0:0:0:0:
448,192,213610,1,0,0:0:0:0:
64,192,213860,1,0,0:0:0:0:
192,192,214109,1,0,0:0:0:0:
448,192,214359,128,0,218624:3:0:0:0:
320,192,214609,1,8,3:0:0:0:
64,192,214860,1,8,3:0:0:0:
192,192,215111,1,8,3:0:0:0:
320,192,215362,1,8,3:0:0:0:
192,192,215613,1,0,0:0:0:0:
64,192,215864,1,0,0:0:0:0:
320,192,216115,1,0,0:0:0:0:
192,192,216366,1,8,3:0:0:0:
64,192,216617,1,0,0:0:0:0:
192,192,216868,1,0,0:0:0:0:
320,192,217119,1,0,0:0:0:0:
64,192,217370,1,8,3:0:0:0:
192,192,217370,1,8,3:0:0:0:
320,192,217621,1,0,0:0:0:0:
192,192,217872,1,8,3:0:0:0:
64,192,217872,1,8,3:0:0:0:
320,192,218123,1,0,0:0:0:0:
192,192,218374,1,8,3:0:0:0:
64,192,218624,128,0,220381:3:0:0:0:
320,192,218875,1,0,0:0:0:0:
448,192,219126,1,0,0:0:0:0:
192,192,219377,1,0,0:0:0:0:
320,192,219628,1,0,0:0:0:0:
192,192,219879,1,0,0:0:0:0:
448,192,220130,1,0,0:0:0:0:
320,192,220381,128,8,220632:3:0:0:0:
192,192,220632,128,8,220883:3:0:0:0:
64,192,220883,128,8,221134:3:0:0:0:
320,192,221134,128,8,221385:3:0:0:0:
64,192,221385,1,8,3:0:0:0:
448,192,221385,128,8,221636:3:0:0:0:
192,192,221636,128,8,221887:3:0:0:0:
64,192,221887,128,8,222138:3:0:0:0:
320,192,222389,1,0,0:0:0:0:
192,192,222639,1,0,0:0:0:0:
448,192,222890,1,0,0:0:0:0:
64,192,223140,1,0,0:0:0:0:
320,192,223391,1,0,0:0:0:0:
192,192,223641,1,0,0:0:0:0:
64,192,223892,1,0,0:0:0:0:
448,192,224142,1,0,0:0:0:0:
320,192,224267,1,0,0:0:0:0:
192,192,224393,1,0,0:0:0:0:
64,192,224643,1,0,0:0:0:0:
320,192,224894,1,0,0:0:0:0:
448,192,225144,1,0,0:0:0:0:
192,192,225395,1,8,3:0:0:0:
64,192,225395,1,8,3:0:0:0:
320,192,225645,1,0,0:0:0:0:
192,192,225896,1,8,3:0:0:0:
448,192,225896,1,8,3:0:0:0:
64,192,226146,1,0,0:0:0:0:
320,192,226397,1,0,0:0:0:0:
448,192,226647,1,0,0:0:0:0:
192,192,226898,1,0,0:0:0:0:
64,192,227148,1,0,0:0:0:0:
320,192,227399,1,0,0:0:0:0:
192,192,227649,1,0,0:0:0:0:
448,192,227900,1,0,0:0:0:0:
64,192,228151,1,0,0:0:0:0:
320,192,228401,1,0,0:0:0:0:
192,192,228652,1,0,0:0:0:0:
448,192,228902,1,0,0:0:0:0:
64,192,229153,1,0,0:0:0:0:
320,192,229403,1,0,0:0:0:0:
192,192,229654,1,0,0:0:0:0:
64,192,229904,1,0,0:0:0:0:
448,192,230155,1,0,0:0:0:0:
192,192,230405,1,0,0:0:0:0:
320,192,230656,1,0,0:0:0:0:
64,192,230907,1,0,0:0:0:0:
192,192,231158,1,0,0:0:0:0:
320,192,231409,1,0,0:0:0:0:
448,192,231660,1,0,0:0:0:0:
192,192,231911,1,0,0:0:0:0:
320,192,232413,1,0,0:0:0:0:
192,192,232664,1,0,0:0:0:0:
64,192,232915,1,0,0:0:0:0:
320,192,233166,1,0,0:0:0:0:
448,192,233417,1,8,3:0:0:0:
192,192,233417,1,8,3:0:0:0:
64,192,233668,1,0,0:0:0:0:
320,192,233919,1,8,3:0:0:0:
448,192,233919,1,8,3:0:0:0:
192,192,234170,1,0,0:0:0:0:
64,192,234421,1,0,0:0:0:0:
320,192,234672,1,0,0:0:0:0:
448,192,234923,1,0,0:0:0:0:
192,192,235174,1,0,0:0:0:0:
64,192,235425,1,0,0:0:0:0:
320,192,235676,1,0,0:0:0:0:
448,192,235928,1,0,0:0:0:0:
192,192,236430,1,0,0:0:0:0:
320,192,236681,1,0,0:0:0:0:
64,192,237183,1,0,0:0:0:0:
192,192,237434,1,0,0:0:0:0:
448,192,237434,1,8,3:0:0:0:
320,192,237685,1,0,0:0:0:0:
64,192,237936,1,0,0:0:0:0:
192,192,238187,1,0,0:0:0:0:
320,192,238438,1,4,0:0:0:0:
448,192,238438,1,4,0:0:0:0:
64,192,238938,1,0,0:0:0:0:
192,192,239438,1,0,0:0:0:0:
448,192,239689,128,4,239939:0:0:0:0:
320,192,239939,1,0,0:0:0:0:
192,192,240439,1,0,0:0:0:0:
64,192,240689,128,4,240940:0:0:0:0:
448,192,240940,1,0,0:0:0:0:
192,192,241440,1,0,0:0:0:0:
320,192,241690,128,4,241940:0:0:0:0:
64,192,241940,1,0,0:0:0:0:
448,192,242441,1,0,0:0:0:0:
64,192,242941,1,0,0:0:0:0:
320,192,243442,1,0,0:0:0:0:
192,192,243692,128,4,243942:0:0:0:0:
448,192,243942,1,0,0:0:0:0:
64,192,244443,1,0,0:0:0:0:
320,192,244693,128,4,244943:0:0:0:0:
448,192,244943,1,0,0:0:0:0:
192,192,245443,1,0,0:0:0:0:
64,192,245692,128,4,245942:0:0:0:0:
320,192,245942,1,0,0:0:0:0:
448,192,246192,1,0,0:0:0:0:
192,192,246441,128,0,248439:0:0:0:0:
64,192,246941,1,0,0:0:0:0:
320,192,247440,1,0,0:0:0:0:
448,192,247690,128,4,247939:0:0:0:0:
64,192,247939,1,0,0:0:0:0:
64,192,248439,128,0,249438:0:0:0:0:
320,192,248688,128,4,248938:0:0:0:0:
448,192,248938,1,0,0:0:0:0:
448,192,249438,128,0,250436:0:0:0:0:
192,192,249687,128,4,249937:0:0:0:0:
64,192,249937,1,0,0:0:0:0:
320,192,250436,128,0,257178:0:0:0:0:
192,192,250936,1,0,0:0:0:0:
64,192,251435,1,0,0:0:0:0:
448,192,251934,1,0,0:0:0:0:
192,192,252434,1,0,0:0:0:0:
64,192,252933,1,0,0:0:0:0:
448,192,253433,1,0,0:0:0:0:
192,192,253932,1,0,0:0:0:0:
64,192,254431,1,0,0:0:0:0:
448,192,254931,1,0,0:0:0:0:
192,192,255430,1,0,0:0:0:0:
64,192,255929,1,0,0:0:0:0:
64,192,259223,1,0,0:0:0:0:
448,192,259223,1,0,0:0:0:0:
