osu file format v14

[General]
AudioFilename: Gabba Front Berlin - Lacrima Mosa Est!.mp3
AudioLeadIn: 0
PreviewTime: 88060
Countdown: 0
SampleSet: Soft
StackLeniency: 0.7
Mode: 3
LetterboxInBreaks: 0
SpecialStyle: 0
WidescreenStoryboard: 1

[Editor]
Bookmarks: 63543,107058,119089,172553,186820
DistanceSpacing: 0.7
BeatDivisor: 4
GridSize: 4
TimelineZoom: 2.399999

[Metadata]
Title:Lacrima Mosa Est
TitleUnicode:Lacrima Mosa Est
Artist:Gabba Front Berlin
ArtistUnicode:Gabba Front Berlin
Creator:Janko
Version:Landung
Source:
Tags:terrorcore speedcore hardcore techno hardstyle GFB MEGAtive Project Enigma electronic sv Darkera
BeatmapID:884790
BeatmapSetID:407237

[Difficulty]
HPDrainRate:9
CircleSize:4
OverallDifficulty:9
ApproachRate:5
SliderMultiplier:1.80000000596047
SliderTickRate:2

[Events]
//Background and Video events
0,0,"maxresdefault.jpg",0,0
//Break Periods
//Storyboard Layer 0 (Background)
//Storyboard Layer 1 (Fail)
//Storyboard Layer 2 (Pass)
//Storyboard Layer 3 (Foreground)
//Storyboard Sound Samples

[TimingPoints]
85,250,4,2,1,20,1,0
16085,249.480249480249,4,2,1,20,1,0
24068,250,4,2,1,20,1,0
32068,249.480249480249,4,2,1,30,1,0
32068,-83.3333333333333,4,2,1,30,0,0
32192,-125,4,2,1,30,0,0
32317,-83.3333333333333,4,2,1,30,0,0
32442,-125,4,2,1,30,0,0
32566,-83.3333333333333,4,2,1,30,0,0
32691,-125,4,2,1,30,0,0
32816,-83.3333333333333,4,2,1,30,0,0
32941,-125,4,2,1,30,0,0
33065,-83.3333333333333,4,2,1,30,0,0
33190,-125,4,2,1,30,0,0
33315,-83.3333333333333,4,2,1,30,0,0
33440,-125,4,2,1,30,0,0
33564,-83.3333333333333,4,2,1,30,0,0
33658,-125,4,2,1,30,0,0
33751,-100,4,2,1,30,0,0
33939,-83.3333333333333,4,2,1,30,0,0
34001,-125,4,2,1,30,0,0
34063,-83.3333333333333,4,2,1,30,0,0
34188,-125,4,2,1,30,0,0
34313,-83.3333333333333,4,2,1,30,0,0
34438,-125,4,2,1,30,0,0
34562,-83.3333333333333,4,2,1,30,0,0
34687,-125,4,2,1,30,0,0
34812,-83.3333333333333,4,2,1,30,0,0
34937,-125,4,2,1,30,0,0
35061,-83.3333333333333,4,2,1,30,0,0
35186,-125,4,2,1,30,0,0
35311,-83.3333333333333,4,2,1,30,0,0
35435,-125,4,2,1,30,0,0
35560,-83.3333333333333,4,2,1,30,0,0
35685,-125,4,2,1,30,0,0
35810,-83.3333333333333,4,2,1,30,0,0
35872,-125,4,2,1,30,0,0
35934,-83.3333333333333,4,2,1,30,0,0
35997,-125,4,2,1,30,0,0
36059,-83.3333333333333,4,2,1,30,0,0
36184,-125,4,2,1,30,0,0
36309,-83.3333333333333,4,2,1,30,0,0
36433,-125,4,2,1,30,0,0
36558,-83.3333333333333,4,2,1,30,0,0
36683,-125,4,2,1,30,0,0
36808,-83.3333333333333,4,2,1,30,0,0
36932,-125,4,2,1,30,0,0
37057,-83.3333333333333,4,2,1,30,0,0
37182,-125,4,2,1,30,0,0
37307,-83.3333333333333,4,2,1,30,0,0
37431,-125,4,2,1,30,0,0
37556,-83.3333333333333,4,2,1,30,0,0
37681,-125,4,2,1,30,0,0
37806,-83.3333333333333,4,2,1,30,0,0
37930,-125,4,2,1,30,0,0
38055,-83.3333333333333,4,2,1,30,0,0
38180,-125,4,2,1,30,0,0
38305,-83.3333333333333,4,2,1,30,0,0
38429,-125,4,2,1,30,0,0
38554,-83.3333333333333,4,2,1,30,0,0
38679,-125,4,2,1,30,0,0
38803,-83.3333333333333,4,2,1,30,0,0
38928,-125,4,2,1,30,0,0
39053,-83.3333333333333,4,2,1,30,0,0
39178,-125,4,2,1,30,0,0
39302,-83.3333333333333,4,2,1,30,0,0
39427,-125,4,2,1,30,0,0
39552,-83.3333333333333,4,2,1,30,0,0
39645,-125,4,2,1,30,0,0
39739,-100,4,2,1,30,0,0
40051,250,4,2,1,30,1,0
40051,-83.3333333333333,4,2,1,30,0,0
40176,-125,4,2,1,30,0,0
40301,-83.3333333333333,4,2,1,30,0,0
40426,-125,4,2,1,30,0,0
40551,-83.3333333333333,4,2,1,30,0,0
40676,-125,4,2,1,30,0,0
40801,-83.3333333333333,4,2,1,30,0,0
40926,-125,4,2,1,30,0,0
41051,-83.3333333333333,4,2,1,30,0,0
41176,-125,4,2,1,30,0,0
41301,-83.3333333333333,4,2,1,30,0,0
41426,-125,4,2,1,30,0,0
41551,-83.3333333333333,4,2,1,30,0,0
41644,-125,4,2,1,30,0,0
41738,-100,4,2,1,30,0,0
41926,-83.3333333333333,4,2,1,30,0,0
41988,-125,4,2,1,30,0,0
42051,-83.3333333333333,4,2,1,30,0,0
42176,-125,4,2,1,30,0,0
42301,-83.3333333333333,4,2,1,30,0,0
42426,-125,4,2,1,30,0,0
42551,-83.3333333333333,4,2,1,30,0,0
42676,-125,4,2,1,30,0,0
42801,-83.3333333333333,4,2,1,30,0,0
42926,-125,4,2,1,30,0,0
43051,-83.3333333333333,4,2,1,30,0,0
43176,-125,4,2,1,30,0,0
43301,-83.3333333333333,4,2,1,30,0,0
43426,-125,4,2,1,30,0,0
43551,-83.3333333333333,4,2,1,30,0,0
43676,-125,4,2,1,30,0,0
43801,-83.3333333333333,4,2,1,30,0,0
43863,-125,4,2,1,30,0,0
43926,-83.3333333333333,4,2,1,30,0,0
43988,-125,4,2,1,30,0,0
44051,-83.3333333333333,4,2,1,30,0,0
44176,-125,4,2,1,30,0,0
44301,-83.3333333333333,4,2,1,30,0,0
44426,-125,4,2,1,30,0,0
44551,-83.3333333333333,4,2,1,30,0,0
44676,-125,4,2,1,30,0,0
44801,-83.3333333333333,4,2,1,30,0,0
44926,-125,4,2,1,30,0,0
45051,-83.3333333333333,4,2,1,30,0,0
45176,-125,4,2,1,30,0,0
45301,-83.3333333333333,4,2,1,30,0,0
45426,-125,4,2,1,30,0,0
45551,-83.3333333333333,4,2,1,30,0,0
45676,-125,4,2,1,30,0,0
45801,-83.3333333333333,4,2,1,30,0,0
45926,-125,4,2,1,30,0,0
46051,-83.3333333333333,4,2,1,30,0,0
46176,-125,4,2,1,30,0,0
46301,-100,4,2,1,30,0,0
48051,249.791840133222,4,2,1,20,1,0
62039,-400,4,2,1,30,0,0
62101,-57.1428571428571,4,2,1,30,0,0
62164,-100,4,2,1,30,0,0
62289,-400,4,2,1,30,0,0
62351,-57.1428571428571,4,2,1,30,0,0
62414,-100,4,2,1,30,0,0
62538,-400,4,2,1,30,0,0
62601,-57.1428571428571,4,2,1,30,0,0
62663,-100,4,2,1,30,0,0
62788,-400,4,2,1,30,0,0
62851,-57.1428571428571,4,2,1,30,0,0
62913,-100,4,2,1,30,0,0
63038,-400,4,2,1,30,0,0
63100,-57.1428571428571,4,2,1,30,0,0
63163,-100,4,2,1,30,0,0
63288,-400,4,2,1,30,0,0
63350,-55.5555555555556,4,2,1,30,0,0
63413,-100,4,2,1,30,0,0
63662,-90.9090909090909,4,2,1,30,0,0
63725,-111.111111111111,4,2,1,30,0,0
63787,-83.3333333333333,4,2,1,30,0,0
63850,-125,4,2,1,30,0,0
63912,-76.9230769230769,4,2,1,30,0,0
63975,-142.857142857143,4,2,1,30,0,0
64037,249.687890137328,4,2,1,30,1,0
64037,-71.4285714285714,4,2,1,30,0,0
64161,-166.666666666667,4,2,1,30,0,0
64286,-100,4,2,1,30,0,0
65035,-71.4285714285714,4,2,1,30,0,0
65160,-166.666666666667,4,2,1,30,0,0
65285,-83.3333333333333,4,2,1,30,0,0
65410,-125,4,2,1,30,0,0
65535,-100,4,2,1,30,0,0
66034,-71.4285714285714,4,2,1,30,0,0
66159,-166.666666666667,4,2,1,30,0,0
66284,-83.3333333333333,4,2,1,30,0,0
66409,-125,4,2,1,30,0,0
66533,-71.4285714285714,4,2,1,30,0,0
66658,-166.666666666667,4,2,1,30,0,0
66783,-83.3333333333333,4,2,1,20,0,0
66908,-125,4,2,1,20,0,0
67033,-100,4,2,1,20,0,0
67532,-71.4285714285714,4,2,1,30,0,0
67657,-166.666666666667,4,2,1,30,0,0
67782,-100,4,2,1,30,0,0
68032,-71.4285714285714,4,2,1,30,0,0
68156,-166.666666666667,4,2,1,30,0,0
68281,-83.3333333333333,4,2,1,30,0,0
68406,-125,4,2,1,30,0,0
68531,-100,4,2,1,30,0,0
69030,-71.4285714285714,4,2,1,30,0,0
69155,-166.666666666667,4,2,1,30,0,0
69280,-83.3333333333333,4,2,1,30,0,0
69405,-125,4,2,1,30,0,0
69530,-71.4285714285714,4,2,1,30,0,0
69654,-166.666666666667,4,2,1,30,0,0
69779,-83.3333333333333,4,2,1,30,0,0
69902,-125,4,2,1,30,0,0
70027,-71.4285714285714,4,2,1,30,0,0
70152,-166.666666666667,4,2,1,30,0,0
70279,-71.4285714285714,4,2,1,30,0,0
70402,-166.666666666667,4,2,1,30,0,0
70527,-83.3333333333333,4,2,1,30,0,0
70652,-125,4,2,1,30,0,0
70778,-100,4,2,1,30,0,0
71277,-100,4,2,1,20,0,0
71402,-90.9090909090909,4,2,1,20,0,0
71465,-111.111111111111,4,2,1,20,0,0
71527,-83.3333333333333,4,2,1,30,0,0
71590,-125,4,2,1,30,0,0
71652,-76.9230769230769,4,2,1,30,0,0
71714,-142.857142857143,4,2,1,30,0,0
71777,-71.4285714285714,4,2,1,30,0,0
71902,-166.666666666667,4,2,1,30,0,0
72027,250,4,2,1,30,1,0
72027,-71.4285714285714,4,2,1,30,0,0
72152,-166.666666666667,4,2,1,30,0,0
72277,-83.3333333333333,4,2,1,30,0,0
72402,-125,4,2,1,30,0,0
72527,-83.3333333333333,4,2,1,30,0,0
72652,-125,4,2,1,30,0,0
72777,-83.3333333333333,4,2,1,30,0,0
72902,-125,4,2,1,30,0,0
73027,-71.4285714285714,4,2,1,30,0,0
73152,-166.666666666667,4,2,1,30,0,0
73277,-83.3333333333333,4,2,1,30,0,0
73402,-125,4,2,1,30,0,0
73527,-83.3333333333333,4,2,1,30,0,0
73620,-125,4,2,1,30,0,0
73714,-100,4,2,1,30,0,0
74027,-71.4285714285714,4,2,1,30,0,0
74152,-166.666666666667,4,2,1,30,0,0
74277,-83.3333333333333,4,2,1,30,0,0
74402,-125,4,2,1,30,0,0
74527,-71.4285714285714,4,2,1,30,0,0
74652,-166.666666666667,4,2,1,30,0,0
74777,-83.3333333333333,4,2,1,30,0,0
74902,-125,4,2,1,30,0,0
75027,-83.3333333333333,4,2,1,30,0,0
75152,-125,4,2,1,30,0,0
75277,-83.3333333333333,4,2,1,30,0,0
75402,-125,4,2,1,30,0,0
75527,-71.4285714285714,4,2,1,30,0,0
75652,-166.666666666667,4,2,1,30,0,0
75777,-100,4,2,1,30,0,0
76027,-71.4285714285714,4,2,1,30,0,0
76152,-166.666666666667,4,2,1,30,0,0
76277,-83.3333333333333,4,2,1,30,0,0
76402,-125,4,2,1,30,0,0
76527,-83.3333333333333,4,2,1,30,0,0
76652,-125,4,2,1,30,0,0
76777,-83.3333333333333,4,2,1,30,0,0
76902,-125,4,2,1,30,0,0
77027,-71.4285714285714,4,2,1,30,0,0
77152,-166.666666666667,4,2,1,30,0,0
77277,-83.3333333333333,4,2,1,30,0,0
77402,-125,4,2,1,30,0,0
77527,-71.4285714285714,4,2,1,30,0,0
77652,-166.666666666667,4,2,1,30,0,0
77777,-83.3333333333333,4,2,1,30,0,0
77902,-125,4,2,1,30,0,0
78027,-71.4285714285714,4,2,1,30,0,0
78152,-166.666666666667,4,2,1,30,0,0
78277,-83.3333333333333,4,2,1,30,0,0
78402,-125,4,2,1,30,0,0
78527,-90.9090909090909,4,2,1,30,0,0
78652,-111.111111111111,4,2,1,30,0,0
78777,-100,4,2,1,30,0,0
80027,251.046025104603,4,2,1,20,1,0
87558,-83.3333333333333,4,2,1,30,0,0
87683,-125,4,2,1,30,0,0
87809,-83.3333333333333,4,2,1,30,0,0
87934,-125,4,2,1,30,0,0
88060,-100,4,2,1,30,0,0
93081,-76.9230769230769,4,2,1,30,0,0
93206,-142.857142857143,4,2,1,30,0,0
93332,-100,4,2,1,30,0,0
94085,-71.4285714285714,4,2,1,30,0,0
94211,-166.666666666667,4,2,1,30,0,0
94336,-71.4285714285714,4,2,1,30,0,0
94462,-166.666666666667,4,2,1,30,0,0
94587,-71.4285714285714,4,2,1,30,0,0
94713,-166.666666666667,4,2,1,30,0,0
94838,-76.9230769230769,4,2,1,30,0,0
94901,-142.857142857143,4,2,1,30,0,0
94964,-76.9230769230769,4,2,1,30,0,0
95027,-142.857142857143,4,2,1,30,0,0
95089,-76.9230769230769,4,2,1,30,0,0
95215,-142.857142857143,4,2,1,30,0,0
95340,-71.4285714285714,4,2,1,30,0,0
95466,-166.666666666667,4,2,1,30,0,0
95591,-76.9230769230769,4,2,1,30,0,0
95654,-142.857142857143,4,2,1,30,0,0
95717,-76.9230769230769,4,2,1,30,0,0
95780,-142.857142857143,4,2,1,30,0,0
95842,-76.9230769230769,4,2,1,30,0,0
95951,-142.857142857143,4,2,1,30,0,0
96061,250,4,2,1,20,1,1
104061,250.836120401338,4,2,1,20,1,1
111962,-100,4,2,1,30,0,1
112087,249.791840133222,4,2,1,20,1,1
120080,250.731299623903,4,2,1,20,1,1
128103,250,4,2,1,10,1,0
128103,-117.647058823529,4,2,1,10,0,0
140103,249.791840133222,4,2,1,20,1,0
140103,-117.647058823529,4,2,1,20,0,0
158281,250.208507089241,4,2,1,20,1,1
166287,251.046025104603,4,2,1,20,1,1
174320,249.791840133222,4,2,1,20,1,1
182313,251.046025104603,4,2,1,20,1,1
190346,250,4,2,1,20,1,0
198346,249.895876718034,4,2,1,20,1,0
201969,-74.0740740740741,4,2,1,30,0,0
202031,-153.846153846154,4,2,1,30,0,0
202094,-74.0740740740741,4,2,1,30,0,0
202156,-153.846153846154,4,2,1,30,0,0
202219,-74.0740740740741,4,2,1,30,0,0
202281,-153.846153846154,4,2,1,30,0,0
202344,-100,4,2,1,30,0,0
206376,249.480249480249,4,2,1,20,1,0
214359,250.941028858218,4,2,1,20,1,0
221385,-71.4285714285714,4,2,1,30,0,0
221510,-166.666666666667,4,2,1,30,0,0
221636,-100,4,2,1,30,0,0
221887,-125,4,2,1,30,0,0
222138,-166.666666666667,4,2,1,30,0,0
222263,-100,4,2,1,30,0,0
222389,250.521920668058,4,2,1,30,1,0
222389,-71.4285714285714,4,2,1,30,0,0
222514,-166.666666666667,4,2,1,30,0,0
222639,-71.4285714285714,4,2,1,30,0,0
222764,-166.666666666667,4,2,1,30,0,0
222890,-71.4285714285714,4,2,1,30,0,0
223015,-166.666666666667,4,2,1,30,0,0
223140,-71.4285714285714,4,2,1,30,0,0
223265,-166.666666666667,4,2,1,30,0,0
223391,-71.4285714285714,4,2,1,30,0,0
223516,-166.666666666667,4,2,1,30,0,0
223641,-71.4285714285714,4,2,1,30,0,0
223766,-166.666666666667,4,2,1,30,0,0
223892,-71.4285714285714,4,2,1,30,0,0
224017,-166.666666666667,4,2,1,30,0,0
224142,-100,4,2,1,30,0,0
224393,-71.4285714285714,4,2,1,30,0,0
224518,-166.666666666667,4,2,1,30,0,0
224643,-71.4285714285714,4,2,1,30,0,0
224768,-166.666666666667,4,2,1,30,0,0
224894,-71.4285714285714,4,2,1,30,0,0
225019,-166.666666666667,4,2,1,30,0,0
225144,-71.4285714285714,4,2,1,30,0,0
225270,-166.666666666667,4,2,1,30,0,0
225395,-66.6666666666667,4,2,1,30,0,0
225520,-200,4,2,1,30,0,0
225645,-71.4285714285714,4,2,1,30,0,0
225771,-166.666666666667,4,2,1,30,0,0
225896,-66.6666666666667,4,2,1,30,0,0
226021,-200,4,2,1,30,0,0
226146,-71.4285714285714,4,2,1,30,0,0
226272,-166.666666666667,4,2,1,30,0,0
226397,-71.4285714285714,4,2,1,30,0,0
226522,-166.666666666667,4,2,1,30,0,0
226647,-71.4285714285714,4,2,1,30,0,0
226773,-166.666666666667,4,2,1,30,0,0
226898,-71.4285714285714,4,2,1,30,0,0
227023,-166.666666666667,4,2,1,30,0,0
227148,-71.4285714285714,4,2,1,30,0,0
227274,-166.666666666667,4,2,1,30,0,0
227399,-71.4285714285714,4,2,1,30,0,0
227524,-166.666666666667,4,2,1,30,0,0
227649,-71.4285714285714,4,2,1,30,0,0
227775,-166.666666666667,4,2,1,30,0,0
227900,-71.4285714285714,4,2,1,30,0,0
228025,-166.666666666667,4,2,1,30,0,0
228151,-71.4285714285714,4,2,1,30,0,0
228276,-166.666666666667,4,2,1,30,0,0
228401,-71.4285714285714,4,2,1,30,0,0
228526,-166.666666666667,4,2,1,30,0,0
228652,-71.4285714285714,4,2,1,30,0,0
228777,-166.666666666667,4,2,1,30,0,0
228902,-71.4285714285714,4,2,1,30,0,0
229027,-166.666666666667,4,2,1,30,0,0
229153,-71.4285714285714,4,2,1,30,0,0
229278,-166.666666666667,4,2,1,30,0,0
229403,-70.9219858156028,4,2,1,30,0,0
229528,-169.491525423729,4,2,1,30,0,0
229654,-70.9219858156028,4,2,1,30,0,0
229779,-169.491525423729,4,2,1,30,0,0
229904,-70.9219858156028,4,2,1,30,0,0
230029,-169.491525423729,4,2,1,30,0,0
230155,-70.9219858156028,4,2,1,30,0,0
230280,-169.491525423729,4,2,1,30,0,0
230405,251.046025104603,4,2,1,30,1,0
230405,-70.9219858156028,4,2,1,30,0,0
230530,-169.491525423729,4,2,1,30,0,0
230656,-70.9219858156028,4,2,1,30,0,0
230781,-169.491525423729,4,2,1,30,0,0
230907,-70.9219858156028,4,2,1,30,0,0
231032,-169.491525423729,4,2,1,30,0,0
231158,-70.9219858156028,4,2,1,30,0,0
231283,-169.491525423729,4,2,1,30,0,0
231409,-70.9219858156028,4,2,1,30,0,0
231534,-169.491525423729,4,2,1,30,0,0
231660,-70.9219858156028,4,2,1,30,0,0
231785,-169.491525423729,4,2,1,30,0,0
231911,-70.9219858156028,4,2,1,30,0,0
232162,-169.491525423729,4,2,1,30,0,0
232413,-70.9219858156028,4,2,1,30,0,0
232538,-169.491525423729,4,2,1,30,0,0
232664,-70.9219858156028,4,2,1,30,0,0
232789,-169.491525423729,4,2,1,30,0,0
232915,-70.9219858156028,4,2,1,30,0,0
233040,-169.491525423729,4,2,1,30,0,0
233166,-70.9219858156028,4,2,1,30,0,0
233292,-166.666666666667,4,2,1,30,0,0
233417,-66.2251655629139,4,2,1,30,0,0
233543,-204.081632653061,4,2,1,30,0,0
233668,-70.9219858156028,4,2,1,30,0,0
233794,-169.491525423729,4,2,1,30,0,0
233919,-66.2251655629139,4,2,1,30,0,0
234045,-204.081632653061,4,2,1,30,0,0
234170,-70.9219858156028,4,2,1,30,0,0
234296,-169.491525423729,4,2,1,30,0,0
234421,-71.0227272727273,4,2,1,30,0,0
234547,-169.491525423729,4,2,1,30,0,0
234672,-70.9219858156028,4,2,1,30,0,0
234798,-166.666666666667,4,2,1,30,0,0
234923,-70.9219858156028,4,2,1,30,0,0
235049,-169.491525423729,4,2,1,30,0,0
235174,-70.9219858156028,4,2,1,30,0,0
235300,-169.491525423729,4,2,1,30,0,0
235425,-70.9219858156028,4,2,1,30,0,0
235551,-169.491525423729,4,2,1,30,0,0
235676,-70.9219858156028,4,2,1,30,0,0
235802,-169.491525423729,4,2,1,30,0,0
235928,-70.9219858156028,4,2,1,30,0,0
236179,-169.491525423729,4,2,1,30,0,0
236430,-70.9219858156028,4,2,1,30,0,0
236555,-169.491525423729,4,2,1,30,0,0
236681,-70.9219858156028,4,2,1,30,0,0
236932,-169.491525423729,4,2,1,30,0,0
237183,-70.9219858156028,4,2,1,30,0,0
237308,-169.491525423729,4,2,1,30,0,0
237434,-100,4,2,1,30,0,0
238438,250.208507089241,4,2,1,20,1,0
238438,-100,4,2,1,20,0,0
245443,249.687890137328,4,2,1,20,1,0
250436,-100,4,2,1,10,0,0
259223,250,4,2,1,20,1,0

[HitObjects]
320,192,85,128,4,2335:3:0:0:0:
64,192,85,1,4,3:0:0:0:
192,192,210,1,4,3:0:0:0:
64,192,335,1,4,3:0:0:0:
448,192,460,1,4,3:0:0:0:
192,192,585,1,4,3:0:0:0:
64,192,710,1,4,3:0:0:0:
448,192,835,1,4,3:0:0:0:
192,192,960,1,4,3:0:0:0:
448,192,1085,1,4,3:0:0:0:
64,192,1210,1,4,3:0:0:0:
192,192,1335,1,4,3:0:0:0:
64,192,1460,1,4,3:0:0:0:
448,192,1585,1,4,3:0:0:0:
192,192,1710,1,4,3:0:0:0:
64,192,1835,1,4,3:0:0:0:
448,192,1960,1,4,3:0:0:0:
192,192,2022,1,4,3:0:0:0:
64,192,2085,1,4,3:0:0:0:
192,192,2210,1,4,3:0:0:0:
448,192,2335,128,4,3460:3:0:0:0:
64,192,2460,1,4,3:0:0:0:
192,192,2585,1,4,3:0:0:0:
320,192,2710,1,4,3:0:0:0:
64,192,2835,1,4,3:0:0:0:
192,192,2960,1,4,3:0:0:0:
320,192,3085,1,4,3:0:0:0:
64,192,3210,1,4,3:0:0:0:
320,192,3335,1,4,3:0:0:0:
192,192,3460,128,4,4210:3:0:0:0:
64,192,3585,1,4,3:0:0:0:
320,192,3710,1,4,3:0:0:0:
448,192,3835,1,4,3:0:0:0:
64,192,3960,1,4,3:0:0:0:
320,192,4022,1,4,3:0:0:0:
448,192,4085,1,4,3:0:0:0:
64,192,4210,128,4,8085:3:0:0:0:
320,192,4335,1,4,3:0:0:0:
448,192,4460,1,4,3:0:0:0:
192,192,4585,1,4,3:0:0:0:
320,192,4710,1,4,3:0:0:0:
448,192,4835,1,4,3:0:0:0:
192,192,4960,1,4,3:0:0:0:
320,192,5085,1,4,3:0:0:0:
448,192,5210,1,4,3:0:0:0:
192,192,5335,1,4,3:0:0:0:
320,192,5460,1,4,3:0:0:0:
448,192,5585,1,4,3:0:0:0:
192,192,5710,1,4,3:0:0:0:
448,192,5835,1,4,3:0:0:0:
192,192,5960,1,4,3:0:0:0:
320,192,6022,1,4,3:0:0:0:
448,192,6085,1,4,3:0:0:0:
192,192,6210,1,4,3:0:0:0:
320,192,6335,1,4,3:0:0:0:
192,192,6460,1,4,3:0:0:0:
448,192,6585,1,4,3:0:0:0:
320,192,6710,1,4,3:0:0:0:
192,192,6835,1,4,3:0:0:0:
448,192,6960,1,4,3:0:0:0:
320,192,7085,1,4,3:0:0:0:
448,192,7210,1,4,3:0:0:0:
192,192,7335,1,4,3:0:0:0:
320,192,7460,1,4,3:0:0:0:
448,192,7585,1,4,3:0:0:0:
192,192,7710,1,4,3:0:0:0:
448,192,7835,1,4,3:0:0:0:
320,192,7960,1,4,3:0:0:0:
192,192,8022,1,4,3:0:0:0:
320,192,8085,5,0,0:0:0:0:
448,192,8085,1,0,0:0:0:0:
192,192,8210,1,4,3:0:0:0:
320,192,8335,1,2,2:0:0:0:
192,192,8460,1,2,2:0:0:0:
448,192,8585,1,0,0:0:0:0:
64,192,8585,1,0,0:0:0:0:
320,192,8710,1,4,3:0:0:0:
192,192,8835,1,2,2:0:0:0:
192,192,8960,1,2,2:0:0:0:
448,192,9085,1,0,0:0:0:0:
320,192,9085,1,0,0:0:0:0:
64,192,9210,1,4,3:0:0:0:
192,192,9335,128,4,9585:0:0:0:0:
320,192,9460,1,4,3:0:0:0:
64,192,9585,1,0,0:0:0:0:
448,192,9585,1,0,0:0:0:0:
320,192,9710,1,4,3:0:0:0:
192,192,9835,1,2,2:0:0:0:
64,192,9960,1,2,2:0:0:0:
192,192,10085,1,0,0:0:0:0:
64,192,10085,1,0,0:0:0:0:
448,192,10210,1,4,3:0:0:0:
320,192,10335,128,4,10585:0:0:0:0:
192,192,10460,1,4,3:0:0:0:
448,192,10585,1,0,0:0:0:0:
64,192,10585,1,0,0:0:0:0:
192,192,10710,1,4,3:0:0:0:
320,192,10835,1,2,2:0:0:0:
448,192,10960,1,2,2:0:0:0:
448,192,11085,1,0,0:0:0:0:
320,192,11085,1,0,0:0:0:0:
192,192,11210,1,4,3:0:0:0:
64,192,11335,128,4,11585:0:0:0:0:
320,192,11460,1,4,3:0:0:0:
448,192,11585,1,0,0:0:0:0:
192,192,11585,1,0,0:0:0:0:
320,192,11710,1,4,3:0:0:0:
64,192,11835,1,2,2:0:0:0:
192,192,11960,1,2,2:0:0:0:
192,192,12085,1,0,0:0:0:0:
320,192,12085,1,0,0:0:0:0:
448,192,12210,1,4,3:0:0:0:
320,192,12335,1,2,2:0:0:0:
192,192,12460,1,4,3:0:0:0:
64,192,12585,1,0,0:0:0:0:
448,192,12585,1,0,0:0:0:0:
192,192,12710,1,4,3:0:0:0:
320,192,12835,1,2,2:0:0:0:
448,192,12960,1,2,2:0:0:0:
448,192,13085,1,0,0:0:0:0:
320,192,13085,1,0,0:0:0:0:
64,192,13210,1,4,3:0:0:0:
192,192,13335,128,4,13585:0:0:0:0:
320,192,13460,1,4,3:0:0:0:
448,192,13585,1,0,0:0:0:0:
64,192,13585,1,0,0:0:0:0:
320,192,13710,1,4,3:0:0:0:
64,192,13835,1,2,2:0:0:0:
192,192,13960,1,2,2:0:0:0:
192,192,14085,1,0,0:0:0:0:
320,192,14085,1,0,0:0:0:0:
448,192,14210,1,4,3:0:0:0:
320,192,14335,128,4,14585:0:0:0:0:
192,192,14460,1,4,3:0:0:0:
448,192,14585,1,0,0:0:0:0:
64,192,14585,1,0,0:0:0:0:
192,192,14710,1,4,3:0:0:0:
320,192,14835,1,2,2:0:0:0:
64,192,14960,1,2,2:0:0:0:
64,192,15085,1,0,0:0:0:0:
192,192,15085,1,0,0:0:0:0:
320,192,15210,1,4,3:0:0:0:
448,192,15335,128,4,15585:0:0:0:0:
192,192,15460,1,4,3:0:0:0:
64,192,15585,1,0,0:0:0:0:
320,192,15585,1,0,0:0:0:0:
192,192,15710,1,4,3:0:0:0:
64,192,15835,1,2,2:0:0:0:
448,192,15960,1,8,3:0:0:0:
320,192,16022,1,8,3:0:0:0:
192,192,16085,1,0,0:0:0:0:
64,192,16085,1,0,0:0:0:0:
448,192,16209,1,4,3:0:0:0:
320,192,16334,1,2,2:0:0:0:
192,192,16459,1,4,3:0:0:0:
64,192,16583,1,0,0:0:0:0:
320,192,16583,1,0,0:0:0:0:
448,192,16708,1,4,3:0:0:0:
320,192,16833,1,2,2:0:0:0:
192,192,16958,1,2,2:0:0:0:
192,192,17082,1,0,0:0:0:0:
64,192,17082,1,0,0:0:0:0:
448,192,17207,1,4,3:0:0:0:
320,192,17332,128,4,17581:0:0:0:0:
192,192,17457,1,4,3:0:0:0:
64,192,17581,1,0,0:0:0:0:
448,192,17581,1,0,0:0:0:0:
192,192,17706,1,4,3:0:0:0:
320,192,17831,1,2,2:0:0:0:
448,192,17956,1,2,2:0:0:0:
320,192,18080,1,0,0:0:0:0:
448,192,18080,1,0,0:0:0:0:
192,192,18205,1,4,3:0:0:0:
64,192,18330,128,4,18579:0:0:0:0:
320,192,18455,1,4,3:0:0:0:
448,192,18579,1,0,2:0:0:0:
192,192,18579,1,0,2:0:0:0:
320,192,18704,1,4,3:0:0:0:
192,192,18829,1,2,2:0:0:0:
64,192,18954,1,2,2:0:0:0:
192,192,19078,1,0,2:0:0:0:
64,192,19078,1,0,2:0:0:0:
320,192,19203,1,4,3:0:0:0:
448,192,19328,128,4,19577:0:0:0:0:
192,192,19452,1,4,3:0:0:0:
64,192,19577,1,0,0:0:0:0:
320,192,19577,1,0,0:0:0:0:
192,192,19702,1,4,3:0:0:0:
320,192,19827,1,0,2:0:0:0:
448,192,19827,1,2,2:0:0:0:
64,192,19951,1,2,2:0:0:0:
64,192,20076,1,0,2:0:0:0:
320,192,20076,1,0,0:0:0:0:
64,192,20326,1,0,2:0:0:0:
192,192,20326,1,0,2:0:0:0:
320,192,20575,1,0,2:0:0:0:
448,192,20575,1,0,2:0:0:0:
64,192,20825,1,0,2:0:0:0:
320,192,20825,1,0,2:0:0:0:
448,192,21074,1,0,2:0:0:0:
192,192,21074,1,0,2:0:0:0:
320,192,21324,128,4,21573:0:0:0:0:
448,192,21324,1,0,2:0:0:0:
192,192,21573,1,0,0:0:0:0:
64,192,21573,1,0,0:0:0:0:
448,192,21823,1,0,0:0:0:0:
320,192,21823,1,0,0:0:0:0:
64,192,22072,1,0,0:0:0:0:
192,192,22072,1,0,0:0:0:0:
320,192,22322,128,4,22571:0:0:0:0:
448,192,22322,1,0,2:0:0:0:
64,192,22571,1,0,0:0:0:0:
192,192,22571,1,0,0:0:0:0:
320,192,22820,1,0,0:0:0:0:
448,192,22820,1,0,0:0:0:0:
64,192,23070,1,0,0:0:0:0:
192,192,23070,1,0,0:0:0:0:
320,192,23319,128,4,23569:0:0:0:0:
448,192,23319,1,0,2:0:0:0:
64,192,23569,1,0,0:0:0:0:
192,192,23569,1,0,0:0:0:0:
448,192,23756,1,0,0:0:0:0:
320,192,23818,1,0,0:0:0:0:
64,192,23943,1,0,0:0:0:0:
192,192,24005,1,0,0:0:0:0:
448,192,24068,1,0,0:0:0:0:
320,192,24068,1,0,0:0:0:0:
64,192,24318,1,0,0:0:0:0:
192,192,24318,1,0,0:0:0:0:
320,192,24568,1,0,0:0:0:0:
448,192,24568,1,0,0:0:0:0:
64,192,24818,1,0,0:0:0:0:
192,192,24818,1,0,0:0:0:0:
448,192,25068,1,0,0:0:0:0:
192,192,25068,1,0,0:0:0:0:
64,192,25318,1,0,0:0:0:0:
320,192,25318,128,4,25568:0:0:0:0:
192,192,25568,1,0,0:0:0:0:
448,192,25568,1,0,0:0:0:0:
64,192,25755,1,0,0:0:0:0:
192,192,25818,1,0,0:0:0:0:
320,192,25943,1,0,0:0:0:0:
64,192,25943,1,0,0:0:0:0:
448,192,26068,1,0,0:0:0:0:
192,192,26068,1,0,0:0:0:0:
320,192,26193,1,0,0:0:0:0:
192,192,26318,1,4,0:0:0:0:
64,192,26318,1,0,0:0:0:0:
448,192,26443,1,0,0:0:0:0:
320,192,26568,1,0,0:0:0:0:
64,192,26568,1,0,0:0:0:0:
448,192,26693,1,0,0:0:0:0:
64,192,26818,1,0,0:0:0:0:
192,192,26818,1,0,0:0:0:0:
320,192,26943,1,0,0:0:0:0:
192,192,27068,1,0,0:0:0:0:
448,192,27068,1,0,0:0:0:0:
64,192,27193,1,0,0:0:0:0:
448,192,27318,1,4,0:0:0:0:
320,192,27318,1,0,0:0:0:0:
192,192,27443,1,0,0:0:0:0:
64,192,27568,1,0,0:0:0:0:
320,192,27568,1,0,0:0:0:0:
448,192,27693,1,0,0:0:0:0:
64,192,27818,1,0,0:0:0:0:
192,192,27818,1,0,0:0:0:0:
192,192,27943,1,0,0:0:0:0:
320,192,27943,1,0,0:0:0:0:
320,192,28068,1,0,0:0:0:0:
448,192,28068,1,0,0:0:0:0:
192,192,28193,1,0,0:0:0:0:
320,192,28318,1,0,0:0:0:0:
64,192,28318,1,0,0:0:0:0:
448,192,28443,1,0,0:0:0:0:
192,192,28568,1,0,0:0:0:0:
64,192,28568,1,0,0:0:0:0:
320,192,28693,1,0,0:0:0:0:
448,192,28818,1,0,0:0:0:0:
192,192,28818,1,0,0:0:0:0:
64,192,28943,1,0,0:0:0:0:
448,192,29068,1,0,0:0:0:0:
320,192,29068,1,0,0:0:0:0:
192,192,29193,1,0,0:0:0:0:
320,192,29318,1,4,0:0:0:0:
64,192,29318,1,0,0:0:0:0:
192,192,29443,1,0,0:0:0:0:
448,192,29568,1,0,0:0:0:0:
320,192,29568,1,0,0:0:0:0:
192,192,29693,1,0,0:0:0:0:
64,192,29818,1,0,0:0:0:0:
320,192,29818,1,0,0:0:0:0:
448,192,29943,1,0,0:0:0:0:
192,192,30068,1,0,0:0:0:0:
64,192,30068,1,0,0:0:0:0:
192,192,30193,1,0,0:0:0:0:
448,192,30193,1,0,0:0:0:0:
448,192,30318,1,0,0:0:0:0:
64,192,30318,1,0,0:0:0:0:
320,192,30443,1,0,0:0:0:0:
64,192,30443,1,0,0:0:0:0:
320,192,30568,1,0,0:0:0:0:
192,192,30568,1,0,0:0:0:0:
192,192,30693,1,0,0:0:0:0:
448,192,30693,1,0,0:0:0:0:
448,192,30818,1,0,0:0:0:0:
64,192,30818,1,0,0:0:0:0:
64,192,30943,1,0,0:0:0:0:
320,192,30943,1,0,0:0:0:0:
448,192,31068,1,0,0:0:0:0:
320,192,31068,1,0,0:0:0:0:
192,192,31193,1,0,0:0:0:0:
448,192,31193,1,0,0:0:0:0:
192,192,31318,1,0,0:0:0:0:
64,192,31318,1,0,0:0:0:0:
448,192,31443,1,0,0:0:0:0:
320,192,31443,1,0,0:0:0:0:
192,192,31568,1,0,0:0:0:0:
64,192,31568,1,0,0:0:0:0:
448,192,31630,1,0,0:0:0:0:
320,192,31693,1,0,0:0:0:0:
64,192,31755,1,0,0:0:0:0:
192,192,31818,1,0,0:0:0:0:
448,192,31818,1,0,0:0:0:0:
320,192,31880,1,0,0:0:0:0:
64,192,31943,1,0,0:0:0:0:
192,192,32005,1,0,0:0:0:0:
448,192,32068,1,8,3:0:0:0:
320,192,32068,1,8,3:0:0:0:
192,192,32317,1,8,3:0:0:0:
64,192,32317,1,8,3:0:0:0:
320,192,32566,1,8,3:0:0:0:
448,192,32566,1,8,3:0:0:0:
64,192,32816,1,8,3:0:0:0:
192,192,32816,1,8,3:0:0:0:
320,192,33065,1,8,3:0:0:0:
448,192,33065,1,8,3:0:0:0:
64,192,33315,1,8,3:0:0:0:
192,192,33315,1,8,3:0:0:0:
320,192,33564,1,8,3:0:0:0:
448,192,33564,1,8,3:0:0:0:
64,192,33751,1,8,3:0:0:0:
192,192,33751,1,8,3:0:0:0:
320,192,33814,1,8,3:0:0:0:
448,192,33814,1,8,3:0:0:0:
320,192,33939,1,8,3:0:0:0:
64,192,33939,1,8,3:0:0:0:
448,192,34063,1,8,3:0:0:0:
320,192,34063,1,8,3:0:0:0:
64,192,34313,1,8,3:0:0:0:
192,192,34313,1,8,3:0:0:0:
320,192,34562,1,8,3:0:0:0:
448,192,34562,1,8,3:0:0:0:
64,192,34812,1,8,3:0:0:0:
192,192,34812,1,8,3:0:0:0:
320,192,35061,1,8,3:0:0:0:
448,192,35061,1,8,3:0:0:0:
192,192,35311,1,8,3:0:0:0:
448,192,35311,1,8,3:0:0:0:
64,192,35560,1,8,3:0:0:0:
320,192,35560,1,8,3:0:0:0:
448,192,35810,1,8,3:0:0:0:
320,192,35810,1,8,3:0:0:0:
192,192,35934,1,8,3:0:0:0:
320,192,35934,1,8,3:0:0:0:
448,192,36059,1,8,3:0:0:0:
64,192,36059,1,8,3:0:0:0:
64,192,36309,1,8,3:0:0:0:
192,192,36309,1,8,3:0:0:0:
320,192,36558,1,8,3:0:0:0:
448,192,36558,1,8,3:0:0:0:
192,192,36808,1,8,3:0:0:0:
64,192,36808,1,8,3:0:0:0:
320,192,37057,1,8,3:0:0:0:
448,192,37057,1,8,3:0:0:0:
64,192,37307,1,8,3:0:0:0:
192,192,37307,1,8,3:0:0:0:
192,192,37556,1,8,3:0:0:0:
448,192,37556,1,8,3:0:0:0:
64,192,37806,1,8,3:0:0:0:
320,192,37806,1,8,3:0:0:0:
192,192,38055,1,8,3:0:0:0:
448,192,38055,1,8,3:0:0:0:
64,192,38305,1,8,3:0:0:0:
192,192,38305,1,8,3:0:0:0:
320,192,38554,1,8,3:0:0:0:
448,192,38554,1,8,3:0:0:0:
192,192,38803,1,8,3:0:0:0:
320,192,38803,1,8,3:0:0:0:
64,192,39053,1,8,3:0:0:0:
192,192,39053,1,8,3:0:0:0:
448,192,39302,1,8,3:0:0:0:
320,192,39302,1,8,3:0:0:0:
64,192,39552,1,8,3:0:0:0:
192,192,39552,1,8,3:0:0:0:
320,192,39739,1,8,3:0:0:0:
448,192,39739,1,8,3:0:0:0:
64,192,39801,1,8,3:0:0:0:
192,192,39801,1,8,3:0:0:0:
448,192,39926,1,8,3:0:0:0:
320,192,39926,1,8,3:0:0:0:
64,192,39988,1,8,3:0:0:0:
192,192,39988,1,8,3:0:0:0:
320,192,40051,1,8,3:0:0:0:
448,192,40051,1,8,3:0:0:0:
192,192,40301,1,8,3:0:0:0:
448,192,40301,1,8,3:0:0:0:
320,192,40551,1,8,3:0:0:0:
64,192,40551,1,8,3:0:0:0:
192,192,40801,1,8,3:0:0:0:
64,192,40801,1,8,3:0:0:0:
320,192,41051,1,8,3:0:0:0:
448,192,41051,1,8,3:0:0:0:
64,192,41301,1,8,3:0:0:0:
192,192,41301,1,8,3:0:0:0:
320,192,41551,1,8,3:0:0:0:
448,192,41551,1,8,3:0:0:0:
192,192,41738,1,8,3:0:0:0:
64,192,41738,1,8,3:0:0:0:
320,192,41801,1,8,3:0:0:0:
448,192,41801,1,8,3:0:0:0:
192,192,41926,1,8,3:0:0:0:
64,192,41926,1,8,3:0:0:0:
320,192,42051,1,8,3:0:0:0:
448,192,42051,1,8,3:0:0:0:
192,192,42301,1,8,3:0:0:0:
448,192,42301,1,8,3:0:0:0:
64,192,42551,1,8,3:0:0:0:
320,192,42551,1,8,3:0:0:0:
448,192,42801,1,8,3:0:0:0:
64,192,42801,1,8,3:0:0:0:
320,192,43051,1,8,3:0:0:0:
192,192,43051,1,8,3:0:0:0:
64,192,43301,1,8,3:0:0:0:
320,192,43301,1,8,3:0:0:0:
192,192,43551,1,8,3:0:0:0:
448,192,43551,1,8,3:0:0:0:
192,192,43801,1,8,3:0:0:0:
64,192,43801,1,8,3:0:0:0:
192,192,43926,1,8,3:0:0:0:
320,192,43926,1,8,3:0:0:0:
448,192,44051,1,8,3:0:0:0:
64,192,44051,1,8,3:0:0:0:
192,192,44301,1,8,3:0:0:0:
64,192,44301,1,8,3:0:0:0:
320,192,44551,1,8,3:0:0:0:
192,192,44551,1,8,3:0:0:0:
448,192,44801,1,8,3:0:0:0:
320,192,44801,1,8,3:0:0:0:
192,192,45051,1,8,3:0:0:0:
448,192,45051,1,8,3:0:0:0:
64,192,45301,1,8,3:0:0:0:
320,192,45301,1,8,3:0:0:0:
64,192,45551,1,8,3:0:0:0:
448,192,45551,1,8,3:0:0:0:
192,192,45801,1,8,3:0:0:0:
320,192,45801,1,8,3:0:0:0:
64,192,46051,1,8,3:0:0:0:
192,192,46051,1,8,3:0:0:0:
320,192,46301,1,8,3:0:0:0:
192,192,46551,1,12,3:0:0:0:
64,192,46801,1,12,3:0:0:0:
192,192,47051,5,0,3:1:0:0:
448,192,47176,1,0,3:1:0:0:
192,192,47301,1,0,3:1:0:0:
448,192,47426,1,0,3:1:0:0:
320,192,47488,1,0,3:1:0:0:
192,192,47551,1,0,3:1:0:0:
64,192,47676,1,0,3:1:0:0:
192,192,47738,1,0,3:1:0:0:
448,192,47801,1,0,3:1:0:0:
320,192,47863,1,0,3:1:0:0:
64,192,47926,1,0,3:1:0:0:
192,192,47988,1,0,3:1:0:0:
448,192,48051,1,0,3:1:0:0:
320,192,48051,1,8,3:0:0:0:
64,192,48175,1,0,3:1:0:0:
192,192,48300,1,0,3:1:0:0:
448,192,48300,1,8,3:0:0:0:
448,192,48425,1,0,3:1:0:0:
320,192,48550,1,0,3:1:0:0:
64,192,48550,1,8,3:0:0:0:
64,192,48675,1,0,3:1:0:0:
448,192,48800,1,0,3:1:0:0:
192,192,48800,1,8,3:0:0:0:
192,192,48925,1,0,3:1:0:0:
320,192,49050,1,0,3:1:0:0:
64,192,49050,1,8,3:0:0:0:
320,192,49175,1,0,3:1:0:0:
448,192,49299,1,0,3:1:0:0:
192,192,49299,1,8,3:0:0:0:
448,192,49424,1,0,3:1:0:0:
64,192,49549,1,0,3:1:0:0:
320,192,49549,1,8,3:0:0:0:
64,192,49674,1,0,3:1:0:0:
192,192,49737,1,0,3:1:0:0:
320,192,49799,1,0,3:1:0:0:
448,192,49799,1,8,3:0:0:0:
192,192,49924,1,0,3:1:0:0:
64,192,49924,1,0,3:1:0:0:
448,192,50049,1,0,3:1:0:0:
320,192,50049,1,8,3:0:0:0:
320,192,50174,1,0,3:1:0:0:
192,192,50299,1,0,3:1:0:0:
64,192,50299,1,8,3:0:0:0:
448,192,50424,1,0,3:1:0:0:
64,192,50548,1,0,3:1:0:0:
320,192,50548,1,8,3:0:0:0:
192,192,50673,1,0,3:1:0:0:
320,192,50798,1,0,3:1:0:0:
448,192,50798,1,8,3:0:0:0:
64,192,50923,1,0,3:1:0:0:
192,192,51048,1,0,3:1:0:0:
448,192,51048,1,8,3:0:0:0:
320,192,51173,1,0,3:1:0:0:
64,192,51298,1,0,3:1:0:0:
448,192,51298,1,8,3:0:0:0:
192,192,51423,1,0,3:1:0:0:
320,192,51548,1,0,3:1:0:0:
448,192,51548,1,8,3:0:0:0:
64,192,51672,1,0,3:1:0:0:
320,192,51797,1,0,3:1:0:0:
192,192,51797,1,8,3:0:0:0:
448,192,51922,1,8,3:0:0:0:
64,192,51922,1,0,3:1:0:0:
192,192,52047,1,0,3:1:0:0:
320,192,52047,1,8,3:0:0:0:
448,192,52172,1,0,3:1:0:0:
64,192,52297,1,0,3:1:0:0:
320,192,52297,1,8,3:0:0:0:
64,192,52422,1,0,3:1:0:0:
448,192,52547,1,0,3:1:0:0:
192,192,52547,1,8,3:0:0:0:
320,192,52672,1,0,3:1:0:0:
448,192,52797,1,0,3:1:0:0:
64,192,52797,1,8,3:0:0:0:
64,192,52921,1,0,3:1:0:0:
192,192,53046,1,0,3:1:0:0:
448,192,53046,1,8,3:0:0:0:
192,192,53171,1,0,3:1:0:0:
320,192,53296,1,0,3:1:0:0:
64,192,53296,1,8,3:0:0:0:
320,192,53421,1,0,3:1:0:0:
448,192,53546,1,0,3:1:0:0:
192,192,53546,1,8,3:0:0:0:
448,192,53671,1,0,3:1:0:0:
64,192,53796,1,0,3:1:0:0:
320,192,53796,1,8,3:0:0:0:
320,192,53921,1,0,3:1:0:0:
448,192,54046,1,0,3:1:0:0:
192,192,54046,1,8,3:0:0:0:
192,192,54170,1,0,3:1:0:0:
64,192,54295,1,0,3:1:0:0:
448,192,54295,1,8,3:0:0:0:
64,192,54420,1,0,3:1:0:0:
192,192,54545,1,0,3:1:0:0:
320,192,54545,1,8,3:0:0:0:
320,192,54670,1,0,3:1:0:0:
448,192,54795,1,0,3:1:0:0:
64,192,54795,1,8,3:0:0:0:
64,192,54920,1,0,3:1:0:0:
192,192,55045,1,0,3:1:0:0:
320,192,55045,1,8,3:0:0:0:
320,192,55170,1,0,3:1:0:0:
64,192,55294,1,0,3:1:0:0:
448,192,55294,1,8,3:0:0:0:
448,192,55419,1,0,3:1:0:0:
64,192,55544,1,0,3:1:0:0:
320,192,55544,1,8,3:0:0:0:
192,192,55669,1,0,3:1:0:0:
448,192,55732,1,0,3:1:0:0:
320,192,55732,1,0,3:1:0:0:
64,192,55794,1,0,3:1:0:0:
192,192,55794,1,8,3:0:0:0:
320,192,55919,1,0,3:1:0:0:
64,192,55981,1,0,3:1:0:0:
192,192,55981,1,0,3:1:0:0:
448,192,56044,1,0,3:1:0:0:
320,192,56044,1,8,3:0:0:0:
448,192,56169,1,0,3:1:0:0:
192,192,56294,1,0,3:1:0:0:
64,192,56294,1,8,3:0:0:0:
320,192,56419,1,0,3:1:0:0:
448,192,56543,1,0,3:1:0:0:
64,192,56543,1,8,3:0:0:0:
192,192,56668,1,0,3:1:0:0:
448,192,56793,1,0,3:1:0:0:
320,192,56793,1,8,3:0:0:0:
64,192,56918,1,0,3:1:0:0:
192,192,57043,1,0,3:1:0:0:
320,192,57043,1,8,3:0:0:0:
448,192,57168,1,0,3:1:0:0:
320,192,57293,1,0,3:1:0:0:
64,192,57293,1,8,3:0:0:0:
192,192,57418,1,0,3:1:0:0:
64,192,57543,1,0,3:1:0:0:
320,192,57543,1,8,3:0:0:0:
448,192,57667,1,0,3:1:0:0:
64,192,57730,1,0,3:1:0:0:
192,192,57730,1,0,3:1:0:0:
320,192,57792,1,0,3:1:0:0:
448,192,57792,1,8,3:0:0:0:
192,192,57917,1,0,3:1:0:0:
64,192,57917,1,0,3:1:0:0:
320,192,58042,1,0,3:1:0:0:
448,192,58042,1,8,3:0:0:0:
192,192,58167,1,0,3:1:0:0:
448,192,58292,1,0,3:1:0:0:
64,192,58292,1,8,3:0:0:0:
448,192,58417,1,0,3:1:0:0:
320,192,58542,1,0,3:1:0:0:
64,192,58542,1,8,3:0:0:0:
64,192,58667,1,0,3:1:0:0:
192,192,58792,1,0,3:1:0:0:
448,192,58792,1,8,3:0:0:0:
192,192,58916,1,0,3:1:0:0:
320,192,59041,1,0,3:1:0:0:
448,192,59041,1,8,3:0:0:0:
320,192,59166,1,0,3:1:0:0:
64,192,59291,1,0,3:1:0:0:
192,192,59291,1,8,3:0:0:0:
448,192,59416,1,0,3:1:0:0:
320,192,59541,1,0,3:1:0:0:
64,192,59541,1,8,3:0:0:0:
192,192,59666,1,0,3:1:0:0:
448,192,59791,1,0,3:1:0:0:
320,192,59791,1,8,3:0:0:0:
192,192,59916,1,0,3:1:0:0:
320,192,59916,1,8,3:0:0:0:
64,192,60041,1,8,3:0:0:0:
192,192,60041,1,0,3:1:0:0:
448,192,60165,1,0,3:1:0:0:
320,192,60290,1,0,3:1:0:0:
64,192,60290,1,8,3:0:0:0:
64,192,60415,1,0,3:1:0:0:
448,192,60540,1,0,3:1:0:0:
192,192,60540,1,8,3:0:0:0:
448,192,60665,1,0,3:1:0:0:
320,192,60790,1,0,3:1:0:0:
64,192,60790,1,8,3:0:0:0:
64,192,60915,1,0,3:1:0:0:
192,192,61040,1,0,3:1:0:0:
448,192,61040,1,8,3:0:0:0:
192,192,61165,1,0,3:1:0:0:
448,192,61289,1,0,3:1:0:0:
320,192,61289,1,8,3:0:0:0:
320,192,61414,1,0,3:1:0:0:
64,192,61539,1,0,3:1:0:0:
192,192,61539,1,8,3:0:0:0:
64,192,61664,1,0,3:1:0:0:
192,192,61789,1,8,3:0:0:0:
320,192,61789,1,0,3:1:0:0:
320,192,61914,1,0,3:1:0:0:
64,192,62039,1,0,3:1:0:0:
448,192,62039,1,8,3:0:0:0:
192,192,62164,1,0,3:1:0:0:
448,192,62289,1,8,3:0:0:0:
320,192,62289,1,8,3:0:0:0:
64,192,62414,1,0,3:1:0:0:
448,192,62538,1,8,3:0:0:0:
192,192,62538,1,8,3:0:0:0:
320,192,62663,1,0,3:1:0:0:
448,192,62788,1,8,3:0:0:0:
64,192,62788,1,8,3:0:0:0:
192,192,62913,1,0,3:1:0:0:
448,192,63038,1,8,3:0:0:0:
320,192,63038,1,8,3:0:0:0:
64,192,63163,1,0,3:1:0:0:
448,192,63288,1,8,3:0:0:0:
192,192,63288,1,8,3:0:0:0:
320,192,63413,1,0,3:1:0:0:
64,192,63538,1,8,3:0:0:0:
64,192,63662,1,0,3:1:0:0:
64,192,63787,1,8,3:0:0:0:
192,192,63787,1,8,3:0:0:0:
64,192,63912,1,8,3:0:0:0:
192,192,63912,1,0,3:1:0:0:
320,192,63912,1,8,3:0:0:0:
64,192,64037,1,8,3:0:0:0:
192,192,64037,1,8,3:0:0:0:
448,192,64037,1,8,3:0:0:0:
320,192,64286,1,8,3:0:0:0:
192,192,65035,1,8,3:0:0:0:
448,192,65035,1,8,3:0:0:0:
64,192,65035,1,8,3:0:0:0:
320,192,65285,1,8,3:0:0:0:
64,192,65535,1,8,3:0:0:0:
192,192,65722,1,8,3:0:0:0:
448,192,65722,1,8,3:0:0:0:
64,192,65784,1,8,3:0:0:0:
320,192,65784,1,8,3:0:0:0:
64,192,65909,1,8,3:0:0:0:
192,192,65909,1,8,3:0:0:0:
448,192,65909,1,8,3:0:0:0:
192,192,66034,1,8,3:0:0:0:
320,192,66034,1,8,3:0:0:0:
448,192,66034,1,8,3:0:0:0:
64,192,66284,1,8,3:0:0:0:
448,192,66533,1,8,3:0:0:0:
64,192,66533,1,8,3:0:0:0:
192,192,66533,1,8,3:0:0:0:
320,192,66783,1,8,3:0:0:0:
192,192,67033,1,8,3:0:0:0:
320,192,67532,1,8,3:0:0:0:
64,192,67532,1,8,3:0:0:0:
448,192,67532,1,8,3:0:0:0:
448,192,67782,1,8,3:0:0:0:
192,192,67782,1,8,3:0:0:0:
64,192,67782,1,8,3:0:0:0:
320,192,67907,1,8,3:0:0:0:
448,192,67907,1,8,3:0:0:0:
64,192,67907,1,8,3:0:0:0:
64,192,68032,1,8,3:0:0:0:
320,192,68032,1,8,3:0:0:0:
192,192,68032,1,8,3:0:0:0:
448,192,68281,1,8,3:0:0:0:
320,192,68531,1,8,3:0:0:0:
320,192,69030,1,8,3:0:0:0:
192,192,69030,1,8,3:0:0:0:
64,192,69030,1,8,3:0:0:0:
448,192,69280,1,8,3:0:0:0:
192,192,69530,1,8,3:0:0:0:
64,192,69530,1,8,3:0:0:0:
448,192,69530,1,8,3:0:0:0:
320,192,69779,1,8,3:0:0:0:
64,192,70029,1,8,3:0:0:0:
320,192,70029,1,8,3:0:0:0:
448,192,70029,1,8,3:0:0:0:
64,192,70279,1,8,3:0:0:0:
192,192,70279,1,8,3:0:0:0:
448,192,70279,1,8,3:0:0:0:
320,192,70528,1,8,3:0:0:0:
320,192,70778,1,8,3:0:0:0:
320,192,71028,1,8,3:0:0:0:
64,192,71402,1,8,3:0:0:0:
192,192,71527,1,8,3:0:0:0:
64,192,71527,1,8,3:0:0:0:
320,192,71652,1,8,3:0:0:0:
192,192,71652,1,8,3:0:0:0:
448,192,71777,1,8,3:0:0:0:
320,192,71777,1,8,3:0:0:0:
64,192,71777,1,8,3:0:0:0:
64,192,72027,1,8,3:0:0:0:
448,192,72027,1,8,3:0:0:0:
192,192,72027,1,8,3:0:0:0:
320,192,72277,1,8,3:0:0:0:
64,192,72277,1,8,3:0:0:0:
448,192,72527,1,8,3:0:0:0:
192,192,72527,1,8,3:0:0:0:
64,192,72777,1,8,3:0:0:0:
320,192,72777,1,8,3:0:0:0:
448,192,73027,1,8,3:0:0:0:
320,192,73027,1,8,3:0:0:0:
192,192,73027,1,8,3:0:0:0:
192,192,73277,1,8,3:0:0:0:
64,192,73277,1,8,3:0:0:0:
448,192,73527,1,8,3:0:0:0:
320,192,73527,1,8,3:0:0:0:
192,192,73714,1,8,3:0:0:0:
64,192,73714,1,8,3:0:0:0:
320,192,73777,1,8,3:0:0:0:
448,192,73777,1,8,3:0:0:0:
64,192,73902,1,8,3:0:0:0:
192,192,73902,1,8,3:0:0:0:
448,192,74027,1,8,3:0:0:0:
192,192,74027,1,8,3:0:0:0:
320,192,74027,1,8,3:0:0:0:
64,192,74277,1,8,3:0:0:0:
320,192,74277,1,8,3:0:0:0:
192,192,74527,1,8,3:0:0:0:
448,192,74527,1,8,3:0:0:0:
64,192,74527,1,8,3:0:0:0:
320,192,74777,1,8,3:0:0:0:
448,192,74777,1,8,3:0:0:0:
64,192,75027,1,8,3:0:0:0:
320,192,75027,1,8,3:0:0:0:
192,192,75277,1,8,3:0:0:0:
64,192,75277,1,8,3:0:0:0:
448,192,75527,1,8,3:0:0:0:
320,192,75527,1,8,3:0:0:0:
192,192,75527,1,8,3:0:0:0:
64,192,75777,1,8,3:0:0:0:
320,192,75777,1,8,3:0:0:0:
448,192,75777,1,8,3:0:0:0:
192,192,75902,1,8,3:0:0:0:
448,192,75902,1,8,3:0:0:0:
64,192,75902,1,8,3:0:0:0:
192,192,76027,1,8,3:0:0:0:
320,192,76027,1,8,3:0:0:0:
448,192,76027,1,8,3:0:0:0:
448,192,76277,1,8,3:0:0:0:
192,192,76277,1,8,3:0:0:0:
64,192,76527,1,8,3:0:0:0:
320,192,76527,1,8,3:0:0:0:
320,192,76777,1,8,3:0:0:0:
448,192,76777,1,8,3:0:0:0:
192,192,77027,1,8,3:0:0:0:
64,192,77027,1,8,3:0:0:0:
448,192,77027,1,8,3:0:0:0:
192,192,77277,1,8,3:0:0:0:
320,192,77277,1,8,3:0:0:0:
448,192,77527,1,8,3:0:0:0:
64,192,77527,1,8,3:0:0:0:
320,192,77527,1,8,3:0:0:0:
448,192,77777,1,8,3:0:0:0:
192,192,77777,1,8,3:0:0:0:
320,192,78027,1,8,3:0:0:0:
64,192,78027,1,8,3:0:0:0:
192,192,78027,1,8,3:0:0:0:
448,192,78277,1,8,3:0:0:0:
320,192,78527,1,8,3:0:0:0:
192,192,78777,1,8,3:0:0:0:
448,192,80027,1,4,3:0:0:0:
64,192,80027,1,4,3:0:0:0:
320,192,80152,1,4,3:0:0:0:
192,192,80278,1,4,3:0:0:0:
320,192,80403,1,4,3:0:0:0:
64,192,80529,1,4,3:0:0:0:
192,192,80529,1,4,3:0:0:0:
448,192,80654,1,4,3:0:0:0:
192,192,80780,1,4,3:0:0:0:
320,192,80905,1,4,3:0:0:0:
64,192,81031,1,4,3:0:0:0:
448,192,81156,1,4,3:0:0:0:
192,192,81282,128,4,81533:0:0:0:0:
64,192,81407,1,4,3:0:0:0:
320,192,81533,1,4,3:0:0:0:
448,192,81533,1,4,3:0:0:0:
64,192,81658,1,4,3:0:0:0:
448,192,81784,1,4,3:0:0:0:
192,192,81909,1,4,3:0:0:0:
320,192,82035,1,4,3:0:0:0:
192,192,82160,1,4,3:0:0:0:
448,192,82286,128,4,82537:0:0:0:0:
64,192,82411,1,4,3:0:0:0:
320,192,82537,1,4,3:0:0:0:
192,192,82537,1,4,3:0:0:0:
64,192,82662,1,4,3:0:0:0:
448,192,82788,1,4,3:0:0:0:
192,192,82914,1,4,3:0:0:0:
320,192,83039,1,4,3:0:0:0:
448,192,83165,1,4,3:0:0:0:
64,192,83290,128,4,83541:0:0:0:0:
192,192,83416,1,4,3:0:0:0:
320,192,83541,1,4,3:0:0:0:
448,192,83541,1,4,3:0:0:0:
192,192,83667,1,4,3:0:0:0:
448,192,83792,1,4,3:0:0:0:
320,192,83918,1,4,3:0:0:0:
64,192,84043,1,4,3:0:0:0:
192,192,84043,1,4,3:0:0:0:
320,192,84169,1,4,3:0:0:0:
448,192,84294,1,4,3:0:0:0:
192,192,84420,1,4,3:0:0:0:
64,192,84545,1,4,3:0:0:0:
320,192,84545,1,4,3:0:0:0:
448,192,84671,1,4,3:0:0:0:
192,192,84796,1,4,3:0:0:0:
320,192,84922,1,4,3:0:0:0:
192,192,85047,1,4,3:0:0:0:
64,192,85173,1,4,3:0:0:0:
448,192,85298,128,4,85550:0:0:0:0:
320,192,85424,1,4,3:0:0:0:
192,192,85550,1,4,3:0:0:0:
64,192,85550,1,4,3:0:0:0:
320,192,85675,1,4,3:0:0:0:
448,192,85801,1,4,3:0:0:0:
192,192,85926,1,4,3:0:0:0:
64,192,86052,1,4,3:0:0:0:
320,192,86177,1,4,3:0:0:0:
192,192,86303,128,4,86554:0:0:0:0:
448,192,86428,1,4,3:0:0:0:
64,192,86554,1,4,3:0:0:0:
320,192,86554,1,4,3:0:0:0:
448,192,86679,1,4,3:0:0:0:
320,192,86805,1,4,3:0:0:0:
192,192,86805,1,4,3:0:0:0:
64,192,86930,1,4,3:0:0:0:
192,192,87056,1,4,3:0:0:0:
448,192,87181,1,4,3:0:0:0:
320,192,87307,128,4,87558:0:0:0:0:
192,192,87432,1,4,3:0:0:0:
64,192,87558,1,0,0:0:0:0:
448,192,87558,1,0,0:0:0:0:
320,192,87809,1,0,0:0:0:0:
192,192,87809,1,0,0:0:0:0:
448,192,87934,1,4,3:0:0:0:
64,192,88060,128,0,90319:0:0:0:0:
192,192,88060,1,0,0:0:0:0:
320,192,88311,1,4,3:0:0:0:
448,192,88562,1,0,0:0:0:0:
192,192,88562,1,0,0:0:0:0:
320,192,88813,1,4,3:0:0:0:
192,192,88939,1,4,3:0:0:0:
448,192,89064,1,4,3:0:0:0:
320,192,89190,1,4,3:0:0:0:
448,192,89315,128,4,89566:0:0:0:0:
192,192,89566,1,0,0:0:0:0:
320,192,89817,1,4,3:0:0:0:
448,192,89943,1,4,3:0:0:0:
192,192,90068,1,4,3:0:0:0:
320,192,90194,1,4,3:0:0:0:
192,192,90319,128,4,90570:0:0:0:0:
448,192,90319,128,0,91073:0:0:0:0:
320,192,90570,1,4,3:0:0:0:
64,192,90821,1,4,3:0:0:0:
320,192,90947,1,4,3:0:0:0:
192,192,91073,128,0,92328:0:0:0:0:
64,192,91198,1,4,3:0:0:0:
320,192,91324,128,4,91575:0:0:0:0:
448,192,91575,1,4,3:0:0:0:
64,192,91826,1,4,3:0:0:0:
320,192,91951,1,4,3:0:0:0:
64,192,92077,1,4,3:0:0:0:
448,192,92328,128,0,94085:0:0:0:0:
192,192,93081,5,8,3:0:0:0:
320,192,93081,1,8,3:0:0:0:
64,192,93332,1,0,0:0:0:0:
64,192,94085,1,8,3:0:0:0:
192,192,94085,1,8,3:0:0:0:
320,192,94085,1,8,3:0:0:0:
192,192,94336,1,8,3:0:0:0:
64,192,94336,1,8,3:0:0:0:
448,192,94336,1,8,3:0:0:0:
320,192,94587,1,8,3:0:0:0:
448,192,94587,1,8,3:0:0:0:
64,192,94587,1,8,3:0:0:0:
64,192,94838,1,8,3:0:0:0:
448,192,94838,1,8,3:0:0:0:
192,192,94838,1,8,3:0:0:0:
192,192,94964,5,8,3:0:0:0:
64,192,94964,1,8,3:0:0:0:
320,192,94964,1,8,3:0:0:0:
320,192,95089,1,8,3:0:0:0:
448,192,95089,1,8,3:0:0:0:
64,192,95089,1,8,3:0:0:0:
192,192,95340,1,8,3:0:0:0:
64,192,95340,1,8,3:0:0:0:
448,192,95340,1,8,3:0:0:0:
320,192,95591,1,8,3:0:0:0:
448,192,95591,1,8,3:0:0:0:
64,192,95591,1,8,3:0:0:0:
64,192,95717,1,8,3:0:0:0:
192,192,95717,1,8,3:0:0:0:
448,192,95717,1,8,3:0:0:0:
320,192,95842,1,8,3:0:0:0:
448,192,95842,1,8,3:0:0:0:
192,192,95842,1,8,3:0:0:0:
64,192,96061,5,8,3:0:0:0:
320,192,96061,1,8,3:0:0:0:
64,192,96186,1,0,0:0:0:0:
448,192,96186,1,0,0:0:0:0:
192,192,96311,1,0,0:0:0:0:
320,192,96311,1,0,0:0:0:0:
192,192,96436,1,0,0:0:0:0:
448,192,96436,1,0,0:0:0:0:
320,192,96561,1,0,0:0:0:0:
64,192,96561,1,0,0:0:0:0:
448,192,96686,1,0,0:0:0:0:
320,192,96686,1,0,0:0:0:0:
192,192,96811,1,0,0:0:0:0:
64,192,96811,1,0,0:0:0:0:
448,192,96936,1,0,0:0:0:0:
320,192,96936,1,0,0:0:0:0:
192,192,96998,1,0,0:0:0:0:
64,192,96998,1,0,0:0:0:0:
320,192,97061,1,0,0:0:0:0:
448,192,97061,1,0,0:0:0:0:
64,192,97186,1,0,0:0:0:0:
192,192,97186,1,0,0:0:0:0:
320,192,97311,1,0,0:0:0:0:
448,192,97311,1,0,0:0:0:0:
192,192,97436,1,0,0:0:0:0:
448,192,97436,1,0,0:0:0:0:
320,192,97561,1,0,0:0:0:0:
64,192,97561,1,0,0:0:0:0:
64,192,97686,1,0,0:0:0:0:
192,192,97686,1,0,0:0:0:0:
320,192,97811,1,0,0:0:0:0:
448,192,97811,1,0,0:0:0:0:
320,192,97936,1,0,0:0:0:0:
64,192,97936,1,0,0:0:0:0:
192,192,98061,1,8,3:0:0:0:
448,192,98061,1,8,3:0:0:0:
64,192,98186,1,0,0:0:0:0:
192,192,98186,1,0,0:0:0:0:
448,192,98311,1,0,0:0:0:0:
320,192,98311,1,0,0:0:0:0:
448,192,98436,1,0,0:0:0:0:
64,192,98436,1,0,0:0:0:0:
320,192,98561,1,0,0:0:0:0:
192,192,98561,1,0,0:0:0:0:
64,192,98686,1,0,0:0:0:0:
320,192,98686,1,0,0:0:0:0:
192,192,98811,1,0,0:0:0:0:
448,192,98811,1,0,0:0:0:0:
64,192,98936,1,0,0:0:0:0:
192,192,98936,1,0,0:0:0:0:
320,192,99061,1,8,3:0:0:0:
64,192,99061,1,8,3:0:0:0:
448,192,99061,1,8,3:0:0:0:
192,192,99186,1,0,0:0:0:0:
320,192,99186,1,0,0:0:0:0:
448,192,99311,1,0,0:0:0:0:
64,192,99311,1,0,0:0:0:0:
192,192,99436,1,0,0:0:0:0:
448,192,99436,1,0,0:0:0:0:
64,192,99561,1,8,3:0:0:0:
320,192,99561,1,8,3:0:0:0:
192,192,99561,1,8,3:0:0:0:
320,192,99686,1,0,0:0:0:0:
448,192,99686,1,0,0:0:0:0:
192,192,99811,1,0,0:0:0:0:
64,192,99811,1,0,0:0:0:0:
448,192,99936,1,0,0:0:0:0:
64,192,99936,1,0,0:0:0:0:
320,192,100061,1,8,3:0:0:0:
192,192,100061,1,8,3:0:0:0:
320,192,100186,1,0,0:0:0:0:
64,192,100186,1,0,0:0:0:0:
192,192,100311,1,0,0:0:0:0:
448,192,100311,1,0,0:0:0:0:
64,192,100436,1,0,0:0:0:0:
448,192,100436,1,0,0:0:0:0:
192,192,100561,1,0,0:0:0:0:
320,192,100561,1,0,0:0:0:0:
320,192,100686,1,0,0:0:0:0:
448,192,100686,1,0,0:0:0:0:
64,192,100811,1,0,0:0:0:0:
192,192,100811,1,0,0:0:0:0:
192,192,100936,1,0,0:0:0:0:
448,192,100936,1,0,0:0:0:0:
320,192,101061,1,0,0:0:0:0:
64,192,101061,1,0,0:0:0:0:
320,192,101186,1,0,0:0:0:0:
448,192,101186,1,0,0:0:0:0:
64,192,101311,1,0,0:0:0:0:
192,192,101311,1,0,0:0:0:0:
192,192,101436,1,0,0:0:0:0:
320,192,101436,1,0,0:0:0:0:
64,192,101561,1,0,0:0:0:0:
448,192,101561,1,0,0:0:0:0:
192,192,101686,1,0,0:0:0:0:
448,192,101686,1,0,0:0:0:0:
64,192,101811,1,0,0:0:0:0:
320,192,101811,1,0,0:0:0:0:
448,192,101936,1,0,0:0:0:0:
64,192,101936,1,0,0:0:0:0:
320,192,102061,1,8,3:0:0:0:
192,192,102061,1,8,3:0:0:0:
448,192,102186,1,0,0:0:0:0:
192,192,102186,1,0,0:0:0:0:
320,192,102311,1,8,3:0:0:0:
64,192,102311,1,8,3:0:0:0:
64,192,102436,1,0,0:0:0:0:
192,192,102436,1,0,0:0:0:0:
320,192,102561,1,0,0:0:0:0:
448,192,102561,1,0,0:0:0:0:
192,192,102686,1,0,0:0:0:0:
448,192,102686,1,0,0:0:0:0:
64,192,102811,1,8,3:0:0:0:
320,192,102811,1,8,3:0:0:0:
320,192,102936,1,0,0:0:0:0:
192,192,102936,1,0,0:0:0:0:
448,192,103061,1,0,0:0:0:0:
64,192,103061,1,0,0:0:0:0:
64,192,103186,1,0,0:0:0:0:
192,192,103186,1,0,0:0:0:0:
448,192,103311,1,8,3:0:0:0:
320,192,103311,1,8,3:0:0:0:
64,192,103436,1,0,0:0:0:0:
320,192,103436,1,0,0:0:0:0:
192,192,103561,1,8,3:0:0:0:
448,192,103561,1,8,3:0:0:0:
64,192,103686,1,0,0:0:0:0:
192,192,103686,1,0,0:0:0:0:
448,192,103811,1,8,3:0:0:0:
320,192,103811,1,8,3:0:0:0:
192,192,103936,1,0,0:0:0:0:
320,192,103936,1,0,0:0:0:0:
64,192,104061,1,8,3:0:0:0:
448,192,104061,1,8,3:0:0:0:
64,192,104186,1,0,0:0:0:0:
320,192,104186,1,0,0:0:0:0:
192,192,104311,1,8,3:0:0:0:
448,192,104311,1,0,0:0:0:0:
320,192,104437,1,0,0:0:0:0:
448,192,104437,1,0,0:0:0:0:
64,192,104562,1,0,0:0:0:0:
192,192,104562,1,8,3:0:0:0:
192,192,104688,1,0,0:0:0:0:
448,192,104688,1,0,0:0:0:0:
320,192,104813,1,8,3:0:0:0:
64,192,104813,1,0,0:0:0:0:
192,192,104938,1,0,0:0:0:0:
320,192,104938,1,0,0:0:0:0:
448,192,105064,1,0,0:0:0:0:
64,192,105064,1,8,3:0:0:0:
320,192,105189,1,0,0:0:0:0:
64,192,105189,1,0,0:0:0:0:
192,192,105315,1,0,0:0:0:0:
448,192,105315,1,0,0:0:0:0:
192,192,105440,1,0,0:0:0:0:
64,192,105440,1,0,0:0:0:0:
320,192,105566,1,0,0:0:0:0:
448,192,105566,1,0,0:0:0:0:
192,192,105691,1,0,0:0:0:0:
320,192,105691,1,0,0:0:0:0:
64,192,105816,1,0,0:0:0:0:
448,192,105816,1,0,0:0:0:0:
320,192,105942,1,0,0:0:0:0:
448,192,105942,1,0,0:0:0:0:
192,192,106067,1,8,3:0:0:0:
64,192,106067,1,8,3:0:0:0:
320,192,106193,1,0,0:0:0:0:
192,192,106193,1,0,0:0:0:0:
448,192,106318,1,0,0:0:0:0:
64,192,106318,1,0,0:0:0:0:
448,192,106443,1,0,0:0:0:0:
320,192,106443,1,0,0:0:0:0:
64,192,106569,1,0,0:0:0:0:
192,192,106569,1,0,0:0:0:0:
448,192,106694,1,0,0:0:0:0:
192,192,106694,1,0,0:0:0:0:
320,192,106820,1,0,0:0:0:0:
64,192,106820,1,0,0:0:0:0:
448,192,106945,1,0,0:0:0:0:
320,192,106945,1,0,0:0:0:0:
64,192,107071,1,8,3:0:0:0:
192,192,107071,1,8,3:0:0:0:
448,192,107071,1,8,3:0:0:0:
64,192,107196,1,0,0:0:0:0:
320,192,107196,1,0,0:0:0:0:
448,192,107321,1,0,0:0:0:0:
192,192,107321,1,0,0:0:0:0:
192,192,107447,1,0,0:0:0:0:
64,192,107447,1,0,0:0:0:0:
448,192,107572,1,8,3:0:0:0:
320,192,107572,1,8,3:0:0:0:
64,192,107572,1,8,3:0:0:0:
192,192,107698,1,0,0:0:0:0:
320,192,107698,1,0,0:0:0:0:
64,192,107823,1,0,0:0:0:0:
448,192,107823,1,0,0:0:0:0:
192,192,107948,1,0,0:0:0:0:
64,192,107948,1,0,0:0:0:0:
448,192,108074,1,8,3:0:0:0:
320,192,108074,1,8,3:0:0:0:
448,192,108199,1,0,0:0:0:0:
192,192,108199,1,0,0:0:0:0:
320,192,108325,1,8,3:0:0:0:
64,192,108325,1,8,3:0:0:0:
64,192,108450,1,0,0:0:0:0:
192,192,108450,1,0,0:0:0:0:
320,192,108576,1,0,0:0:0:0:
448,192,108576,1,0,0:0:0:0:
192,192,108701,1,0,0:0:0:0:
320,192,108701,1,0,0:0:0:0:
448,192,108826,1,0,0:0:0:0:
64,192,108826,1,0,0:0:0:0:
64,192,108952,1,0,0:0:0:0:
192,192,108952,1,0,0:0:0:0:
448,192,109077,1,0,0:0:0:0:
320,192,109077,1,0,0:0:0:0:
192,192,109203,1,0,0:0:0:0:
320,192,109203,1,0,0:0:0:0:
448,192,109328,1,0,0:0:0:0:
64,192,109328,1,0,0:0:0:0:
64,192,109453,1,0,0:0:0:0:
192,192,109453,1,0,0:0:0:0:
320,192,109579,1,0,0:0:0:0:
448,192,109579,1,0,0:0:0:0:
320,192,109704,1,0,0:0:0:0:
192,192,109704,1,0,0:0:0:0:
448,192,109830,1,0,0:0:0:0:
64,192,109830,1,0,0:0:0:0:
320,192,109955,1,0,0:0:0:0:
448,192,109955,1,0,0:0:0:0:
192,192,110081,1,0,0:0:0:0:
64,192,110081,1,8,3:0:0:0:
448,192,110206,1,0,0:0:0:0:
192,192,110206,1,0,0:0:0:0:
320,192,110331,1,0,0:0:0:0:
64,192,110331,1,8,3:0:0:0:
320,192,110457,1,0,0:0:0:0:
192,192,110457,1,0,0:0:0:0:
64,192,110582,1,0,0:0:0:0:
448,192,110582,1,8,3:0:0:0:
448,192,110708,1,0,0:0:0:0:
320,192,110708,1,0,0:0:0:0:
192,192,110833,1,0,0:0:0:0:
64,192,110833,1,8,3:0:0:0:
320,192,110958,1,0,0:0:0:0:
192,192,110958,1,0,0:0:0:0:
64,192,111084,1,8,3:0:0:0:
320,192,111084,1,8,3:0:0:0:
448,192,111084,1,8,3:0:0:0:
448,192,111209,1,0,0:0:0:0:
192,192,111209,1,0,0:0:0:0:
64,192,111335,1,0,0:0:0:0:
320,192,111335,1,8,3:0:0:0:
64,192,111460,1,0,0:0:0:0:
192,192,111460,1,0,0:0:0:0:
448,192,111586,1,0,0:0:0:0:
320,192,111586,1,8,3:0:0:0:
192,192,111648,1,0,0:0:0:0:
64,192,111711,1,0,0:0:0:0:
448,192,111868,1,0,0:0:0:0:
320,192,111962,1,0,0:0:0:0:
192,192,112025,1,0,0:0:0:0:
320,192,112087,1,0,0:0:0:0:
448,192,112087,1,8,3:0:0:0:
64,192,112087,1,0,0:0:0:0:
64,192,112211,1,0,0:0:0:0:
320,192,112211,1,0,0:0:0:0:
320,192,112336,1,0,0:0:0:0:
192,192,112336,1,0,0:0:0:0:
192,192,112461,1,0,0:0:0:0:
320,192,112461,1,0,0:0:0:0:
448,192,112586,1,0,0:0:0:0:
192,192,112586,1,0,0:0:0:0:
448,192,112711,1,0,0:0:0:0:
192,192,112711,1,0,0:0:0:0:
448,192,112836,1,0,0:0:0:0:
320,192,112836,1,0,0:0:0:0:
448,192,112961,1,0,0:0:0:0:
320,192,112961,1,0,0:0:0:0:
64,192,113086,1,0,0:0:0:0:
320,192,113086,1,0,0:0:0:0:
320,192,113211,1,0,0:0:0:0:
64,192,113211,1,0,0:0:0:0:
192,192,113335,1,0,0:0:0:0:
64,192,113335,1,0,0:0:0:0:
192,192,113460,1,0,0:0:0:0:
64,192,113460,1,0,0:0:0:0:
448,192,113585,1,0,0:0:0:0:
192,192,113585,1,0,0:0:0:0:
448,192,113710,1,0,0:0:0:0:
192,192,113710,1,0,0:0:0:0:
320,192,113835,1,0,0:0:0:0:
448,192,113835,1,0,0:0:0:0:
448,192,113960,1,0,0:0:0:0:
320,192,113960,1,0,0:0:0:0:
64,192,114085,1,8,3:0:0:0:
320,192,114085,1,8,3:0:0:0:
320,192,114210,1,0,0:0:0:0:
64,192,114210,1,0,0:0:0:0:
64,192,114335,1,0,0:0:0:0:
192,192,114335,1,0,0:0:0:0:
64,192,114460,1,0,0:0:0:0:
192,192,114460,1,0,0:0:0:0:
192,192,114584,1,0,0:0:0:0:
448,192,114584,1,0,0:0:0:0:
448,192,114709,1,0,0:0:0:0:
192,192,114709,1,0,0:0:0:0:
320,192,114834,1,0,0:0:0:0:
448,192,114834,1,0,0:0:0:0:
64,192,114959,1,0,0:0:0:0:
192,192,114959,1,8,3:0:0:0:
448,192,115022,1,8,3:0:0:0:
320,192,115022,1,8,3:0:0:0:
192,192,115084,1,8,3:0:0:0:
64,192,115084,1,8,3:0:0:0:
448,192,115209,1,8,3:0:0:0:
64,192,115209,1,8,3:0:0:0:
320,192,115271,1,8,3:0:0:0:
192,192,115271,1,8,3:0:0:0:
448,192,115334,1,8,3:0:0:0:
64,192,115334,1,8,3:0:0:0:
192,192,115459,1,0,0:0:0:0:
320,192,115459,1,0,0:0:0:0:
64,192,115584,1,0,0:0:0:0:
192,192,115584,1,8,3:0:0:0:
320,192,115646,1,8,3:0:0:0:
448,192,115646,1,8,3:0:0:0:
64,192,115708,1,8,3:0:0:0:
192,192,115708,1,8,3:0:0:0:
448,192,115833,1,8,3:0:0:0:
320,192,115833,1,8,3:0:0:0:
64,192,115896,1,8,3:0:0:0:
192,192,115896,1,8,3:0:0:0:
320,192,115958,1,8,3:0:0:0:
448,192,115958,1,8,3:0:0:0:
192,192,116021,1,8,3:0:0:0:
64,192,116021,1,8,3:0:0:0:
320,192,116083,1,8,3:0:0:0:
448,192,116083,1,0,0:0:0:0:
320,192,116208,1,0,0:0:0:0:
448,192,116208,1,0,0:0:0:0:
320,192,116333,1,0,0:0:0:0:
64,192,116333,1,0,0:0:0:0:
320,192,116458,1,0,0:0:0:0:
64,192,116458,1,0,0:0:0:0:
64,192,116583,1,0,0:0:0:0:
448,192,116583,1,0,0:0:0:0:
64,192,116708,1,0,0:0:0:0:
448,192,116708,1,0,0:0:0:0:
192,192,116833,1,0,0:0:0:0:
448,192,116833,1,0,0:0:0:0:
448,192,116957,1,0,0:0:0:0:
192,192,116957,1,0,0:0:0:0:
192,192,117082,1,0,0:0:0:0:
320,192,117082,1,0,0:0:0:0:
320,192,117207,1,0,0:0:0:0:
192,192,117207,1,0,0:0:0:0:
64,192,117332,1,0,0:0:0:0:
320,192,117332,1,0,0:0:0:0:
320,192,117457,1,0,0:0:0:0:
64,192,117457,1,0,0:0:0:0:
448,192,117582,1,0,0:0:0:0:
64,192,117582,1,0,0:0:0:0:
64,192,117707,1,0,0:0:0:0:
448,192,117707,1,0,0:0:0:0:
192,192,117832,1,0,0:0:0:0:
448,192,117832,1,0,0:0:0:0:
192,192,117957,1,0,0:0:0:0:
448,192,117957,1,0,0:0:0:0:
192,192,118082,1,8,3:0:0:0:
320,192,118082,1,0,0:0:0:0:
192,192,118206,1,0,0:0:0:0:
320,192,118206,1,0,0:0:0:0:
64,192,118331,1,0,0:0:0:0:
320,192,118331,1,8,3:0:0:0:
64,192,118456,1,0,0:0:0:0:
320,192,118456,1,0,0:0:0:0:
64,192,118581,1,0,0:0:0:0:
448,192,118581,1,0,0:0:0:0:
448,192,118706,1,0,0:0:0:0:
64,192,118706,1,0,0:0:0:0:
448,192,118831,1,8,3:0:0:0:
192,192,118831,1,0,0:0:0:0:
192,192,118956,1,0,0:0:0:0:
448,192,118956,1,0,0:0:0:0:
320,192,119081,1,0,0:0:0:0:
192,192,119081,1,0,0:0:0:0:
320,192,119206,1,0,0:0:0:0:
192,192,119206,1,0,0:0:0:0:
64,192,119330,1,8,3:0:0:0:
320,192,119330,1,0,0:0:0:0:
64,192,119455,1,0,0:0:0:0:
320,192,119455,1,0,0:0:0:0:
448,192,119580,1,0,0:0:0:0:
64,192,119580,1,8,3:0:0:0:
64,192,119705,1,0,0:0:0:0:
192,192,119830,1,8,3:0:0:0:
448,192,119955,1,0,0:0:0:0:
320,192,119955,1,0,0:0:0:0:
448,192,120080,1,0,0:0:0:0:
64,192,120080,1,8,3:0:0:0:
448,192,120205,1,0,0:0:0:0:
64,192,120205,1,0,0:0:0:0:
320,192,120330,1,0,0:0:0:0:
64,192,120330,1,8,3:0:0:0:
320,192,120456,1,0,0:0:0:0:
64,192,120456,1,0,0:0:0:0:
320,192,120581,1,8,3:0:0:0:
192,192,120581,1,0,0:0:0:0:
320,192,120706,1,0,0:0:0:0:
192,192,120706,1,0,0:0:0:0:
192,192,120832,1,0,0:0:0:0:
448,192,120832,1,8,3:0:0:0:
192,192,120957,1,0,0:0:0:0:
448,192,120957,1,0,0:0:0:0:
448,192,121082,1,8,3:0:0:0:
64,192,121082,1,0,0:0:0:0:
448,192,121208,1,0,0:0:0:0:
64,192,121208,1,0,0:0:0:0:
320,192,121333,1,0,0:0:0:0:
64,192,121333,1,0,0:0:0:0:
64,192,121459,1,0,0:0:0:0:
320,192,121459,1,0,0:0:0:0:
192,192,121584,1,0,0:0:0:0:
320,192,121584,1,0,0:0:0:0:
192,192,121709,1,0,0:0:0:0:
320,192,121709,1,0,0:0:0:0:
192,192,121835,1,0,0:0:0:0:
448,192,121835,1,0,0:0:0:0:
448,192,121960,1,0,0:0:0:0:
192,192,121960,1,0,0:0:0:0:
448,192,122085,1,0,0:0:0:0:
64,192,122085,1,8,3:0:0:0:
64,192,122211,1,0,0:0:0:0:
448,192,122211,1,0,0:0:0:0:
64,192,122336,1,0,0:0:0:0:
320,192,122336,1,0,0:0:0:0:
320,192,122461,1,0,0:0:0:0:
64,192,122461,1,0,0:0:0:0:
320,192,122587,1,0,0:0:0:0:
192,192,122587,1,0,0:0:0:0:
320,192,122712,1,0,0:0:0:0:
192,192,122712,1,0,0:0:0:0:
448,192,122838,1,0,0:0:0:0:
192,192,122838,1,0,0:0:0:0:
448,192,122963,1,0,0:0:0:0:
192,192,122963,1,0,0:0:0:0:
320,192,123088,1,8,3:0:0:0:
64,192,123088,1,8,3:0:0:0:
448,192,123088,1,8,3:0:0:0:
64,192,123214,1,0,0:0:0:0:
448,192,123214,1,0,0:0:0:0:
64,192,123339,1,0,0:0:0:0:
320,192,123339,1,0,0:0:0:0:
320,192,123464,1,0,0:0:0:0:
64,192,123464,1,0,0:0:0:0:
448,192,123590,1,8,3:0:0:0:
192,192,123590,1,8,3:0:0:0:
320,192,123590,1,8,3:0:0:0:
320,192,123715,1,0,0:0:0:0:
192,192,123715,1,0,0:0:0:0:
192,192,123840,1,0,0:0:0:0:
448,192,123840,1,0,0:0:0:0:
448,192,123966,1,0,0:0:0:0:
192,192,123966,1,0,0:0:0:0:
448,192,124091,1,8,3:0:0:0:
64,192,124091,1,8,3:0:0:0:
448,192,124217,1,0,0:0:0:0:
64,192,124217,1,0,0:0:0:0:
64,192,124342,1,8,3:0:0:0:
320,192,124342,1,8,3:0:0:0:
320,192,124467,1,0,0:0:0:0:
64,192,124467,1,0,0:0:0:0:
192,192,124593,1,0,0:0:0:0:
320,192,124593,1,0,0:0:0:0:
320,192,124718,1,0,0:0:0:0:
192,192,124718,1,0,0:0:0:0:
448,192,124843,1,0,0:0:0:0:
192,192,124843,1,0,0:0:0:0:
448,192,124969,1,0,0:0:0:0:
192,192,124969,1,0,0:0:0:0:
64,192,125094,1,0,0:0:0:0:
448,192,125094,1,0,0:0:0:0:
64,192,125219,1,0,0:0:0:0:
448,192,125219,1,0,0:0:0:0:
64,192,125345,1,0,0:0:0:0:
320,192,125345,1,0,0:0:0:0:
320,192,125470,1,0,0:0:0:0:
64,192,125470,1,0,0:0:0:0:
320,192,125596,1,0,0:0:0:0:
192,192,125596,1,0,0:0:0:0:
192,192,125721,1,0,0:0:0:0:
320,192,125721,1,0,0:0:0:0:
448,192,125846,1,0,0:0:0:0:
192,192,125846,1,0,0:0:0:0:
448,192,125972,1,0,0:0:0:0:
192,192,125972,1,0,0:0:0:0:
448,192,126097,1,0,0:0:0:0:
64,192,126097,1,8,3:0:0:0:
448,192,126222,1,0,0:0:0:0:
64,192,126222,1,0,0:0:0:0:
64,192,126348,1,8,3:0:0:0:
320,192,126348,1,0,0:0:0:0:
64,192,126473,1,0,0:0:0:0:
320,192,126473,1,0,0:0:0:0:
192,192,126599,1,0,0:0:0:0:
320,192,126599,1,8,3:0:0:0:
320,192,126724,1,0,0:0:0:0:
192,192,126724,1,0,0:0:0:0:
448,192,126849,1,8,3:0:0:0:
192,192,126849,1,0,0:0:0:0:
448,192,126975,1,0,0:0:0:0:
192,192,126975,1,0,0:0:0:0:
64,192,127100,1,8,3:0:0:0:
320,192,127100,1,8,3:0:0:0:
448,192,127100,1,8,3:0:0:0:
192,192,127225,1,0,0:0:0:0:
320,192,127351,1,0,0:0:0:0:
64,192,127351,1,8,3:0:0:0:
192,192,127476,1,0,0:0:0:0:
448,192,127601,1,8,3:0:0:0:
320,192,127601,1,0,0:0:0:0:
64,192,127727,1,0,0:0:0:0:
192,192,127852,1,0,0:0:0:0:
448,192,128103,5,4,0:0:0:0:
64,192,128103,128,0,128915:0:0:0:0:
192,192,128103,1,4,0:0:0:0:
320,192,128915,1,0,0:0:0:0:
192,192,129103,128,0,131103:0:0:0:0:
320,192,130103,1,0,0:0:0:0:
64,192,130103,1,0,0:0:0:0:
320,192,130353,1,0,0:0:0:0:
64,192,130603,1,0,0:0:0:0:
320,192,130853,1,0,0:0:0:0:
64,192,131103,1,0,0:0:0:0:
448,192,131103,128,0,132103:0:0:0:0:
320,192,132103,1,0,0:0:0:0:
192,192,132103,128,0,135103:0:0:0:0:
448,192,133103,1,0,0:0:0:0:
64,192,133103,1,0,0:0:0:0:
64,192,134103,1,0,0:0:0:0:
320,192,134103,1,0,0:0:0:0:
448,192,135103,128,0,136103:0:0:0:0:
64,192,135103,1,0,0:0:0:0:
320,192,136103,1,0,0:0:0:0:
192,192,136103,128,0,139103:0:0:0:0:
448,192,137103,1,0,0:0:0:0:
64,192,137103,1,0,0:0:0:0:
448,192,138103,1,0,0:0:0:0:
320,192,138103,1,0,0:0:0:0:
448,192,139103,128,0,140103:0:0:0:0:
64,192,139103,1,0,0:0:0:0:
192,192,140103,128,0,143100:0:0:0:0:
320,192,140103,1,0,0:0:0:0:
64,192,141102,1,0,0:0:0:0:
320,192,141102,1,0,0:0:0:0:
320,192,142101,1,0,0:0:0:0:
448,192,142101,1,0,0:0:0:0:
448,192,143100,128,0,144099:0:0:0:0:
64,192,143100,1,0,0:0:0:0:
320,192,144099,1,0,0:0:0:0:
192,192,144099,128,0,147097:0:0:0:0:
64,192,145098,1,0,0:0:0:0:
448,192,145098,1,0,0:0:0:0:
320,192,146098,1,0,0:0:0:0:
448,192,146098,1,0,0:0:0:0:
64,192,147097,1,0,0:0:0:0:
448,192,147097,128,0,148096:0:0:0:0:
320,192,148096,1,0,0:0:0:0:
192,192,148096,128,0,151093:0:0:0:0:
64,192,148096,1,0,0:0:0:0:
64,192,149095,1,0,0:0:0:0:
320,192,149095,1,0,0:0:0:0:
448,192,150094,1,0,0:0:0:0:
320,192,150094,1,0,0:0:0:0:
448,192,151093,128,0,152093:0:0:0:0:
64,192,151093,1,0,0:0:0:0:
192,192,152093,1,0,0:0:0:0:
320,192,152093,1,0,0:0:0:0:
448,192,154840,1,0,0:0:0:0:
192,192,154840,1,0,0:0:0:0:
64,192,154840,1,0,0:0:0:0:
192,192,158281,1,0,0:0:0:0:
448,192,158281,1,8,3:0:0:0:
64,192,158406,1,0,0:0:0:0:
448,192,158406,1,0,0:0:0:0:
192,192,158531,1,0,0:0:0:0:
320,192,158531,1,0,0:0:0:0:
448,192,158656,1,0,0:0:0:0:
192,192,158656,1,0,0:0:0:0:
64,192,158781,1,0,0:0:0:0:
320,192,158781,1,0,0:0:0:0:
64,192,158906,1,0,0:0:0:0:
192,192,158906,1,0,0:0:0:0:
320,192,159031,1,0,0:0:0:0:
448,192,159031,1,0,0:0:0:0:
64,192,159156,1,0,0:0:0:0:
192,192,159156,1,0,0:0:0:0:
320,192,159219,1,0,0:0:0:0:
448,192,159219,1,0,0:0:0:0:
192,192,159281,1,0,0:0:0:0:
64,192,159281,1,0,0:0:0:0:
320,192,159406,1,0,0:0:0:0:
448,192,159406,1,0,0:0:0:0:
192,192,159532,1,0,0:0:0:0:
64,192,159532,1,0,0:0:0:0:
448,192,159657,1,0,0:0:0:0:
64,192,159657,1,0,0:0:0:0:
320,192,159782,1,0,0:0:0:0:
192,192,159782,1,0,0:0:0:0:
320,192,159907,1,0,0:0:0:0:
64,192,159907,1,0,0:0:0:0:
448,192,160032,1,0,0:0:0:0:
192,192,160032,1,0,0:0:0:0:
320,192,160157,1,0,0:0:0:0:
192,192,160157,1,0,0:0:0:0:
448,192,160282,1,0,0:0:0:0:
64,192,160282,1,8,3:0:0:0:
448,192,160407,1,0,0:0:0:0:
320,192,160407,1,0,0:0:0:0:
64,192,160532,1,0,0:0:0:0:
192,192,160532,1,0,0:0:0:0:
192,192,160657,1,0,0:0:0:0:
448,192,160657,1,0,0:0:0:0:
64,192,160783,1,0,0:0:0:0:
320,192,160783,1,0,0:0:0:0:
448,192,160908,1,0,0:0:0:0:
320,192,160908,1,0,0:0:0:0:
192,192,161033,1,0,0:0:0:0:
64,192,161033,1,0,0:0:0:0:
320,192,161158,1,0,0:0:0:0:
64,192,161158,1,0,0:0:0:0:
192,192,161283,1,8,3:0:0:0:
320,192,161283,1,8,3:0:0:0:
448,192,161283,1,8,3:0:0:0:
448,192,161408,1,0,0:0:0:0:
64,192,161408,1,0,0:0:0:0:
320,192,161533,1,0,0:0:0:0:
192,192,161533,1,0,0:0:0:0:
64,192,161658,1,0,0:0:0:0:
192,192,161658,1,0,0:0:0:0:
64,192,161783,1,8,3:0:0:0:
320,192,161783,1,8,3:0:0:0:
448,192,161783,1,8,3:0:0:0:
320,192,161909,1,0,0:0:0:0:
192,192,161909,1,0,0:0:0:0:
448,192,162034,1,0,0:0:0:0:
64,192,162034,1,0,0:0:0:0:
192,192,162159,1,0,0:0:0:0:
448,192,162159,1,0,0:0:0:0:
320,192,162284,1,8,3:0:0:0:
64,192,162284,1,8,3:0:0:0:
64,192,162409,1,0,0:0:0:0:
448,192,162409,1,0,0:0:0:0:
192,192,162534,1,0,0:0:0:0:
320,192,162534,1,0,0:0:0:0:
64,192,162659,1,0,0:0:0:0:
192,192,162659,1,0,0:0:0:0:
448,192,162784,1,0,0:0:0:0:
320,192,162784,1,0,0:0:0:0:
320,192,162909,1,0,0:0:0:0:
64,192,162909,1,0,0:0:0:0:
448,192,163034,1,0,0:0:0:0:
192,192,163034,1,0,0:0:0:0:
448,192,163160,1,0,0:0:0:0:
64,192,163160,1,0,0:0:0:0:
192,192,163285,1,0,0:0:0:0:
320,192,163285,1,0,0:0:0:0:
64,192,163410,1,0,0:0:0:0:
320,192,163410,1,0,0:0:0:0:
448,192,163535,1,0,0:0:0:0:
192,192,163535,1,0,0:0:0:0:
192,192,163660,1,0,0:0:0:0:
320,192,163660,1,0,0:0:0:0:
448,192,163785,1,0,0:0:0:0:
64,192,163785,1,0,0:0:0:0:
192,192,163910,1,0,0:0:0:0:
64,192,163910,1,0,0:0:0:0:
448,192,164035,1,0,0:0:0:0:
320,192,164035,1,0,0:0:0:0:
192,192,164160,1,0,0:0:0:0:
320,192,164160,1,0,0:0:0:0:
64,192,164286,1,8,3:0:0:0:
448,192,164286,1,8,3:0:0:0:
64,192,164411,1,0,0:0:0:0:
320,192,164411,1,0,0:0:0:0:
192,192,164536,1,8,3:0:0:0:
448,192,164536,1,8,3:0:0:0:
64,192,164661,1,0,0:0:0:0:
448,192,164661,1,0,0:0:0:0:
320,192,164786,1,0,0:0:0:0:
192,192,164786,1,0,0:0:0:0:
448,192,164911,1,0,0:0:0:0:
192,192,164911,1,0,0:0:0:0:
320,192,165036,1,8,3:0:0:0:
64,192,165036,1,8,3:0:0:0:
64,192,165161,1,0,0:0:0:0:
448,192,165161,1,0,0:0:0:0:
192,192,165286,1,0,0:0:0:0:
320,192,165286,1,0,0:0:0:0:
448,192,165411,1,0,0:0:0:0:
192,192,165411,1,0,0:0:0:0:
64,192,165537,1,8,3:0:0:0:
320,192,165537,1,8,3:0:0:0:
320,192,165662,1,0,0:0:0:0:
192,192,165662,1,0,0:0:0:0:
448,192,165787,1,8,3:0:0:0:
64,192,165787,1,8,3:0:0:0:
448,192,165912,1,0,0:0:0:0:
192,192,165912,1,0,0:0:0:0:
64,192,166037,1,8,3:0:0:0:
320,192,166037,1,8,3:0:0:0:
64,192,166162,1,0,0:0:0:0:
192,192,166162,1,0,0:0:0:0:
448,192,166287,1,8,3:0:0:0:
320,192,166287,1,8,3:0:0:0:
448,192,166412,1,0,0:0:0:0:
192,192,166412,1,0,0:0:0:0:
320,192,166538,1,8,3:0:0:0:
64,192,166538,1,0,0:0:0:0:
448,192,166663,1,0,0:0:0:0:
320,192,166663,1,0,0:0:0:0:
64,192,166789,1,0,0:0:0:0:
192,192,166789,1,8,3:0:0:0:
448,192,166914,1,0,0:0:0:0:
192,192,166914,1,0,0:0:0:0:
320,192,167040,1,8,3:0:0:0:
64,192,167040,1,0,0:0:0:0:
448,192,167165,1,0,0:0:0:0:
64,192,167165,1,0,0:0:0:0:
320,192,167291,1,8,3:0:0:0:
192,192,167291,1,0,0:0:0:0:
192,192,167416,1,0,0:0:0:0:
448,192,167416,1,0,0:0:0:0:
320,192,167542,1,0,0:0:0:0:
64,192,167542,1,0,0:0:0:0:
320,192,167667,1,0,0:0:0:0:
192,192,167667,1,0,0:0:0:0:
448,192,167793,1,0,0:0:0:0:
64,192,167793,1,0,0:0:0:0:
320,192,167918,1,0,0:0:0:0:
448,192,167918,1,0,0:0:0:0:
192,192,168044,1,0,0:0:0:0:
64,192,168044,1,0,0:0:0:0:
448,192,168169,1,0,0:0:0:0:
192,192,168169,1,0,0:0:0:0:
64,192,168295,1,8,3:0:0:0:
320,192,168295,1,8,3:0:0:0:
192,192,168420,1,0,0:0:0:0:
320,192,168420,1,0,0:0:0:0:
64,192,168546,1,0,0:0:0:0:
448,192,168546,1,0,0:0:0:0:
64,192,168671,1,0,0:0:0:0:
320,192,168671,1,0,0:0:0:0:
448,192,168797,1,0,0:0:0:0:
192,192,168797,1,0,0:0:0:0:
64,192,168922,1,0,0:0:0:0:
448,192,168922,1,0,0:0:0:0:
320,192,169048,1,0,0:0:0:0:
192,192,169048,1,0,0:0:0:0:
64,192,169174,1,0,0:0:0:0:
320,192,169174,1,0,0:0:0:0:
448,192,169299,1,8,3:0:0:0:
64,192,169299,1,8,3:0:0:0:
192,192,169299,1,8,3:0:0:0:
320,192,169425,1,0,0:0:0:0:
448,192,169425,1,0,0:0:0:0:
64,192,169550,1,0,0:0:0:0:
192,192,169550,1,0,0:0:0:0:
192,192,169676,1,0,0:0:0:0:
448,192,169676,1,0,0:0:0:0:
448,192,169801,1,8,3:0:0:0:
64,192,169801,1,8,3:0:0:0:
320,192,169801,1,8,3:0:0:0:
320,192,169927,1,0,0:0:0:0:
192,192,169927,1,0,0:0:0:0:
448,192,170052,1,0,0:0:0:0:
64,192,170052,1,0,0:0:0:0:
64,192,170178,1,0,0:0:0:0:
320,192,170178,1,0,0:0:0:0:
192,192,170303,1,8,3:0:0:0:
448,192,170303,1,8,3:0:0:0:
64,192,170429,1,0,0:0:0:0:
192,192,170429,1,0,0:0:0:0:
320,192,170554,1,0,0:0:0:0:
448,192,170554,1,8,3:0:0:0:
448,192,170680,1,0,0:0:0:0:
64,192,170680,1,0,0:0:0:0:
320,192,170805,1,0,0:0:0:0:
192,192,170805,1,0,0:0:0:0:
320,192,170931,1,0,0:0:0:0:
64,192,170931,1,0,0:0:0:0:
192,192,171056,1,0,0:0:0:0:
448,192,171056,1,0,0:0:0:0:
192,192,171182,1,0,0:0:0:0:
320,192,171182,1,0,0:0:0:0:
64,192,171307,1,0,0:0:0:0:
448,192,171307,1,0,0:0:0:0:
320,192,171433,1,0,0:0:0:0:
64,192,171433,1,0,0:0:0:0:
192,192,171558,1,0,0:0:0:0:
448,192,171558,1,0,0:0:0:0:
192,192,171684,1,0,0:0:0:0:
64,192,171684,1,0,0:0:0:0:
448,192,171810,1,0,0:0:0:0:
320,192,171810,1,0,0:0:0:0:
192,192,171935,1,0,0:0:0:0:
320,192,171935,1,0,0:0:0:0:
64,192,172061,1,0,0:0:0:0:
448,192,172061,1,0,0:0:0:0:
320,192,172186,1,0,0:0:0:0:
64,192,172186,1,0,0:0:0:0:
192,192,172312,1,8,3:0:0:0:
448,192,172312,1,0,0:0:0:0:
64,192,172437,1,0,0:0:0:0:
448,192,172437,1,0,0:0:0:0:
320,192,172563,1,0,0:0:0:0:
192,192,172563,1,8,3:0:0:0:
320,192,172688,1,0,0:0:0:0:
64,192,172688,1,0,0:0:0:0:
448,192,172814,1,8,3:0:0:0:
192,192,172814,1,0,0:0:0:0:
192,192,172939,1,0,0:0:0:0:
64,192,172939,1,0,0:0:0:0:
320,192,173065,1,0,0:0:0:0:
448,192,173065,1,8,3:0:0:0:
64,192,173190,1,0,0:0:0:0:
320,192,173190,1,0,0:0:0:0:
448,192,173316,1,8,3:0:0:0:
64,192,173316,1,8,3:0:0:0:
192,192,173316,1,8,3:0:0:0:
448,192,173441,1,0,0:0:0:0:
320,192,173441,1,0,0:0:0:0:
64,192,173567,1,0,0:0:0:0:
192,192,173567,1,8,3:0:0:0:
448,192,173692,1,0,0:0:0:0:
192,192,173692,1,0,0:0:0:0:
320,192,173818,1,8,3:0:0:0:
64,192,173818,1,0,0:0:0:0:
192,192,173881,1,0,0:0:0:0:
320,192,173943,1,0,0:0:0:0:
64,192,174100,1,0,0:0:0:0:
192,192,174194,1,0,0:0:0:0:
320,192,174257,1,0,0:0:0:0:
448,192,174320,1,8,3:0:0:0:
64,192,174320,1,8,3:0:0:0:
192,192,174320,1,8,3:0:0:0:
448,192,174444,1,0,0:0:0:0:
192,192,174444,1,0,0:0:0:0:
192,192,174569,1,0,0:0:0:0:
320,192,174569,1,0,0:0:0:0:
320,192,174694,1,0,0:0:0:0:
192,192,174694,1,0,0:0:0:0:
320,192,174819,1,0,0:0:0:0:
64,192,174819,1,0,0:0:0:0:
320,192,174944,1,0,0:0:0:0:
64,192,174944,1,0,0:0:0:0:
64,192,175069,1,0,0:0:0:0:
192,192,175069,1,0,0:0:0:0:
192,192,175194,1,0,0:0:0:0:
64,192,175194,1,0,0:0:0:0:
448,192,175319,1,0,0:0:0:0:
192,192,175319,1,0,0:0:0:0:
448,192,175444,1,0,0:0:0:0:
192,192,175444,1,0,0:0:0:0:
448,192,175568,1,0,0:0:0:0:
320,192,175568,1,0,0:0:0:0:
448,192,175693,1,0,0:0:0:0:
320,192,175693,1,0,0:0:0:0:
320,192,175818,1,0,0:0:0:0:
64,192,175818,1,0,0:0:0:0:
320,192,175943,1,0,0:0:0:0:
64,192,175943,1,0,0:0:0:0:
64,192,176068,1,0,0:0:0:0:
192,192,176068,1,0,0:0:0:0:
64,192,176193,1,0,0:0:0:0:
192,192,176193,1,0,0:0:0:0:
192,192,176318,1,0,0:0:0:0:
448,192,176318,1,0,0:0:0:0:
192,192,176443,1,0,0:0:0:0:
448,192,176443,1,0,0:0:0:0:
320,192,176568,1,0,0:0:0:0:
448,192,176568,1,0,0:0:0:0:
448,192,176693,1,0,0:0:0:0:
320,192,176693,1,0,0:0:0:0:
64,192,176817,1,0,0:0:0:0:
320,192,176817,1,0,0:0:0:0:
64,192,176942,1,0,0:0:0:0:
320,192,176942,1,0,0:0:0:0:
192,192,177067,1,0,0:0:0:0:
64,192,177067,1,0,0:0:0:0:
448,192,177192,1,8,3:0:0:0:
320,192,177192,1,8,3:0:0:0:
192,192,177255,1,8,3:0:0:0:
64,192,177255,1,8,3:0:0:0:
448,192,177317,1,8,3:0:0:0:
320,192,177317,1,8,3:0:0:0:
448,192,177442,1,8,3:0:0:0:
64,192,177442,1,8,3:0:0:0:
320,192,177504,1,8,3:0:0:0:
192,192,177504,1,8,3:0:0:0:
64,192,177567,1,8,3:0:0:0:
448,192,177567,1,8,3:0:0:0:
192,192,177692,1,0,0:0:0:0:
320,192,177692,1,0,0:0:0:0:
320,192,177817,1,8,3:0:0:0:
448,192,177817,1,8,3:0:0:0:
64,192,177879,1,8,3:0:0:0:
192,192,177879,1,8,3:0:0:0:
448,192,177941,1,8,3:0:0:0:
320,192,177941,1,8,3:0:0:0:
64,192,178066,1,8,3:0:0:0:
192,192,178066,1,8,3:0:0:0:
320,192,178129,1,8,3:0:0:0:
448,192,178129,1,8,3:0:0:0:
64,192,178191,1,8,3:0:0:0:
192,192,178191,1,8,3:0:0:0:
320,192,178254,1,8,3:0:0:0:
448,192,178254,1,8,3:0:0:0:
64,192,178316,1,8,3:0:0:0:
192,192,178316,1,8,3:0:0:0:
64,192,178441,1,0,0:0:0:0:
192,192,178441,1,0,0:0:0:0:
320,192,178566,1,0,0:0:0:0:
64,192,178566,1,0,0:0:0:0:
320,192,178691,1,0,0:0:0:0:
64,192,178691,1,0,0:0:0:0:
192,192,178816,1,0,0:0:0:0:
320,192,178816,1,0,0:0:0:0:
192,192,178941,1,0,0:0:0:0:
320,192,178941,1,0,0:0:0:0:
448,192,179066,1,0,0:0:0:0:
192,192,179066,1,0,0:0:0:0:
192,192,179190,1,0,0:0:0:0:
448,192,179190,1,0,0:0:0:0:
448,192,179315,1,0,0:0:0:0:
64,192,179315,1,0,0:0:0:0:
448,192,179440,1,0,0:0:0:0:
64,192,179440,1,0,0:0:0:0:
64,192,179565,1,0,0:0:0:0:
320,192,179565,1,0,0:0:0:0:
64,192,179690,1,0,0:0:0:0:
320,192,179690,1,0,0:0:0:0:
320,192,179815,1,0,0:0:0:0:
192,192,179815,1,0,0:0:0:0:
320,192,179940,1,0,0:0:0:0:
192,192,179940,1,0,0:0:0:0:
448,192,180065,1,0,0:0:0:0:
192,192,180065,1,0,0:0:0:0:
192,192,180190,1,0,0:0:0:0:
448,192,180190,1,0,0:0:0:0:
64,192,180315,1,8,3:0:0:0:
448,192,180315,1,8,3:0:0:0:
64,192,180439,1,0,0:0:0:0:
448,192,180439,1,0,0:0:0:0:
64,192,180564,1,8,3:0:0:0:
320,192,180564,1,8,3:0:0:0:
320,192,180689,1,0,0:0:0:0:
64,192,180689,1,0,0:0:0:0:
320,192,180814,1,0,0:0:0:0:
192,192,180814,1,0,0:0:0:0:
320,192,180939,1,0,0:0:0:0:
192,192,180939,1,0,0:0:0:0:
192,192,181064,1,8,3:0:0:0:
448,192,181064,1,8,3:0:0:0:
448,192,181189,1,0,0:0:0:0:
192,192,181189,1,0,0:0:0:0:
64,192,181314,1,0,0:0:0:0:
448,192,181314,1,0,0:0:0:0:
448,192,181439,1,0,0:0:0:0:
64,192,181439,1,0,0:0:0:0:
64,192,181563,1,0,0:0:0:0:
320,192,181563,1,8,3:0:0:0:
320,192,181688,1,0,0:0:0:0:
64,192,181688,1,0,0:0:0:0:
64,192,181813,1,8,3:0:0:0:
320,192,181813,1,0,0:0:0:0:
192,192,181938,1,8,3:0:0:0:
64,192,182063,1,8,3:0:0:0:
320,192,182188,1,0,0:0:0:0:
192,192,182188,1,0,0:0:0:0:
448,192,182313,1,8,3:0:0:0:
320,192,182313,1,8,3:0:0:0:
448,192,182438,1,0,0:0:0:0:
320,192,182438,1,0,0:0:0:0:
192,192,182564,1,8,3:0:0:0:
448,192,182564,1,0,0:0:0:0:
448,192,182689,1,0,0:0:0:0:
192,192,182689,1,0,0:0:0:0:
192,192,182815,1,0,0:0:0:0:
320,192,182815,1,8,3:0:0:0:
192,192,182940,1,0,0:0:0:0:
320,192,182940,1,0,0:0:0:0:
64,192,183066,1,0,0:0:0:0:
320,192,183066,1,8,3:0:0:0:
320,192,183191,1,0,0:0:0:0:
64,192,183191,1,0,0:0:0:0:
64,192,183317,1,0,0:0:0:0:
448,192,183317,1,8,3:0:0:0:
64,192,183442,1,0,0:0:0:0:
448,192,183442,1,0,0:0:0:0:
192,192,183568,1,0,0:0:0:0:
448,192,183568,1,0,0:0:0:0:
192,192,183693,1,0,0:0:0:0:
448,192,183693,1,0,0:0:0:0:
320,192,183819,1,0,0:0:0:0:
192,192,183819,1,0,0:0:0:0:
320,192,183944,1,0,0:0:0:0:
192,192,183944,1,0,0:0:0:0:
64,192,184070,1,0,0:0:0:0:
320,192,184070,1,0,0:0:0:0:
64,192,184195,1,0,0:0:0:0:
320,192,184195,1,0,0:0:0:0:
448,192,184321,1,8,3:0:0:0:
64,192,184321,1,8,3:0:0:0:
448,192,184446,1,0,0:0:0:0:
64,192,184446,1,0,0:0:0:0:
192,192,184572,1,0,0:0:0:0:
448,192,184572,1,0,0:0:0:0:
448,192,184697,1,0,0:0:0:0:
192,192,184697,1,0,0:0:0:0:
320,192,184823,1,0,0:0:0:0:
192,192,184823,1,0,0:0:0:0:
192,192,184948,1,0,0:0:0:0:
320,192,184948,1,0,0:0:0:0:
64,192,185074,1,0,0:0:0:0:
320,192,185074,1,0,0:0:0:0:
64,192,185200,1,0,0:0:0:0:
320,192,185200,1,0,0:0:0:0:
448,192,185325,1,8,3:0:0:0:
192,192,185325,1,8,3:0:0:0:
64,192,185325,1,8,3:0:0:0:
448,192,185451,1,0,0:0:0:0:
64,192,185451,1,0,0:0:0:0:
192,192,185576,1,0,0:0:0:0:
448,192,185576,1,0,0:0:0:0:
448,192,185702,1,0,0:0:0:0:
192,192,185702,1,0,0:0:0:0:
192,192,185827,1,8,3:0:0:0:
320,192,185827,1,8,3:0:0:0:
64,192,185827,1,8,3:0:0:0:
192,192,185953,1,0,0:0:0:0:
320,192,185953,1,0,0:0:0:0:
320,192,186078,1,0,0:0:0:0:
64,192,186078,1,0,0:0:0:0:
64,192,186204,1,0,0:0:0:0:
320,192,186204,1,0,0:0:0:0:
448,192,186329,1,0,0:0:0:0:
64,192,186329,1,8,3:0:0:0:
448,192,186455,1,0,0:0:0:0:
64,192,186455,1,0,0:0:0:0:
192,192,186580,1,8,3:0:0:0:
448,192,186580,1,0,0:0:0:0:
192,192,186706,1,0,0:0:0:0:
448,192,186706,1,0,0:0:0:0:
320,192,186831,1,0,0:0:0:0:
192,192,186831,1,0,0:0:0:0:
192,192,186957,1,0,0:0:0:0:
320,192,186957,1,0,0:0:0:0:
320,192,187082,1,0,0:0:0:0:
64,192,187082,1,0,0:0:0:0:
320,192,187208,1,0,0:0:0:0:
64,192,187208,1,0,0:0:0:0:
64,192,187333,1,0,0:0:0:0:
448,192,187333,1,0,0:0:0:0:
64,192,187459,1,0,0:0:0:0:
448,192,187459,1,0,0:0:0:0:
448,192,187584,1,0,0:0:0:0:
192,192,187584,1,0,0:0:0:0:
448,192,187710,1,0,0:0:0:0:
192,192,187710,1,0,0:0:0:0:
192,192,187836,1,0,0:0:0:0:
320,192,187836,1,0,0:0:0:0:
320,192,187961,1,0,0:0:0:0:
192,192,187961,1,0,0:0:0:0:
320,192,188087,1,0,0:0:0:0:
64,192,188087,1,0,0:0:0:0:
64,192,188212,1,0,0:0:0:0:
320,192,188212,1,0,0:0:0:0:
448,192,188338,1,8,3:0:0:0:
64,192,188338,1,0,0:0:0:0:
448,192,188463,1,0,0:0:0:0:
64,192,188463,1,0,0:0:0:0:
448,192,188589,1,0,0:0:0:0:
192,192,188589,1,8,3:0:0:0:
448,192,188714,1,0,0:0:0:0:
192,192,188714,1,0,0:0:0:0:
192,192,188840,1,0,0:0:0:0:
320,192,188840,1,8,3:0:0:0:
192,192,188965,1,0,0:0:0:0:
320,192,188965,1,0,0:0:0:0:
64,192,189091,1,0,0:0:0:0:
320,192,189091,1,8,3:0:0:0:
64,192,189216,5,0,0:0:0:0:
320,192,189216,1,0,0:0:0:0:
64,192,189342,1,8,3:0:0:0:
192,192,189342,1,8,3:0:0:0:
448,192,189342,1,8,3:0:0:0:
448,192,189467,1,0,0:0:0:0:
64,192,189593,1,8,3:0:0:0:
320,192,189593,1,8,3:0:0:0:
192,192,189718,1,0,0:0:0:0:
448,192,189844,1,0,0:0:0:0:
64,192,189844,1,8,3:0:0:0:
320,192,189969,1,0,0:0:0:0:
192,192,190095,1,0,0:0:0:0:
448,192,190346,5,8,3:0:0:0:
64,192,190346,128,0,192346:3:0:0:0:
192,192,190471,1,0,0:0:0:0:
320,192,190471,1,0,0:0:0:0:
448,192,190596,1,0,0:0:0:0:
320,192,190596,1,0,0:0:0:0:
192,192,190721,1,0,0:0:0:0:
448,192,190721,1,0,0:0:0:0:
192,192,190846,1,0,0:0:0:0:
320,192,190846,1,0,0:0:0:0:
448,192,190971,1,0,0:0:0:0:
320,192,190971,1,0,0:0:0:0:
192,192,191096,1,0,0:0:0:0:
448,192,191096,1,0,0:0:0:0:
448,192,191221,1,0,0:0:0:0:
320,192,191221,1,0,0:0:0:0:
320,192,191346,1,0,0:0:0:0:
192,192,191346,1,0,0:0:0:0:
192,192,191471,1,0,0:0:0:0:
448,192,191471,1,0,0:0:0:0:
320,192,191596,1,0,0:0:0:0:
192,192,191596,1,0,0:0:0:0:
320,192,191721,1,0,0:0:0:0:
448,192,191721,1,0,0:0:0:0:
448,192,191846,1,0,0:0:0:0:
192,192,191846,1,0,0:0:0:0:
320,192,191971,1,0,0:0:0:0:
192,192,191971,1,0,0:0:0:0:
448,192,192096,1,0,0:0:0:0:
192,192,192096,1,0,0:0:0:0:
448,192,192221,1,0,0:0:0:0:
320,192,192221,1,0,0:0:0:0:
192,192,192346,1,8,3:0:0:0:
320,192,192346,1,0,0:0:0:0:
320,192,192471,1,0,0:0:0:0:
192,192,192471,1,0,0:0:0:0:
64,192,192596,1,0,0:0:0:0:
448,192,192596,1,0,0:0:0:0:
64,192,192721,1,0,0:0:0:0:
448,192,192721,1,0,0:0:0:0:
192,192,192846,1,0,0:0:0:0:
320,192,192846,1,0,0:0:0:0:
448,192,192971,128,0,193096:3:0:0:0:
192,192,192971,1,0,0:0:0:0:
64,192,193096,1,0,0:0:0:0:
320,192,193096,1,0,0:0:0:0:
64,192,193221,1,8,3:0:0:0:
192,192,193221,1,8,3:0:0:0:
448,192,193283,1,8,3:0:0:0:
320,192,193283,1,8,3:0:0:0:
64,192,193346,1,8,3:0:0:0:
192,192,193346,1,8,3:0:0:0:
64,192,193471,1,8,3:0:0:0:
448,192,193471,1,8,3:0:0:0:
320,192,193533,1,8,3:0:0:0:
192,192,193533,1,8,3:0:0:0:
64,192,193596,1,8,3:0:0:0:
448,192,193596,1,8,3:0:0:0:
320,192,193721,1,0,0:0:0:0:
192,192,193721,1,0,0:0:0:0:
64,192,193846,1,8,3:0:0:0:
192,192,193846,1,8,3:0:0:0:
320,192,193908,1,8,3:0:0:0:
448,192,193908,1,8,3:0:0:0:
64,192,193971,1,8,3:0:0:0:
192,192,193971,1,8,3:0:0:0:
320,192,194096,1,8,3:0:0:0:
448,192,194096,1,8,3:0:0:0:
64,192,194158,1,8,3:0:0:0:
192,192,194158,1,8,3:0:0:0:
320,192,194221,1,8,3:0:0:0:
448,192,194221,1,8,3:0:0:0:
64,192,194283,1,8,3:0:0:0:
192,192,194283,1,8,3:0:0:0:
448,192,194346,1,0,0:0:0:0:
320,192,194346,128,0,197971:3:0:0:0:
192,192,194471,1,0,0:0:0:0:
64,192,194471,1,0,0:0:0:0:
192,192,194596,1,0,0:0:0:0:
448,192,194596,1,0,0:0:0:0:
64,192,194721,1,0,0:0:0:0:
448,192,194721,1,0,0:0:0:0:
192,192,194846,1,0,0:0:0:0:
64,192,194846,1,0,0:0:0:0:
192,192,194971,1,0,0:0:0:0:
448,192,194971,1,0,0:0:0:0:
64,192,195096,1,0,0:0:0:0:
448,192,195096,1,0,0:0:0:0:
192,192,195221,1,0,0:0:0:0:
448,192,195221,1,0,0:0:0:0:
64,192,195346,1,0,0:0:0:0:
192,192,195346,1,0,0:0:0:0:
64,192,195471,1,0,0:0:0:0:
448,192,195471,1,0,0:0:0:0:
192,192,195596,1,0,0:0:0:0:
64,192,195596,1,0,0:0:0:0:
448,192,195721,1,0,0:0:0:0:
192,192,195721,1,0,0:0:0:0:
64,192,195846,1,0,0:0:0:0:
448,192,195846,1,0,0:0:0:0:
192,192,195971,1,0,0:0:0:0:
448,192,195971,1,0,0:0:0:0:
192,192,196096,1,0,0:0:0:0:
64,192,196096,1,0,0:0:0:0:
64,192,196221,1,0,0:0:0:0:
448,192,196221,1,0,0:0:0:0:
192,192,196346,1,8,3:0:0:0:
64,192,196346,1,0,0:0:0:0:
448,192,196471,1,0,0:0:0:0:
192,192,196471,1,0,0:0:0:0:
448,192,196596,1,0,0:0:0:0:
64,192,196596,1,8,3:0:0:0:
64,192,196721,1,0,0:0:0:0:
192,192,196721,1,0,0:0:0:0:
448,192,196846,1,0,0:0:0:0:
64,192,196846,1,0,0:0:0:0:
192,192,196971,1,0,0:0:0:0:
448,192,196971,1,0,0:0:0:0:
64,192,197096,1,0,0:0:0:0:
192,192,197096,1,8,3:0:0:0:
192,192,197221,1,0,0:0:0:0:
448,192,197221,1,0,0:0:0:0:
64,192,197346,1,0,0:0:0:0:
448,192,197346,1,0,0:0:0:0:
448,192,197471,1,0,0:0:0:0:
192,192,197471,1,0,0:0:0:0:
192,192,197596,1,8,3:0:0:0:
64,192,197596,1,0,0:0:0:0:
64,192,197721,1,0,0:0:0:0:
448,192,197721,1,0,0:0:0:0:
448,192,197846,1,0,0:0:0:0:
192,192,197846,1,8,3:0:0:0:
448,192,197971,1,0,0:0:0:0:
192,192,198096,1,0,0:0:0:0:
448,192,198221,128,0,200345:3:0:0:0:
64,192,198221,1,0,0:0:0:0:
320,192,198346,1,8,3:0:0:0:
192,192,198346,1,8,3:0:0:0:
64,192,198470,1,0,0:0:0:0:
192,192,198470,1,0,0:0:0:0:
320,192,198595,1,8,3:0:0:0:
64,192,198595,1,0,0:0:0:0:
192,192,198720,1,0,0:0:0:0:
320,192,198720,1,0,0:0:0:0:
64,192,198845,1,0,0:0:0:0:
192,192,198845,1,8,3:0:0:0:
320,192,198970,1,0,0:0:0:0:
64,192,198970,1,0,0:0:0:0:
64,192,199095,1,8,3:0:0:0:
192,192,199095,1,0,0:0:0:0:
320,192,199220,1,0,0:0:0:0:
192,192,199220,1,0,0:0:0:0:
64,192,199345,1,8,3:0:0:0:
320,192,199345,1,0,0:0:0:0:
320,192,199470,1,0,0:0:0:0:
192,192,199470,1,0,0:0:0:0:
64,192,199595,1,0,0:0:0:0:
192,192,199595,1,0,0:0:0:0:
320,192,199720,1,0,0:0:0:0:
64,192,199720,1,0,0:0:0:0:
192,192,199845,1,0,0:0:0:0:
320,192,199845,1,0,0:0:0:0:
320,192,199970,1,0,0:0:0:0:
64,192,199970,1,0,0:0:0:0:
64,192,200095,1,0,0:0:0:0:
192,192,200095,1,0,0:0:0:0:
320,192,200220,1,0,0:0:0:0:
192,192,200220,1,0,0:0:0:0:
320,192,200345,1,8,3:0:0:0:
64,192,200345,1,8,3:0:0:0:
192,192,200470,128,0,200595:3:0:0:0:
64,192,200470,1,0,0:0:0:0:
448,192,200595,1,0,0:0:0:0:
320,192,200595,1,0,0:0:0:0:
320,192,200720,1,0,0:0:0:0:
64,192,200720,128,0,200844:3:0:0:0:
192,192,200844,1,0,0:0:0:0:
448,192,200844,1,0,0:0:0:0:
320,192,200969,128,0,201094:3:0:0:0:
64,192,200969,1,0,0:0:0:0:
192,192,201094,1,0,0:0:0:0:
448,192,201094,1,0,0:0:0:0:
64,192,201219,1,0,0:0:0:0:
64,192,201344,128,0,201844:3:0:0:0:
192,192,201344,1,8,3:0:0:0:
320,192,201344,1,8,3:0:0:0:
448,192,201344,1,8,3:0:0:0:
448,192,201469,1,0,0:0:0:0:
192,192,201469,1,0,0:0:0:0:
320,192,201594,1,0,0:0:0:0:
448,192,201719,1,0,0:0:0:0:
192,192,201719,1,0,0:0:0:0:
192,192,201844,1,8,3:0:0:0:
320,192,201844,1,8,3:0:0:0:
448,192,201844,1,8,3:0:0:0:
64,192,201969,1,0,0:0:0:0:
192,192,201969,1,0,0:0:0:0:
192,192,202094,1,0,0:0:0:0:
64,192,202094,1,0,0:0:0:0:
64,192,202219,1,0,0:0:0:0:
192,192,202219,1,0,0:0:0:0:
320,192,202344,128,0,204343:3:0:0:0:
64,192,202344,1,8,3:0:0:0:
192,192,202469,1,0,0:0:0:0:
448,192,202469,1,0,0:0:0:0:
192,192,202594,1,0,0:0:0:0:
64,192,202594,1,0,0:0:0:0:
448,192,202719,1,0,0:0:0:0:
64,192,202719,1,0,0:0:0:0:
192,192,202844,1,0,0:0:0:0:
448,192,202844,1,0,0:0:0:0:
192,192,202969,1,0,0:0:0:0:
64,192,202969,1,0,0:0:0:0:
448,192,203094,1,0,0:0:0:0:
64,192,203094,1,0,0:0:0:0:
192,192,203218,1,0,0:0:0:0:
64,192,203218,1,0,0:0:0:0:
192,192,203343,1,0,0:0:0:0:
448,192,203343,1,0,0:0:0:0:
64,192,203468,1,0,0:0:0:0:
448,192,203468,1,0,0:0:0:0:
448,192,203593,1,0,0:0:0:0:
192,192,203593,1,0,0:0:0:0:
64,192,203718,1,0,0:0:0:0:
192,192,203718,1,0,0:0:0:0:
64,192,203843,1,0,0:0:0:0:
448,192,203843,1,0,0:0:0:0:
64,192,203968,1,0,0:0:0:0:
192,192,203968,1,0,0:0:0:0:
192,192,204093,1,0,0:0:0:0:
448,192,204093,1,0,0:0:0:0:
448,192,204218,1,0,0:0:0:0:
64,192,204218,1,0,0:0:0:0:
192,192,204343,1,8,3:0:0:0:
64,192,204343,1,0,0:0:0:0:
448,192,204468,128,0,204593:3:0:0:0:
192,192,204468,1,0,0:0:0:0:
320,192,204593,1,0,0:0:0:0:
64,192,204593,1,8,3:0:0:0:
192,192,204718,128,0,204843:3:0:0:0:
448,192,204718,1,0,0:0:0:0:
320,192,204843,1,8,3:0:0:0:
64,192,204843,1,0,0:0:0:0:
448,192,204968,128,0,205093:3:0:0:0:
320,192,204968,1,0,0:0:0:0:
64,192,205093,1,0,0:0:0:0:
192,192,205093,1,8,3:0:0:0:
320,192,205218,1,0,0:0:0:0:
64,192,205218,128,0,205842:3:0:0:0:
448,192,205343,1,8,3:0:0:0:
320,192,205343,1,8,3:0:0:0:
192,192,205343,1,8,3:0:0:0:
192,192,205468,1,0,0:0:0:0:
448,192,205468,1,0,0:0:0:0:
320,192,205592,1,8,3:0:0:0:
192,192,205592,1,0,0:0:0:0:
448,192,205717,1,0,0:0:0:0:
320,192,205717,1,0,0:0:0:0:
192,192,205842,1,0,0:0:0:0:
448,192,205842,1,8,3:0:0:0:
320,192,205967,128,0,206092:3:0:0:0:
64,192,205967,1,0,0:0:0:0:
448,192,206092,128,0,206217:3:0:0:0:
192,192,206092,1,0,0:0:0:0:
64,192,206217,128,0,206376:3:0:0:0:
320,192,206217,1,0,0:0:0:0:
192,192,206376,128,0,208371:3:0:0:0:
320,192,206376,1,8,3:0:0:0:
320,192,206500,1,0,0:0:0:0:
448,192,206500,1,0,0:0:0:0:
64,192,206625,1,0,0:0:0:0:
448,192,206625,1,0,0:0:0:0:
64,192,206750,1,0,0:0:0:0:
320,192,206750,1,0,0:0:0:0:
320,192,206874,1,0,0:0:0:0:
448,192,206874,1,0,0:0:0:0:
448,192,206999,1,0,0:0:0:0:
64,192,206999,1,0,0:0:0:0:
320,192,207124,1,0,0:0:0:0:
64,192,207124,1,0,0:0:0:0:
64,192,207249,1,0,0:0:0:0:
448,192,207249,1,0,0:0:0:0:
448,192,207373,1,0,0:0:0:0:
320,192,207373,1,0,0:0:0:0:
64,192,207498,1,0,0:0:0:0:
320,192,207498,1,0,0:0:0:0:
448,192,207623,1,0,0:0:0:0:
320,192,207623,1,0,0:0:0:0:
448,192,207748,1,0,0:0:0:0:
64,192,207748,1,0,0:0:0:0:
320,192,207872,1,0,0:0:0:0:
64,192,207872,1,0,0:0:0:0:
320,192,207997,1,0,0:0:0:0:
448,192,207997,1,0,0:0:0:0:
448,192,208122,1,0,0:0:0:0:
64,192,208122,1,0,0:0:0:0:
448,192,208247,1,0,0:0:0:0:
320,192,208247,1,0,0:0:0:0:
320,192,208371,1,8,3:0:0:0:
64,192,208371,128,0,209120:3:0:0:0:
448,192,208496,1,0,0:0:0:0:
192,192,208496,1,0,0:0:0:0:
448,192,208621,1,0,0:0:0:0:
320,192,208621,1,0,0:0:0:0:
192,192,208746,1,0,0:0:0:0:
320,192,208746,1,0,0:0:0:0:
192,192,208870,1,0,0:0:0:0:
448,192,208870,1,0,0:0:0:0:
448,192,208995,1,0,0:0:0:0:
320,192,208995,1,0,0:0:0:0:
320,192,209120,1,0,0:0:0:0:
192,192,209120,1,0,0:0:0:0:
448,192,209245,1,8,3:0:0:0:
320,192,209245,1,8,3:0:0:0:
192,192,209307,1,8,3:0:0:0:
64,192,209307,1,8,3:0:0:0:
448,192,209369,1,8,3:0:0:0:
320,192,209369,1,8,3:0:0:0:
64,192,209494,1,8,3:0:0:0:
448,192,209494,1,8,3:0:0:0:
320,192,209556,1,8,3:0:0:0:
192,192,209556,1,8,3:0:0:0:
64,192,209619,1,8,3:0:0:0:
448,192,209619,1,8,3:0:0:0:
320,192,209743,1,0,0:0:0:0:
192,192,209743,1,0,0:0:0:0:
64,192,209868,1,8,3:0:0:0:
192,192,209868,1,8,3:0:0:0:
320,192,209931,1,8,3:0:0:0:
448,192,209931,1,8,3:0:0:0:
64,192,209993,1,8,3:0:0:0:
192,192,209993,1,8,3:0:0:0:
448,192,210118,1,8,3:0:0:0:
320,192,210118,1,8,3:0:0:0:
192,192,210180,1,8,3:0:0:0:
64,192,210180,1,8,3:0:0:0:
448,192,210242,1,8,3:0:0:0:
320,192,210242,1,8,3:0:0:0:
64,192,210305,1,8,3:0:0:0:
192,192,210305,1,8,3:0:0:0:
448,192,210367,128,0,214359:3:0:0:0:
320,192,210367,1,8,3:0:0:0:
320,192,210492,1,0,0:0:0:0:
192,192,210492,1,0,0:0:0:0:
64,192,210617,1,0,0:0:0:0:
192,192,210617,1,0,0:0:0:0:
320,192,210741,1,0,0:0:0:0:
64,192,210741,1,0,0:0:0:0:
192,192,210866,1,0,0:0:0:0:
320,192,210866,1,0,0:0:0:0:
64,192,210991,1,0,0:0:0:0:
192,192,210991,1,0,0:0:0:0:
320,192,211116,1,0,0:0:0:0:
64,192,211116,1,0,0:0:0:0:
64,192,211240,1,0,0:0:0:0:
192,192,211240,1,0,0:0:0:0:
192,192,211365,1,0,0:0:0:0:
320,192,211365,1,0,0:0:0:0:
320,192,211490,1,0,0:0:0:0:
64,192,211490,1,0,0:0:0:0:
192,192,211615,1,0,0:0:0:0:
320,192,211615,1,0,0:0:0:0:
64,192,211739,1,0,0:0:0:0:
192,192,211739,1,0,0:0:0:0:
320,192,211864,1,0,0:0:0:0:
64,192,211864,1,0,0:0:0:0:
64,192,211989,1,0,0:0:0:0:
192,192,211989,1,0,0:0:0:0:
320,192,212114,1,0,0:0:0:0:
192,192,212114,1,0,0:0:0:0:
64,192,212238,1,0,0:0:0:0:
320,192,212238,1,0,0:0:0:0:
192,192,212363,1,8,3:0:0:0:
320,192,212363,1,0,0:0:0:0:
64,192,212488,1,0,0:0:0:0:
192,192,212488,1,0,0:0:0:0:
320,192,212613,1,8,3:0:0:0:
64,192,212613,1,0,0:0:0:0:
320,192,212737,1,0,0:0:0:0:
192,192,212737,1,0,0:0:0:0:
320,192,212862,1,0,0:0:0:0:
64,192,212862,1,0,0:0:0:0:
64,192,212987,1,0,0:0:0:0:
192,192,212987,1,0,0:0:0:0:
320,192,213111,1,0,0:0:0:0:
64,192,213111,1,8,3:0:0:0:
320,192,213236,1,0,0:0:0:0:
192,192,213236,1,0,0:0:0:0:
64,192,213361,1,0,0:0:0:0:
192,192,213361,1,0,0:0:0:0:
320,192,213486,1,0,0:0:0:0:
64,192,213486,1,0,0:0:0:0:
192,192,213610,1,8,3:0:0:0:
320,192,213610,1,0,0:0:0:0:
64,192,213735,1,0,0:0:0:0:
192,192,213735,1,0,0:0:0:0:
320,192,213860,1,0,0:0:0:0:
192,192,213860,1,8,3:0:0:0:
64,192,213985,1,8,3:0:0:0:
192,192,214109,1,8,3:0:0:0:
64,192,214234,1,0,0:0:0:0:
320,192,214234,1,0,0:0:0:0:
192,192,214359,1,8,3:0:0:0:
320,192,214359,128,0,218624:3:0:0:0:
64,192,214484,1,0,0:0:0:0:
192,192,214484,1,0,0:0:0:0:
448,192,214609,1,8,3:0:0:0:
64,192,214609,1,0,0:0:0:0:
192,192,214735,1,0,0:0:0:0:
448,192,214735,1,0,0:0:0:0:
64,192,214860,1,0,0:0:0:0:
192,192,214860,1,8,3:0:0:0:
448,192,214986,1,0,0:0:0:0:
64,192,214986,1,0,0:0:0:0:
192,192,215111,1,0,0:0:0:0:
448,192,215111,1,8,3:0:0:0:
64,192,215237,1,0,0:0:0:0:
448,192,215237,1,0,0:0:0:0:
192,192,215362,1,0,0:0:0:0:
64,192,215362,1,8,3:0:0:0:
192,192,215488,1,0,0:0:0:0:
448,192,215488,1,0,0:0:0:0:
64,192,215613,1,0,0:0:0:0:
192,192,215613,1,0,0:0:0:0:
448,192,215739,1,0,0:0:0:0:
64,192,215739,1,0,0:0:0:0:
192,192,215864,1,0,0:0:0:0:
448,192,215864,1,0,0:0:0:0:
64,192,215990,1,0,0:0:0:0:
448,192,215990,1,0,0:0:0:0:
192,192,216115,1,0,0:0:0:0:
64,192,216115,1,0,0:0:0:0:
192,192,216241,1,0,0:0:0:0:
448,192,216241,1,0,0:0:0:0:
448,192,216366,1,8,3:0:0:0:
64,192,216366,1,0,0:0:0:0:
448,192,216491,1,0,0:0:0:0:
192,192,216491,1,0,0:0:0:0:
64,192,216617,1,0,0:0:0:0:
192,192,216617,1,0,0:0:0:0:
64,192,216742,1,0,0:0:0:0:
448,192,216742,1,0,0:0:0:0:
192,192,216868,1,0,0:0:0:0:
64,192,216868,1,0,0:0:0:0:
192,192,216993,1,0,0:0:0:0:
448,192,216993,1,0,0:0:0:0:
64,192,217119,1,0,0:0:0:0:
448,192,217119,1,0,0:0:0:0:
64,192,217244,1,0,0:0:0:0:
192,192,217244,1,0,0:0:0:0:
448,192,217370,1,8,3:0:0:0:
64,192,217370,1,8,3:0:0:0:
192,192,217370,1,8,3:0:0:0:
448,192,217495,1,0,0:0:0:0:
192,192,217495,1,0,0:0:0:0:
64,192,217621,1,0,0:0:0:0:
192,192,217621,1,0,0:0:0:0:
448,192,217746,1,0,0:0:0:0:
64,192,217746,1,0,0:0:0:0:
192,192,217872,1,8,3:0:0:0:
448,192,217872,1,8,3:0:0:0:
64,192,217872,1,8,3:0:0:0:
448,192,217997,1,0,0:0:0:0:
192,192,217997,1,0,0:0:0:0:
192,192,218123,1,0,0:0:0:0:
64,192,218123,1,0,0:0:0:0:
64,192,218248,1,0,0:0:0:0:
448,192,218248,1,0,0:0:0:0:
448,192,218374,1,8,3:0:0:0:
192,192,218374,1,8,3:0:0:0:
192,192,218499,1,0,0:0:0:0:
64,192,218499,1,0,0:0:0:0:
448,192,218624,1,8,3:0:0:0:
64,192,218624,128,0,220381:0:0:0:0:
448,192,218750,1,0,0:0:0:0:
448,192,218875,1,0,0:0:0:0:
192,192,218875,1,0,0:0:0:0:
192,192,219001,1,0,0:0:0:0:
320,192,219001,1,0,0:0:0:0:
448,192,219126,1,0,0:0:0:0:
320,192,219126,1,0,0:0:0:0:
448,192,219252,1,0,0:0:0:0:
192,192,219252,1,0,0:0:0:0:
192,192,219377,1,0,0:0:0:0:
320,192,219377,1,0,0:0:0:0:
448,192,219503,1,0,0:0:0:0:
320,192,219503,1,0,0:0:0:0:
320,192,219628,1,0,0:0:0:0:
192,192,219628,1,0,0:0:0:0:
448,192,219754,1,0,0:0:0:0:
192,192,219754,1,0,0:0:0:0:
448,192,219879,1,0,0:0:0:0:
320,192,219879,1,0,0:0:0:0:
448,192,220005,1,0,0:0:0:0:
192,192,220005,1,0,0:0:0:0:
320,192,220130,1,0,0:0:0:0:
192,192,220130,1,0,0:0:0:0:
448,192,220256,1,0,0:0:0:0:
320,192,220256,1,0,0:0:0:0:
448,192,220381,5,8,3:0:0:0:
192,192,220381,1,0,0:0:0:0:
320,192,220507,1,0,0:0:0:0:
448,192,220507,1,0,0:0:0:0:
320,192,220632,1,8,3:0:0:0:
192,192,220632,1,0,0:0:0:0:
192,192,220757,1,0,0:0:0:0:
64,192,220757,1,0,0:0:0:0:
448,192,220883,1,0,0:0:0:0:
320,192,220883,1,8,3:0:0:0:
192,192,221008,1,0,0:0:0:0:
64,192,221008,1,0,0:0:0:0:
192,192,221134,1,0,0:0:0:0:
320,192,221134,1,8,3:0:0:0:
448,192,221259,1,0,0:0:0:0:
320,192,221259,1,0,0:0:0:0:
64,192,221385,5,0,0:0:0:0:
448,192,221385,128,0,221636:3:0:0:0:
192,192,221385,1,0,0:0:0:0:
320,192,221636,128,0,221887:3:0:0:0:
192,192,221887,128,0,222138:3:0:0:0:
64,192,222138,1,0,0:0:0:0:
448,192,222389,1,0,0:0:0:0:
320,192,222389,1,0,0:0:0:0:
64,192,222389,1,0,0:0:0:0:
192,192,222639,1,0,0:0:0:0:
320,192,222639,1,0,0:0:0:0:
448,192,222639,1,0,0:0:0:0:
64,192,222890,1,0,0:0:0:0:
192,192,222890,1,0,0:0:0:0:
448,192,222890,1,0,0:0:0:0:
320,192,223140,1,0,0:0:0:0:
192,192,223140,1,0,0:0:0:0:
64,192,223140,1,0,0:0:0:0:
448,192,223391,1,0,0:0:0:0:
320,192,223391,1,0,0:0:0:0:
64,192,223391,1,0,0:0:0:0:
192,192,223641,1,0,0:0:0:0:
64,192,223641,1,0,0:0:0:0:
448,192,223641,1,0,0:0:0:0:
320,192,223892,1,0,0:0:0:0:
192,192,223892,1,0,0:0:0:0:
64,192,223892,1,0,0:0:0:0:
448,192,224142,1,0,0:0:0:0:
320,192,224142,1,0,0:0:0:0:
192,192,224142,1,0,0:0:0:0:
448,192,224267,1,0,0:0:0:0:
64,192,224267,1,0,0:0:0:0:
320,192,224267,1,0,0:0:0:0:
448,192,224393,1,0,0:0:0:0:
192,192,224393,1,0,0:0:0:0:
64,192,224393,1,0,0:0:0:0:
320,192,224643,1,0,0:0:0:0:
192,192,224643,1,0,0:0:0:0:
64,192,224643,1,0,0:0:0:0:
448,192,224894,1,0,0:0:0:0:
192,192,224894,1,0,0:0:0:0:
64,192,224894,1,0,0:0:0:0:
320,192,225144,1,0,0:0:0:0:
448,192,225144,1,0,0:0:0:0:
64,192,225144,1,0,0:0:0:0:
192,192,225395,1,0,0:0:0:0:
320,192,225395,1,8,3:0:0:0:
448,192,225395,1,8,3:0:0:0:
64,192,225395,1,0,0:0:0:0:
192,192,225645,1,0,0:0:0:0:
320,192,225645,1,0,0:0:0:0:
448,192,225645,1,0,0:0:0:0:
64,192,225896,1,0,0:0:0:0:
192,192,225896,1,0,0:0:0:0:
320,192,225896,1,8,3:0:0:0:
448,192,225896,1,8,3:0:0:0:
64,192,226146,1,0,0:0:0:0:
448,192,226146,1,0,0:0:0:0:
192,192,226146,1,0,0:0:0:0:
64,192,226397,1,0,0:0:0:0:
320,192,226397,1,0,0:0:0:0:
448,192,226397,1,0,0:0:0:0:
192,192,226647,1,0,0:0:0:0:
320,192,226647,1,0,0:0:0:0:
448,192,226647,1,0,0:0:0:0:
64,192,226898,1,0,0:0:0:0:
320,192,226898,1,0,0:0:0:0:
192,192,226898,1,0,0:0:0:0:
320,192,227148,1,0,0:0:0:0:
448,192,227148,1,0,0:0:0:0:
64,192,227148,1,0,0:0:0:0:
192,192,227399,1,0,0:0:0:0:
448,192,227399,1,0,0:0:0:0:
64,192,227399,1,0,0:0:0:0:
448,192,227649,1,0,0:0:0:0:
320,192,227649,1,0,0:0:0:0:
192,192,227649,1,0,0:0:0:0:
448,192,227900,1,0,0:0:0:0:
320,192,227900,1,0,0:0:0:0:
64,192,227900,1,0,0:0:0:0:
320,192,228151,1,0,0:0:0:0:
192,192,228151,1,0,0:0:0:0:
448,192,228151,1,0,0:0:0:0:
448,192,228401,1,0,0:0:0:0:
64,192,228401,1,0,0:0:0:0:
192,192,228401,1,0,0:0:0:0:
192,192,228652,1,0,0:0:0:0:
320,192,228652,1,0,0:0:0:0:
64,192,228652,1,0,0:0:0:0:
448,192,228902,1,0,0:0:0:0:
320,192,228902,1,0,0:0:0:0:
64,192,228902,1,0,0:0:0:0:
192,192,229153,1,0,0:0:0:0:
448,192,229153,1,0,0:0:0:0:
64,192,229153,1,0,0:0:0:0:
320,192,229403,1,0,0:0:0:0:
64,192,229403,1,0,0:0:0:0:
192,192,229403,1,0,0:0:0:0:
448,192,229654,1,0,0:0:0:0:
192,192,229654,1,0,0:0:0:0:
320,192,229654,1,0,0:0:0:0:
64,192,229904,1,0,0:0:0:0:
320,192,229904,1,0,0:0:0:0:
192,192,229904,1,0,0:0:0:0:
320,192,230155,1,0,0:0:0:0:
448,192,230155,1,0,0:0:0:0:
64,192,230155,1,0,0:0:0:0:
448,192,230405,1,0,0:0:0:0:
192,192,230405,1,0,0:0:0:0:
320,192,230405,1,0,0:0:0:0:
448,192,230656,1,0,0:0:0:0:
192,192,230656,1,0,0:0:0:0:
64,192,230656,1,0,0:0:0:0:
448,192,230907,1,0,0:0:0:0:
64,192,230907,1,0,0:0:0:0:
320,192,230907,1,0,0:0:0:0:
320,192,231158,1,0,0:0:0:0:
448,192,231158,1,0,0:0:0:0:
192,192,231158,1,0,0:0:0:0:
64,192,231409,1,0,0:0:0:0:
320,192,231409,1,0,0:0:0:0:
448,192,231409,1,0,0:0:0:0:
448,192,231660,1,0,0:0:0:0:
192,192,231660,1,0,0:0:0:0:
64,192,231660,1,0,0:0:0:0:
320,192,231911,1,0,0:0:0:0:
192,192,231911,1,0,0:0:0:0:
64,192,231911,1,0,0:0:0:0:
448,192,232413,1,0,0:0:0:0:
192,192,232413,1,0,0:0:0:0:
320,192,232413,1,0,0:0:0:0:
192,192,232664,1,0,0:0:0:0:
64,192,232664,1,0,0:0:0:0:
320,192,232664,1,0,0:0:0:0:
448,192,232915,1,0,0:0:0:0:
320,192,232915,1,0,0:0:0:0:
64,192,232915,1,0,0:0:0:0:
192,192,233166,1,0,0:0:0:0:
64,192,233166,1,0,0:0:0:0:
448,192,233166,1,0,0:0:0:0:
320,192,233417,1,8,3:0:0:0:
448,192,233417,1,8,3:0:0:0:
192,192,233417,1,0,0:0:0:0:
64,192,233417,1,0,0:0:0:0:
320,192,233668,1,0,0:0:0:0:
192,192,233668,1,0,0:0:0:0:
448,192,233668,1,0,0:0:0:0:
64,192,233919,1,0,0:0:0:0:
192,192,233919,1,0,0:0:0:0:
320,192,233919,1,8,3:0:0:0:
448,192,233919,1,8,3:0:0:0:
64,192,234170,1,0,0:0:0:0:
320,192,234170,1,0,0:0:0:0:
448,192,234170,1,0,0:0:0:0:
320,192,234421,1,0,0:0:0:0:
192,192,234421,1,0,0:0:0:0:
64,192,234421,1,0,0:0:0:0:
448,192,234672,1,0,0:0:0:0:
192,192,234672,1,0,0:0:0:0:
64,192,234672,1,0,0:0:0:0:
192,192,234923,1,0,0:0:0:0:
448,192,234923,1,0,0:0:0:0:
320,192,234923,1,0,0:0:0:0:
192,192,235174,1,0,0:0:0:0:
448,192,235174,1,0,0:0:0:0:
64,192,235174,1,0,0:0:0:0:
64,192,235425,1,0,0:0:0:0:
320,192,235425,1,0,0:0:0:0:
448,192,235425,1,0,0:0:0:0:
320,192,235676,1,0,0:0:0:0:
192,192,235676,1,0,0:0:0:0:
64,192,235676,1,0,0:0:0:0:
448,192,235928,1,0,0:0:0:0:
320,192,235928,1,0,0:0:0:0:
192,192,235928,1,0,0:0:0:0:
64,192,236430,1,0,0:0:0:0:
192,192,236430,1,0,0:0:0:0:
448,192,236430,1,0,0:0:0:0:
64,192,236681,1,0,0:0:0:0:
448,192,236681,1,0,0:0:0:0:
320,192,236681,1,0,0:0:0:0:
64,192,237183,1,0,0:0:0:0:
192,192,237183,1,0,0:0:0:0:
320,192,237183,1,0,0:0:0:0:
448,192,237434,1,0,0:0:0:0:
320,192,237434,1,0,0:0:0:0:
64,192,237434,1,0,0:0:0:0:
192,192,237434,1,0,0:0:0:0:
192,192,237559,1,0,0:0:0:0:
64,192,237559,1,0,0:0:0:0:
320,192,237559,1,0,0:0:0:0:
192,192,237685,1,0,0:0:0:0:
64,192,237685,1,0,0:0:0:0:
64,192,237810,1,0,0:0:0:0:
448,192,237936,1,0,0:0:0:0:
320,192,238061,1,0,0:0:0:0:
448,192,238061,1,0,0:0:0:0:
192,192,238187,1,0,0:0:0:0:
320,192,238187,1,0,0:0:0:0:
448,192,238187,1,0,0:0:0:0:
64,192,238312,1,0,0:0:0:0:
192,192,238312,1,0,0:0:0:0:
448,192,238312,1,0,0:0:0:0:
320,192,238312,1,0,0:0:0:0:
64,192,238438,1,4,0:0:0:0:
192,192,238438,1,4,0:0:0:0:
448,192,238438,1,4,0:0:0:0:
320,192,238688,128,0,238938:0:0:0:0:
64,192,238938,1,0,0:0:0:0:
192,192,238938,1,0,0:0:0:0:
448,192,239188,1,2,0:0:0:0:
320,192,239313,1,2,0:0:0:0:
192,192,239438,1,0,0:0:0:0:
64,192,239438,1,0,0:0:0:0:
448,192,239689,128,4,239939:0:0:0:0:
64,192,239939,1,0,0:0:0:0:
320,192,239939,1,0,0:0:0:0:
192,192,240189,1,2,0:0:0:0:
320,192,240314,1,2,0:0:0:0:
448,192,240439,1,0,0:0:0:0:
192,192,240439,1,0,0:0:0:0:
64,192,240689,128,4,240940:0:0:0:0:
448,192,240940,1,0,0:0:0:0:
320,192,240940,1,0,0:0:0:0:
192,192,241190,1,2,0:0:0:0:
320,192,241315,1,2,0:0:0:0:
64,192,241440,1,0,0:0:0:0:
192,192,241440,1,0,0:0:0:0:
448,192,241690,128,4,241940:0:0:0:0:
320,192,241940,1,0,0:0:0:0:
64,192,241940,1,0,0:0:0:0:
448,192,242191,1,2,0:0:0:0:
64,192,242316,1,2,0:0:0:0:
192,192,242441,128,0,243942:0:0:0:0:
320,192,242691,1,2,0:0:0:0:
64,192,242941,1,0,0:0:0:0:
448,192,242941,1,0,0:0:0:0:
320,192,243191,1,2,0:0:0:0:
448,192,243317,1,2,0:0:0:0:
64,192,243442,1,0,0:0:0:0:
320,192,243442,1,0,0:0:0:0:
448,192,243692,128,4,243942:0:0:0:0:
64,192,243942,1,0,0:0:0:0:
320,192,243942,1,0,0:0:0:0:
192,192,244192,1,2,0:0:0:0:
448,192,244317,1,2,0:0:0:0:
320,192,244443,1,0,0:0:0:0:
192,192,244443,1,0,0:0:0:0:
64,192,244693,128,4,244943:0:0:0:0:
448,192,244943,1,0,0:0:0:0:
320,192,244943,1,0,0:0:0:0:
192,192,245193,1,2,0:0:0:0:
64,192,245318,1,2,0:0:0:0:
320,192,245443,1,0,0:0:0:0:
448,192,245443,1,0,0:0:0:0:
192,192,245692,128,4,245942:0:0:0:0:
320,192,245942,1,0,0:0:0:0:
448,192,245942,1,0,0:0:0:0:
64,192,246192,1,2,0:0:0:0:
192,192,246316,1,2,0:0:0:0:
320,192,246441,128,0,248439:0:0:0:0:
64,192,246441,1,0,0:0:0:0:
448,192,246691,1,2,0:0:0:0:
192,192,246941,1,0,0:0:0:0:
64,192,246941,1,0,0:0:0:0:
448,192,247190,1,2,0:0:0:0:
192,192,247315,1,2,0:0:0:0:
448,192,247440,1,0,0:0:0:0:
64,192,247440,1,0,0:0:0:0:
64,192,247690,128,4,247939:0:0:0:0:
448,192,247939,1,0,0:0:0:0:
192,192,247939,1,0,0:0:0:0:
64,192,248189,1,2,0:0:0:0:
192,192,248314,1,2,0:0:0:0:
448,192,248439,128,0,249438:0:0:0:0:
64,192,248439,1,0,0:0:0:0:
192,192,248688,128,4,248938:0:0:0:0:
64,192,248938,1,0,0:0:0:0:
320,192,248938,1,0,0:0:0:0:
192,192,249188,1,2,0:0:0:0:
320,192,249313,1,2,0:0:0:0:
64,192,249438,128,0,250436:0:0:0:0:
192,192,249438,1,0,0:0:0:0:
320,192,249687,128,4,249937:0:0:0:0:
192,192,249937,1,0,0:0:0:0:
448,192,249937,1,0,0:0:0:0:
192,192,250187,1,2,0:0:0:0:
320,192,250311,1,2,0:0:0:0:
448,192,250436,1,0,0:0:0:0:
192,192,250499,1,0,0:0:0:0:
320,192,250561,1,0,0:0:0:0:
448,192,250624,1,0,0:0:0:0:
64,192,250686,1,0,0:0:0:0:
192,192,250748,1,0,0:0:0:0:
320,192,250811,1,0,0:0:0:0:
448,192,250873,1,0,0:0:0:0:
320,192,250936,1,0,0:0:0:0:
192,192,250998,1,0,0:0:0:0:
64,192,251060,1,0,0:0:0:0:
448,192,251185,1,0,0:0:0:0:
320,192,251310,1,0,0:0:0:0:
192,192,251435,1,0,0:0:0:0:
64,192,251560,1,0,0:0:0:0:
320,192,251685,1,0,0:0:0:0:
192,192,251810,1,0,0:0:0:0:
64,192,251934,1,0,0:0:0:0:
448,192,252059,1,0,0:0:0:0:
320,192,252184,1,0,0:0:0:0:
192,192,252309,1,0,0:0:0:0:
64,192,252434,1,0,0:0:0:0:
192,192,252559,1,0,0:0:0:0:
320,192,252683,1,0,0:0:0:0:
448,192,252808,1,0,0:0:0:0:
64,192,252933,1,0,0:0:0:0:
192,192,253058,1,0,0:0:0:0:
320,192,253183,1,0,0:0:0:0:
448,192,253308,1,0,0:0:0:0:
320,192,253433,1,0,0:0:0:0:
192,192,253557,1,0,0:0:0:0:
64,192,253682,1,0,0:0:0:0:
192,192,253807,1,0,0:0:0:0:
320,192,253932,1,0,0:0:0:0:
448,192,254057,1,0,0:0:0:0:
64,192,254182,1,0,0:0:0:0:
192,192,254306,1,0,0:0:0:0:
320,192,254431,1,0,0:0:0:0:
448,192,254556,1,0,0:0:0:0:
64,192,254681,1,0,0:0:0:0:
192,192,254806,1,0,0:0:0:0:
320,192,254931,1,0,0:0:0:0:
192,192,255055,1,0,0:0:0:0:
64,192,255180,1,0,0:0:0:0:
448,192,255305,1,0,0:0:0:0:
320,192,255430,1,0,0:0:0:0:
192,192,255555,1,0,0:0:0:0:
320,192,255680,1,0,0:0:0:0:
448,192,255805,1,0,0:0:0:0:
192,192,255929,1,0,0:0:0:0:
64,192,255929,128,0,259223:0:0:0:0:
448,192,259223,1,0,0:0:0:0:
320,192,259223,1,0,0:0:0:0:
192,192,259223,1,0,0:0:0:0:
