osu file format v14

[General]
AudioFilename: audio.mp3
AudioLeadIn: 0
PreviewTime: -1
Countdown: 0
SampleSet: Soft
StackLeniency: 0.7
Mode: 1
LetterboxInBreaks: 0
WidescreenStoryboard: 0

[Editor]
Bookmarks: 226,10893,21687,43020,53686,75020,87020,108353,129686,140353,161686,184353,205686,216353,237686,249686,260353,271020,292353,303020,324353,335020
DistanceSpacing: 0.5
BeatDivisor: 4
GridSize: 32
TimelineZoom: 2.899999

[Metadata]
Title:Solar Sect of Mystic Wisdom ~ Nuclear Fusion
TitleUnicode:霊知の太陽信仰 ~ Nuclear Fusion
Artist:GaMetal
ArtistUnicode:GaMetal
Creator:k3v227
Version:Tatsujin
Source:東方Project
Tags:mekadon Subterranean Animism SSoMW Jonny Atma Demetori touhou
BeatmapID:1179189
BeatmapSetID:557268

[Difficulty]
HPDrainRate:3
CircleSize:2
OverallDifficulty:7
ApproachRate:5
SliderMultiplier:1.4
SliderTickRate:1

[Events]
//Background and Video events
0,0,"nuclear fusion - gametal (bg)_edit.jpg",0,0
//Break Periods
//Storyboard Layer 0 (Background)
//Storyboard Layer 1 (Fail)
//Storyboard Layer 2 (Pass)
//Storyboard Layer 3 (Foreground)
//Storyboard Sound Samples

[TimingPoints]
226,333.333333333333,4,2,0,100,1,0
20225,361.44578313253,5,2,0,100,1,0
20225,-92.5925925925926,5,2,0,100,0,0
20947,360.36036036036,5,2,0,100,1,8
20947,-92.5925925925926,5,2,0,100,0,8
21217,352.941176470588,5,2,0,100,1,8
21217,-94.3396226415094,5,2,0,100,0,8
21687,333.333333333333,4,2,0,100,1,0
53686,-100,4,2,0,100,0,1
75020,-100,4,2,0,100,0,0
85686,-100,4,2,0,50,0,0
86353,-100,4,2,0,100,0,0
140353,-100,4,2,0,100,0,1
161686,-100,4,2,0,100,0,0
183020,-100,4,2,0,50,0,0
184353,-100,4,2,0,100,0,1
208353,-100,4,2,0,100,0,0
216353,-100,4,2,0,100,0,1
237686,-100,4,2,0,100,0,0
249020,-111.111111111111,4,2,0,60,0,0
259520,-100,4,2,0,80,0,0
260353,-100,4,2,0,100,0,0
303020,-100,4,2,0,100,0,1
324353,-100,4,2,0,100,0,0

[HitObjects]
256,192,226,5,12,0:0:0:0:
256,192,559,1,0,0:0:0:0:
256,192,892,1,8,0:0:0:0:
256,192,1059,1,0,0:0:0:0:
256,192,1225,1,0,0:0:0:0:
256,192,1392,1,8,0:0:0:0:
256,192,1559,1,0,0:0:0:0:
256,192,1725,1,0,0:0:0:0:
256,192,1892,1,8,0:0:0:0:
256,192,2059,1,0,0:0:0:0:
256,192,2225,1,0,0:0:0:0:
256,192,2392,1,8,0:0:0:0:
256,192,2559,1,12,0:0:0:0:
256,192,2725,1,12,0:0:0:0:
256,192,2892,1,12,0:0:0:0:
256,192,3225,1,0,0:0:0:0:
256,192,3392,1,0,0:0:0:0:
256,192,3448,1,0,0:0:0:0:
256,192,3503,1,0,0:0:0:0:
256,192,3559,1,8,0:0:0:0:
256,192,3725,1,0,0:0:0:0:
256,192,3892,1,0,0:0:0:0:
256,192,4059,1,8,0:0:0:0:
256,192,4225,1,0,0:0:0:0:
256,192,4392,1,0,0:0:0:0:
256,192,4559,1,8,0:0:0:0:
256,192,4725,1,0,0:0:0:0:
256,192,4892,1,0,0:0:0:0:
256,192,5059,1,0,0:0:0:0:
256,192,5142,1,0,0:0:0:0:
256,192,5225,1,8,0:0:0:0:
256,192,5309,1,8,0:0:0:0:
256,192,5392,1,8,0:0:0:0:
256,192,5475,1,8,0:0:0:0:
256,192,5559,1,0,0:0:0:0:
256,192,5892,1,0,0:0:0:0:
256,192,6059,1,0,0:0:0:0:
256,192,6142,1,0,0:0:0:0:
256,192,6225,1,8,0:0:0:0:
256,192,6309,1,0,0:0:0:0:
256,192,6392,1,0,0:0:0:0:
256,192,6475,1,0,0:0:0:0:
256,192,6559,1,0,0:0:0:0:
256,192,6642,1,0,0:0:0:0:
256,192,6725,1,8,0:0:0:0:
256,192,6809,1,0,0:0:0:0:
256,192,6892,1,0,0:0:0:0:
256,192,6975,1,0,0:0:0:0:
256,192,7059,1,0,0:0:0:0:
256,192,7142,1,0,0:0:0:0:
256,192,7225,1,8,0:0:0:0:
256,192,7281,1,8,0:0:0:0:
256,192,7337,1,8,0:0:0:0:
256,192,7392,1,0,0:0:0:0:
256,192,7475,1,0,0:0:0:0:
256,192,7559,1,8,0:0:0:0:
256,192,7614,1,8,0:0:0:0:
256,192,7670,1,8,0:0:0:0:
256,192,7725,1,0,0:0:0:0:
256,192,7809,1,0,0:0:0:0:
256,192,7892,1,8,0:0:0:0:
256,192,7975,1,8,0:0:0:0:
256,192,8059,1,8,0:0:0:0:
256,192,8142,1,8,0:0:0:0:
256,192,8225,1,0,0:0:0:0:
256,192,8559,1,0,0:0:0:0:
256,192,8725,1,0,0:0:0:0:
256,192,8809,1,0,0:0:0:0:
256,192,8892,1,8,0:0:0:0:
256,192,8948,1,8,0:0:0:0:
256,192,9003,1,8,0:0:0:0:
256,192,9059,1,0,0:0:0:0:
256,192,9142,1,0,0:0:0:0:
256,192,9225,1,8,0:0:0:0:
256,192,9281,1,8,0:0:0:0:
256,192,9337,1,8,0:0:0:0:
256,192,9392,1,0,0:0:0:0:
256,192,9475,1,0,0:0:0:0:
256,192,9559,1,8,0:0:0:0:
256,192,9642,1,0,0:0:0:0:
256,192,9725,1,0,0:0:0:0:
256,192,9809,1,0,0:0:0:0:
256,192,9892,1,8,0:0:0:0:
256,192,9975,1,0,0:0:0:0:
256,192,10059,1,8,0:0:0:0:
256,192,10142,1,0,0:0:0:0:
256,192,10225,1,0,0:0:0:0:
256,192,10309,1,0,0:0:0:0:
256,192,10392,1,8,0:0:0:0:
256,192,10475,1,0,0:0:0:0:
256,192,10559,1,8,0:0:0:0:
256,192,10642,1,8,0:0:0:0:
256,192,10725,1,0,0:0:0:0:
256,192,10892,1,4,0:0:0:0:
256,192,11225,1,0,0:0:0:0:
256,192,11559,1,8,0:0:0:0:
256,192,11642,1,0,0:0:0:0:
256,192,11725,1,0,0:0:0:0:
256,192,11809,1,0,0:0:0:0:
256,192,11892,1,0,0:0:0:0:
256,192,11975,1,0,0:0:0:0:
256,192,12059,1,8,0:0:0:0:
256,192,12142,1,0,0:0:0:0:
256,192,12225,1,0,0:0:0:0:
256,192,12309,1,0,0:0:0:0:
256,192,12392,1,0,0:0:0:0:
256,192,12475,1,0,0:0:0:0:
256,192,12559,1,8,0:0:0:0:
256,192,12642,1,0,0:0:0:0:
256,192,12725,1,0,0:0:0:0:
256,192,12809,1,0,0:0:0:0:
256,192,12892,1,0,0:0:0:0:
256,192,12975,1,0,0:0:0:0:
256,192,13059,1,8,0:0:0:0:
256,192,13142,1,8,0:0:0:0:
256,192,13225,1,8,0:0:0:0:
256,192,13309,1,8,0:0:0:0:
256,192,13392,1,0,0:0:0:0:
256,192,13475,1,0,0:0:0:0:
256,192,13559,1,8,0:0:0:0:
256,192,13725,1,0,0:0:0:0:
256,192,13781,1,0,0:0:0:0:
256,192,13837,1,0,0:0:0:0:
256,192,13892,1,8,0:0:0:0:
256,192,14225,1,8,0:0:0:0:
256,192,14309,1,0,0:0:0:0:
256,192,14392,1,0,0:0:0:0:
256,192,14475,1,0,0:0:0:0:
256,192,14559,1,8,0:0:0:0:
256,192,14642,1,0,0:0:0:0:
256,192,14725,1,8,0:0:0:0:
256,192,14809,1,0,0:0:0:0:
256,192,14892,1,0,0:0:0:0:
256,192,14975,1,0,0:0:0:0:
256,192,15059,1,8,0:0:0:0:
256,192,15142,1,0,0:0:0:0:
256,192,15225,1,8,0:0:0:0:
256,192,15309,1,0,0:0:0:0:
256,192,15392,1,8,0:0:0:0:
256,192,15475,1,8,0:0:0:0:
256,192,15559,1,0,0:0:0:0:
256,192,15642,1,0,0:0:0:0:
256,192,15725,1,8,0:0:0:0:
256,192,15809,1,8,0:0:0:0:
256,192,15892,1,0,0:0:0:0:
256,192,15975,1,0,0:0:0:0:
256,192,16059,1,8,0:0:0:0:
256,192,16142,1,0,0:0:0:0:
256,192,16225,1,8,0:0:0:0:
256,192,16392,1,8,0:0:0:0:
256,192,16559,1,0,0:0:0:0:
256,192,16892,1,8,0:0:0:0:
256,192,16975,1,0,0:0:0:0:
256,192,17059,1,0,0:0:0:0:
256,192,17142,1,0,0:0:0:0:
256,192,17225,1,0,0:0:0:0:
256,192,17309,1,0,0:0:0:0:
256,192,17392,1,8,0:0:0:0:
256,192,17475,1,0,0:0:0:0:
256,192,17559,1,0,0:0:0:0:
256,192,17642,1,0,0:0:0:0:
256,192,17725,1,0,0:0:0:0:
256,192,17809,1,0,0:0:0:0:
256,192,17892,1,8,0:0:0:0:
256,192,17975,1,0,0:0:0:0:
256,192,18059,1,0,0:0:0:0:
256,192,18142,1,0,0:0:0:0:
256,192,18225,1,0,0:0:0:0:
256,192,18309,1,0,0:0:0:0:
256,192,18392,1,8,0:0:0:0:
256,192,18475,1,8,0:0:0:0:
256,192,18559,1,0,0:0:0:0:
256,192,18642,1,0,0:0:0:0:
256,192,18725,1,0,0:0:0:0:
256,192,18809,1,0,0:0:0:0:
256,192,18892,1,0,0:0:0:0:
256,192,19225,1,0,0:0:0:0:
256,192,19392,1,0,0:0:0:0:
256,192,19475,1,0,0:0:0:0:
256,192,19559,1,8,0:0:0:0:
256,192,19642,1,0,0:0:0:0:
256,192,19725,1,8,0:0:0:0:
256,192,19809,1,0,0:0:0:0:
256,192,19892,1,8,0:0:0:0:
256,192,19975,1,0,0:0:0:0:
256,192,20059,1,8,0:0:0:0:
256,192,20142,1,0,0:0:0:0:
256,192,20225,1,0,0:0:0:0:
256,192,20315,1,8,0:0:0:0:
256,192,20405,1,0,0:0:0:0:
256,192,20496,1,0,0:0:0:0:
256,192,20586,1,8,0:0:0:0:
256,192,20676,1,8,0:0:0:0:
256,192,20767,1,0,0:0:0:0:
256,192,20857,1,0,0:0:0:0:
256,192,20947,1,8,0:0:0:0:
256,192,21007,1,8,0:0:0:0:
256,192,21067,1,8,0:0:0:0:
256,192,21127,1,0,0:0:0:0:
256,192,21217,1,0,0:0:0:0:
256,192,21305,1,12,0:0:0:0:
256,192,21481,1,12,0:0:0:0:
256,192,21687,1,4,0:0:0:0:
256,192,22020,1,4,0:0:0:0:
256,192,22187,1,0,0:0:0:0:
256,192,22270,1,0,0:0:0:0:
256,192,22353,1,8,0:0:0:0:
256,192,22520,1,4,0:0:0:0:
256,192,22853,1,8,0:0:0:0:
256,192,22937,1,8,0:0:0:0:
256,192,23020,1,0,0:0:0:0:
256,192,23353,1,8,0:0:0:0:
256,192,23520,1,4,0:0:0:0:
256,192,23853,1,0,0:0:0:0:
256,192,23936,1,0,0:0:0:0:
256,192,24020,1,8,0:0:0:0:
256,192,24353,1,4,0:0:0:0:
256,192,24520,1,0,0:0:0:0:
256,192,24603,1,0,0:0:0:0:
256,192,24686,1,8,0:0:0:0:
256,192,24853,1,0,0:0:0:0:
256,192,24936,1,0,0:0:0:0:
256,192,25020,1,0,0:0:0:0:
256,192,25186,1,0,0:0:0:0:
256,192,25353,1,8,0:0:0:0:
256,192,25520,1,8,0:0:0:0:
256,192,25603,1,8,0:0:0:0:
256,192,25686,1,0,0:0:0:0:
256,192,25853,1,0,0:0:0:0:
256,192,25936,1,0,0:0:0:0:
256,192,26020,1,8,0:0:0:0:
256,192,26186,1,0,0:0:0:0:
256,192,26270,1,0,0:0:0:0:
256,192,26353,1,0,0:0:0:0:
256,192,26520,1,0,0:0:0:0:
256,192,26686,1,8,0:0:0:0:
256,192,26770,1,8,0:0:0:0:
256,192,26853,1,8,0:0:0:0:
256,192,26936,1,8,0:0:0:0:
256,192,27020,1,0,0:0:0:0:
256,192,27353,1,4,0:0:0:0:
256,192,27520,1,0,0:0:0:0:
256,192,27603,1,0,0:0:0:0:
256,192,27686,1,8,0:0:0:0:
256,192,27853,1,12,0:0:0:0:
256,192,28020,1,0,0:0:0:0:
256,192,28186,1,0,0:0:0:0:
256,192,28353,1,12,0:0:0:0:
256,192,28520,1,0,0:0:0:0:
256,192,28686,1,0,0:0:0:0:
256,192,28853,1,0,0:0:0:0:
256,192,28936,1,0,0:0:0:0:
256,192,29020,1,8,0:0:0:0:
256,192,29103,1,8,0:0:0:0:
256,192,29186,1,0,0:0:0:0:
256,192,29270,1,0,0:0:0:0:
256,192,29353,1,8,0:0:0:0:
256,192,29436,1,8,0:0:0:0:
256,192,29520,1,0,0:0:0:0:
256,192,29603,1,8,0:0:0:0:
256,192,29686,1,0,0:0:0:0:
256,192,29853,1,0,0:0:0:0:
256,192,29936,1,0,0:0:0:0:
256,192,30020,1,8,0:0:0:0:
256,192,30186,1,0,0:0:0:0:
256,192,30270,1,0,0:0:0:0:
256,192,30353,1,0,0:0:0:0:
256,192,30520,1,0,0:0:0:0:
256,192,30686,1,8,0:0:0:0:
256,192,30853,1,8,0:0:0:0:
256,192,30936,1,8,0:0:0:0:
256,192,31020,1,0,0:0:0:0:
256,192,31186,1,0,0:0:0:0:
256,192,31270,1,0,0:0:0:0:
256,192,31353,1,0,0:0:0:0:
256,192,31520,1,12,0:0:0:0:
256,192,31686,1,0,0:0:0:0:
256,192,31770,1,0,0:0:0:0:
256,192,31853,1,0,0:0:0:0:
256,192,32020,1,12,0:0:0:0:
256,192,32186,1,12,0:0:0:0:
256,192,32353,1,8,0:0:0:0:
256,192,32436,1,0,0:0:0:0:
256,192,32520,1,0,0:0:0:0:
256,192,32603,1,0,0:0:0:0:
256,192,32686,1,8,0:0:0:0:
256,192,32770,1,0,0:0:0:0:
256,192,32853,1,0,0:0:0:0:
256,192,32936,1,0,0:0:0:0:
256,192,33020,1,0,0:0:0:0:
256,192,33103,1,0,0:0:0:0:
256,192,33186,1,8,0:0:0:0:
256,192,33270,1,0,0:0:0:0:
256,192,33353,1,0,0:0:0:0:
256,192,33436,1,0,0:0:0:0:
256,192,33520,1,0,0:0:0:0:
256,192,33603,1,0,0:0:0:0:
256,192,33686,1,8,0:0:0:0:
256,192,33770,1,0,0:0:0:0:
256,192,33853,1,0,0:0:0:0:
256,192,33936,1,0,0:0:0:0:
256,192,34020,1,0,0:0:0:0:
256,192,34103,1,0,0:0:0:0:
256,192,34186,1,8,0:0:0:0:
256,192,34270,1,0,0:0:0:0:
256,192,34353,1,0,0:0:0:0:
256,192,34436,1,8,0:0:0:0:
256,192,34520,1,8,0:0:0:0:
256,192,34603,1,0,0:0:0:0:
256,192,34686,1,8,0:0:0:0:
256,192,34770,1,8,0:0:0:0:
256,192,34853,1,8,0:0:0:0:
256,192,34936,1,8,0:0:0:0:
256,192,35020,1,0,0:0:0:0:
256,192,35353,1,8,0:0:0:0:
256,192,35686,1,0,0:0:0:0:
256,192,35853,1,0,0:0:0:0:
256,192,35936,1,0,0:0:0:0:
256,192,36020,1,8,0:0:0:0:
256,192,36186,1,0,0:0:0:0:
256,192,36353,1,0,0:0:0:0:
256,192,36686,1,8,0:0:0:0:
256,192,36853,1,0,0:0:0:0:
256,192,36936,1,0,0:0:0:0:
256,192,37020,1,8,0:0:0:0:
256,192,37103,1,8,0:0:0:0:
256,192,37186,1,0,0:0:0:0:
256,192,37270,1,0,0:0:0:0:
256,192,37353,1,8,0:0:0:0:
256,192,37436,1,8,0:0:0:0:
256,192,37520,1,0,0:0:0:0:
256,192,37686,1,8,0:0:0:0:
256,192,37770,1,0,0:0:0:0:
256,192,37853,1,0,0:0:0:0:
256,192,37936,1,0,0:0:0:0:
256,192,38020,1,8,0:0:0:0:
256,192,38103,1,0,0:0:0:0:
256,192,38186,1,0,0:0:0:0:
256,192,38270,1,0,0:0:0:0:
256,192,38353,1,8,0:0:0:0:
256,192,38436,1,0,0:0:0:0:
256,192,38520,1,8,0:0:0:0:
256,192,38603,1,8,0:0:0:0:
256,192,38686,1,0,0:0:0:0:
256,192,38770,1,0,0:0:0:0:
256,192,38853,1,8,0:0:0:0:
256,192,38936,1,0,0:0:0:0:
256,192,39020,1,8,0:0:0:0:
256,192,39103,1,8,0:0:0:0:
256,192,39186,1,0,0:0:0:0:
256,192,39270,1,0,0:0:0:0:
256,192,39353,1,8,0:0:0:0:
256,192,39436,1,0,0:0:0:0:
256,192,39520,1,8,0:0:0:0:
256,192,39603,1,0,0:0:0:0:
256,192,39686,1,0,0:0:0:0:
256,192,39770,1,0,0:0:0:0:
256,192,39853,1,0,0:0:0:0:
256,192,39936,1,0,0:0:0:0:
256,192,40020,1,8,0:0:0:0:
256,192,40186,1,12,0:0:0:0:
256,192,40353,1,4,0:0:0:0:
256,192,40686,1,8,0:0:0:0:
256,192,41020,1,0,0:0:0:0:
256,192,41103,1,0,0:0:0:0:
256,192,41186,1,0,0:0:0:0:
256,192,41270,1,0,0:0:0:0:
256,192,41353,1,8,0:0:0:0:
256,192,41520,1,0,0:0:0:0:
256,192,41686,1,0,0:0:0:0:
256,192,42020,1,8,0:0:0:0:
256,192,42186,1,0,0:0:0:0:
256,192,42270,1,0,0:0:0:0:
256,192,42353,1,8,0:0:0:0:
256,192,42436,1,8,0:0:0:0:
256,192,42520,1,0,0:0:0:0:
256,192,42603,1,0,0:0:0:0:
256,192,42686,1,8,0:0:0:0:
256,192,42770,1,8,0:0:0:0:
256,192,42853,1,8,0:0:0:0:
256,192,43020,1,4,0:0:0:0:
256,192,43353,1,4,0:0:0:0:
256,192,43686,1,0,0:0:0:0:
256,192,43770,1,0,0:0:0:0:
256,192,43853,1,8,0:0:0:0:
256,192,44020,1,0,0:0:0:0:
256,192,44186,1,0,0:0:0:0:
256,192,44353,1,12,0:0:0:0:
256,192,44520,1,0,0:0:0:0:
256,192,44686,1,0,0:0:0:0:
256,192,44853,1,12,0:0:0:0:
256,192,45020,1,0,0:0:0:0:
256,192,45186,1,0,0:0:0:0:
256,192,45353,1,12,0:0:0:0:
256,192,45520,1,8,0:0:0:0:
256,192,45603,1,8,0:0:0:0:
256,192,45686,1,0,0:0:0:0:
256,192,46020,1,4,0:0:0:0:
256,192,46353,1,0,0:0:0:0:
256,192,46436,1,0,0:0:0:0:
256,192,46520,1,8,0:0:0:0:
256,192,46686,1,0,0:0:0:0:
256,192,46853,1,0,0:0:0:0:
256,192,47020,1,12,0:0:0:0:
256,192,47186,1,0,0:0:0:0:
256,192,47353,1,0,0:0:0:0:
256,192,47520,1,12,0:0:0:0:
256,192,47686,1,0,0:0:0:0:
256,192,47853,1,0,0:0:0:0:
256,192,48020,1,12,0:0:0:0:
256,192,48186,1,0,0:0:0:0:
256,192,48353,1,4,0:0:0:0:
256,192,48686,1,4,0:0:0:0:
256,192,49020,1,0,0:0:0:0:
256,192,49103,1,0,0:0:0:0:
256,192,49186,1,8,0:0:0:0:
256,192,49270,1,0,0:0:0:0:
256,192,49353,1,0,0:0:0:0:
256,192,49436,1,0,0:0:0:0:
256,192,49520,1,0,0:0:0:0:
256,192,49603,1,0,0:0:0:0:
256,192,49686,1,8,0:0:0:0:
256,192,49770,1,0,0:0:0:0:
256,192,49853,1,0,0:0:0:0:
256,192,49936,1,0,0:0:0:0:
256,192,50020,1,0,0:0:0:0:
256,192,50103,1,0,0:0:0:0:
256,192,50186,1,8,0:0:0:0:
256,192,50270,1,0,0:0:0:0:
256,192,50353,1,0,0:0:0:0:
256,192,50436,1,0,0:0:0:0:
256,192,50520,1,8,0:0:0:0:
256,192,50603,1,0,0:0:0:0:
256,192,50686,1,8,0:0:0:0:
256,192,50770,1,8,0:0:0:0:
256,192,50853,1,0,0:0:0:0:
256,192,50936,1,0,0:0:0:0:
256,192,51020,1,8,0:0:0:0:
256,192,51186,1,0,0:0:0:0:
256,192,51353,1,8,0:0:0:0:
256,192,51520,1,0,0:0:0:0:
256,192,51686,1,0,0:0:0:0:
256,192,51853,1,8,0:0:0:0:
256,192,51936,1,8,0:0:0:0:
256,192,52020,1,0,0:0:0:0:
256,192,52103,1,0,0:0:0:0:
256,192,52186,1,0,0:0:0:0:
256,192,52270,1,0,0:0:0:0:
256,192,52353,1,8,0:0:0:0:
256,192,52520,1,0,0:0:0:0:
256,192,52603,1,0,0:0:0:0:
256,192,52686,1,8,0:0:0:0:
256,192,52770,1,8,0:0:0:0:
256,192,52853,1,0,0:0:0:0:
256,192,52936,1,0,0:0:0:0:
256,192,53020,1,8,0:0:0:0:
256,192,53103,1,8,0:0:0:0:
256,192,53186,1,0,0:0:0:0:
256,192,53270,1,0,0:0:0:0:
256,192,53353,1,8,0:0:0:0:
256,192,53409,1,8,0:0:0:0:
256,192,53464,1,0,0:0:0:0:
256,192,53520,1,0,0:0:0:0:
256,192,53575,1,0,0:0:0:0:
256,192,53631,1,0,0:0:0:0:
256,192,53686,1,0,0:0:0:0:
256,192,54020,1,8,0:0:0:0:
256,192,54186,1,0,0:0:0:0:
256,192,54270,1,0,0:0:0:0:
256,192,54353,1,0,0:0:0:0:
256,192,54520,1,0,0:0:0:0:
256,192,54686,1,8,0:0:0:0:
256,192,55020,1,0,0:0:0:0:
256,192,55353,1,8,0:0:0:0:
256,192,55520,1,0,0:0:0:0:
256,192,55603,1,0,0:0:0:0:
256,192,55686,1,0,0:0:0:0:
256,192,55853,1,0,0:0:0:0:
256,192,56020,1,8,0:0:0:0:
256,192,56103,1,0,0:0:0:0:
256,192,56186,1,0,0:0:0:0:
256,192,56270,1,0,0:0:0:0:
256,192,56353,1,0,0:0:0:0:
256,192,56686,1,8,0:0:0:0:
256,192,56853,1,0,0:0:0:0:
256,192,56936,1,0,0:0:0:0:
256,192,57020,1,0,0:0:0:0:
256,192,57186,1,8,0:0:0:0:
256,192,57353,1,8,0:0:0:0:
256,192,57520,1,4,0:0:0:0:
256,192,57853,1,0,0:0:0:0:
256,192,57936,1,0,0:0:0:0:
256,192,58020,1,8,0:0:0:0:
256,192,58103,1,8,0:0:0:0:
256,192,58186,1,0,0:0:0:0:
256,192,58270,1,0,0:0:0:0:
256,192,58353,1,8,0:0:0:0:
256,192,58520,1,0,0:0:0:0:
256,192,58575,1,0,0:0:0:0:
256,192,58631,1,0,0:0:0:0:
256,192,58686,1,8,0:0:0:0:
256,192,58853,1,0,0:0:0:0:
256,192,59020,1,4,0:0:0:0:
256,192,59353,1,8,0:0:0:0:
256,192,59520,1,0,0:0:0:0:
256,192,59603,1,0,0:0:0:0:
256,192,59686,1,0,0:0:0:0:
256,192,59853,1,8,0:0:0:0:
256,192,60020,1,8,0:0:0:0:
256,192,60353,1,0,0:0:0:0:
256,192,60520,1,8,0:0:0:0:
256,192,60686,1,8,0:0:0:0:
256,192,60770,1,0,0:0:0:0:
256,192,60853,1,8,0:0:0:0:
256,192,61186,1,0,0:0:0:0:
256,192,61353,1,8,0:0:0:0:
256,192,61520,1,8,0:0:0:0:
256,192,61603,1,8,0:0:0:0:
256,192,61686,1,0,0:0:0:0:
256,192,62020,1,8,0:0:0:0:
256,192,62186,1,0,0:0:0:0:
256,192,62520,1,0,0:0:0:0:
256,192,62686,1,8,0:0:0:0:
256,192,63020,1,0,0:0:0:0:
256,192,63186,1,8,0:0:0:0:
256,192,63353,1,8,0:0:0:0:
256,192,63520,1,8,0:0:0:0:
256,192,63603,1,8,0:0:0:0:
256,192,63686,1,0,0:0:0:0:
256,192,63853,1,8,0:0:0:0:
256,192,63909,1,8,0:0:0:0:
256,192,63964,1,8,0:0:0:0:
256,192,64020,1,0,0:0:0:0:
256,192,64103,1,0,0:0:0:0:
256,192,64186,1,8,0:0:0:0:
256,192,64270,1,8,0:0:0:0:
256,192,64353,1,0,0:0:0:0:
256,192,64520,1,0,0:0:0:0:
256,192,64686,1,8,0:0:0:0:
256,192,64853,1,0,0:0:0:0:
256,192,64936,1,0,0:0:0:0:
256,192,65020,1,0,0:0:0:0:
256,192,65186,1,0,0:0:0:0:
256,192,65353,1,8,0:0:0:0:
256,192,65520,1,0,0:0:0:0:
256,192,65686,1,0,0:0:0:0:
256,192,65853,1,0,0:0:0:0:
256,192,66020,1,8,0:0:0:0:
256,192,66186,1,0,0:0:0:0:
256,192,66270,1,0,0:0:0:0:
256,192,66353,1,0,0:0:0:0:
256,192,66520,1,0,0:0:0:0:
256,192,66686,1,8,0:0:0:0:
256,192,66853,1,0,0:0:0:0:
256,192,67020,1,0,0:0:0:0:
256,192,67186,1,0,0:0:0:0:
256,192,67353,1,8,0:0:0:0:
256,192,67520,1,0,0:0:0:0:
256,192,67603,1,0,0:0:0:0:
256,192,67686,1,0,0:0:0:0:
256,192,67853,1,8,0:0:0:0:
256,192,68020,1,8,0:0:0:0:
256,192,68186,1,4,0:0:0:0:
256,192,68520,1,0,0:0:0:0:
256,192,68686,1,8,0:0:0:0:
256,192,68853,1,0,0:0:0:0:
256,192,69020,1,0,0:0:0:0:
256,192,69186,1,0,0:0:0:0:
256,192,69270,1,0,0:0:0:0:
256,192,69353,1,8,0:0:0:0:
256,192,69436,1,8,0:0:0:0:
256,192,69520,1,8,0:0:0:0:
256,192,69603,1,8,0:0:0:0:
256,192,69686,1,0,0:0:0:0:
256,192,69770,1,0,0:0:0:0:
256,192,69853,1,0,0:0:0:0:
256,192,69936,1,0,0:0:0:0:
256,192,70020,1,8,0:0:0:0:
256,192,70103,1,0,0:0:0:0:
256,192,70186,1,0,0:0:0:0:
256,192,70270,1,0,0:0:0:0:
256,192,70353,1,0,0:0:0:0:
256,192,70520,1,0,0:0:0:0:
256,192,70603,1,0,0:0:0:0:
256,192,70686,1,8,0:0:0:0:
256,192,70853,1,0,0:0:0:0:
256,192,70936,1,0,0:0:0:0:
256,192,71020,1,0,0:0:0:0:
256,192,71103,1,0,0:0:0:0:
256,192,71186,1,0,0:0:0:0:
256,192,71270,1,0,0:0:0:0:
256,192,71353,1,8,0:0:0:0:
256,192,71436,1,0,0:0:0:0:
256,192,71520,1,0,0:0:0:0:
256,192,71603,1,0,0:0:0:0:
256,192,71686,1,8,0:0:0:0:
256,192,71770,1,0,0:0:0:0:
256,192,71853,1,8,0:0:0:0:
256,192,71936,1,0,0:0:0:0:
256,192,72020,1,8,0:0:0:0:
256,192,72103,1,8,0:0:0:0:
256,192,72186,1,0,0:0:0:0:
256,192,72270,1,0,0:0:0:0:
256,192,72353,1,0,0:0:0:0:
256,192,72520,1,0,0:0:0:0:
256,192,72603,1,0,0:0:0:0:
256,192,72686,1,8,0:0:0:0:
256,192,72770,1,0,0:0:0:0:
256,192,72853,1,0,0:0:0:0:
256,192,72936,1,0,0:0:0:0:
256,192,73020,1,8,0:0:0:0:
256,192,73103,1,8,0:0:0:0:
256,192,73186,1,0,0:0:0:0:
256,192,73270,1,0,0:0:0:0:
256,192,73353,1,8,0:0:0:0:
256,192,73520,1,0,0:0:0:0:
256,192,73603,1,0,0:0:0:0:
256,192,73686,1,8,0:0:0:0:
256,192,73770,1,0,0:0:0:0:
256,192,73853,1,0,0:0:0:0:
256,192,73936,1,0,0:0:0:0:
256,192,74020,1,8,0:0:0:0:
256,192,74103,1,8,0:0:0:0:
256,192,74186,1,0,0:0:0:0:
256,192,74270,1,0,0:0:0:0:
256,192,74353,1,8,0:0:0:0:
256,192,74409,1,8,0:0:0:0:
256,192,74464,1,8,0:0:0:0:
256,192,74520,1,0,0:0:0:0:
256,192,74603,1,0,0:0:0:0:
256,192,74686,1,8,0:0:0:0:
256,192,74770,1,8,0:0:0:0:
256,192,74853,1,0,0:0:0:0:
256,192,74936,1,0,0:0:0:0:
256,192,75020,1,8,0:0:0:0:
256,192,75186,1,8,0:0:0:0:
256,192,75353,1,8,0:0:0:0:
256,192,75520,1,0,0:0:0:0:
256,192,75686,1,12,0:0:0:0:
256,192,75853,1,0,0:0:0:0:
256,192,76020,1,0,0:0:0:0:
256,192,76186,1,12,0:0:0:0:
256,192,76353,1,0,0:0:0:0:
256,192,76520,1,0,0:0:0:0:
256,192,76686,1,12,0:0:0:0:
256,192,76853,1,0,0:0:0:0:
256,192,77020,1,0,0:0:0:0:
256,192,77186,1,12,0:0:0:0:
256,192,77353,1,12,0:0:0:0:
256,192,77520,1,0,0:0:0:0:
256,192,77686,1,12,0:0:0:0:
256,192,77853,1,0,0:0:0:0:
256,192,78020,1,12,0:0:0:0:
256,192,78186,1,0,0:0:0:0:
256,192,78353,1,12,0:0:0:0:
256,192,78520,1,0,0:0:0:0:
256,192,78686,1,0,0:0:0:0:
256,192,78853,1,12,0:0:0:0:
256,192,79020,1,0,0:0:0:0:
256,192,79186,1,0,0:0:0:0:
256,192,79353,1,12,0:0:0:0:
256,192,79520,1,0,0:0:0:0:
256,192,79686,1,0,0:0:0:0:
256,192,79853,1,12,0:0:0:0:
256,192,80020,1,0,0:0:0:0:
256,192,80103,1,0,0:0:0:0:
256,192,80186,1,0,0:0:0:0:
256,192,80270,1,0,0:0:0:0:
256,192,80353,1,8,0:0:0:0:
256,192,80520,1,4,0:0:0:0:
256,192,80686,1,4,0:0:0:0:
256,192,81020,1,8,0:0:0:0:
256,192,81103,1,8,0:0:0:0:
256,192,81186,1,0,0:0:0:0:
256,192,81270,1,0,0:0:0:0:
256,192,81353,1,0,0:0:0:0:
256,192,81436,1,0,0:0:0:0:
256,192,81520,1,8,0:0:0:0:
256,192,81603,1,8,0:0:0:0:
256,192,81686,1,0,0:0:0:0:
256,192,81770,1,0,0:0:0:0:
256,192,81853,1,0,0:0:0:0:
256,192,81936,1,0,0:0:0:0:
256,192,82020,1,8,0:0:0:0:
256,192,82103,1,8,0:0:0:0:
256,192,82186,1,0,0:0:0:0:
256,192,82270,1,0,0:0:0:0:
256,192,82353,1,0,0:0:0:0:
256,192,82436,1,0,0:0:0:0:
256,192,82520,1,8,0:0:0:0:
256,192,82603,1,8,0:0:0:0:
256,192,82686,1,8,0:0:0:0:
256,192,82770,1,8,0:0:0:0:
256,192,82853,1,0,0:0:0:0:
256,192,82936,1,0,0:0:0:0:
256,192,83020,1,8,0:0:0:0:
256,192,83103,1,8,0:0:0:0:
256,192,83186,1,8,0:0:0:0:
256,192,83270,1,8,0:0:0:0:
256,192,83353,1,0,0:0:0:0:
256,192,83686,1,8,0:0:0:0:
256,192,83770,1,0,0:0:0:0:
256,192,83853,1,0,0:0:0:0:
256,192,83936,1,0,0:0:0:0:
256,192,84020,1,0,0:0:0:0:
256,192,84103,1,0,0:0:0:0:
256,192,84186,1,8,0:0:0:0:
256,192,84270,1,0,0:0:0:0:
256,192,84353,1,8,0:0:0:0:
256,192,84436,1,8,0:0:0:0:
256,192,84520,1,0,0:0:0:0:
256,192,84603,1,0,0:0:0:0:
256,192,84686,1,8,0:0:0:0:
256,192,84770,1,8,0:0:0:0:
256,192,84853,1,0,0:0:0:0:
256,192,84936,1,0,0:0:0:0:
256,192,85020,1,8,0:0:0:0:
256,192,85103,1,0,0:0:0:0:
256,192,85186,1,0,0:0:0:0:
256,192,85270,1,8,0:0:0:0:
256,192,85353,1,0,0:0:0:0:
256,192,85436,1,0,0:0:0:0:
256,192,85520,1,8,0:0:0:0:
256,192,85603,1,8,0:0:0:0:
384,64,86353,2,0,L|480:96,1,70
256,192,86686,1,0,0:0:0:0:
256,192,86853,1,0,0:0:0:0:
256,192,87020,1,12,0:0:0:0:
256,192,87353,1,12,0:0:0:0:
256,192,87686,1,8,0:0:0:0:
256,192,87853,1,4,0:0:0:0:
256,192,88186,1,8,0:0:0:0:
256,192,88270,1,8,0:0:0:0:
256,192,88353,1,0,0:0:0:0:
256,192,88686,1,8,0:0:0:0:
256,192,88853,1,4,0:0:0:0:
256,192,89186,1,0,0:0:0:0:
256,192,89353,1,8,0:0:0:0:
256,192,89686,1,4,0:0:0:0:
256,192,90020,1,8,0:0:0:0:
256,192,90353,1,0,0:0:0:0:
256,192,90520,1,0,0:0:0:0:
256,192,90686,1,8,0:0:0:0:
256,192,91020,1,0,0:0:0:0:
256,192,91353,1,8,0:0:0:0:
256,192,91686,1,0,0:0:0:0:
256,192,91853,1,0,0:0:0:0:
256,192,91936,1,0,0:0:0:0:
256,192,92020,1,8,0:0:0:0:
256,192,92186,1,0,0:0:0:0:
256,192,92270,1,0,0:0:0:0:
256,192,92353,1,0,0:0:0:0:
256,192,92686,1,4,0:0:0:0:
256,192,93020,1,0,0:0:0:0:
256,192,93186,1,12,0:0:0:0:
256,192,93520,1,0,0:0:0:0:
256,192,93603,1,0,0:0:0:0:
256,192,93686,1,8,0:0:0:0:
256,192,94020,1,0,0:0:0:0:
256,192,94186,1,12,0:0:0:0:
256,192,94520,1,0,0:0:0:0:
256,192,94686,1,12,0:0:0:0:
256,192,94853,1,0,0:0:0:0:
256,192,95020,1,4,0:0:0:0:
256,192,95353,1,8,0:0:0:0:
256,192,95686,1,0,0:0:0:0:
256,192,95853,1,0,0:0:0:0:
256,192,96020,1,8,0:0:0:0:
256,192,96353,1,0,0:0:0:0:
256,192,96686,1,8,0:0:0:0:
256,192,97020,1,0,0:0:0:0:
256,192,97186,1,0,0:0:0:0:
256,192,97353,1,8,0:0:0:0:
256,192,97686,1,4,0:0:0:0:
256,192,98020,1,4,0:0:0:0:
256,192,98353,1,0,0:0:0:0:
256,192,98436,1,0,0:0:0:0:
256,192,98520,1,8,0:0:0:0:
256,192,98853,1,0,0:0:0:0:
256,192,98936,1,0,0:0:0:0:
256,192,99020,1,8,0:0:0:0:
256,192,99353,1,0,0:0:0:0:
256,192,99436,1,0,0:0:0:0:
256,192,99520,1,8,0:0:0:0:
256,192,99853,1,0,0:0:0:0:
256,192,99936,1,0,0:0:0:0:
256,192,100020,1,8,0:0:0:0:
256,192,100103,1,8,0:0:0:0:
256,192,100186,1,0,0:0:0:0:
256,192,100353,1,4,0:0:0:0:
256,192,100686,1,8,0:0:0:0:
256,192,101020,1,0,0:0:0:0:
256,192,101186,1,0,0:0:0:0:
256,192,101353,1,8,0:0:0:0:
256,192,101686,1,0,0:0:0:0:
256,192,102020,1,8,0:0:0:0:
256,192,102186,1,8,0:0:0:0:
256,192,102353,1,0,0:0:0:0:
256,192,102520,1,8,0:0:0:0:
256,192,102686,1,8,0:0:0:0:
256,192,102853,1,8,0:0:0:0:
256,192,102936,1,8,0:0:0:0:
256,192,103020,1,0,0:0:0:0:
256,192,103353,1,4,0:0:0:0:
256,192,103686,1,12,0:0:0:0:
256,192,103853,1,0,0:0:0:0:
256,192,103936,1,0,0:0:0:0:
256,192,104020,1,0,0:0:0:0:
256,192,104186,1,12,0:0:0:0:
256,192,104353,1,0,0:0:0:0:
256,192,104436,1,0,0:0:0:0:
256,192,104520,1,0,0:0:0:0:
256,192,104686,1,12,0:0:0:0:
256,192,104853,1,0,0:0:0:0:
256,192,104936,1,0,0:0:0:0:
256,192,105020,1,8,0:0:0:0:
256,192,105103,1,8,0:0:0:0:
256,192,105186,1,0,0:0:0:0:
256,192,105270,1,0,0:0:0:0:
256,192,105353,1,8,0:0:0:0:
256,192,105520,1,0,0:0:0:0:
256,192,105686,1,4,0:0:0:0:
256,192,106020,1,8,0:0:0:0:
256,192,106353,1,0,0:0:0:0:
256,192,106520,1,0,0:0:0:0:
256,192,106686,1,8,0:0:0:0:
256,192,107020,1,0,0:0:0:0:
256,192,107186,1,0,0:0:0:0:
256,192,107270,1,0,0:0:0:0:
256,192,107353,1,8,0:0:0:0:
256,192,107686,1,0,0:0:0:0:
256,192,107853,1,0,0:0:0:0:
256,192,107936,1,0,0:0:0:0:
256,192,108020,1,8,0:0:0:0:
256,192,108353,1,12,0:0:0:0:
256,192,108686,1,12,0:0:0:0:
256,192,109020,1,0,0:0:0:0:
256,192,109103,1,0,0:0:0:0:
256,192,109186,1,8,0:0:0:0:
256,192,109270,1,0,0:0:0:0:
256,192,109353,1,0,0:0:0:0:
256,192,109436,1,0,0:0:0:0:
256,192,109520,1,0,0:0:0:0:
256,192,109603,1,0,0:0:0:0:
256,192,109686,1,8,0:0:0:0:
256,192,109770,1,0,0:0:0:0:
256,192,109853,1,0,0:0:0:0:
256,192,109936,1,0,0:0:0:0:
256,192,110020,1,0,0:0:0:0:
256,192,110103,1,0,0:0:0:0:
256,192,110186,1,8,0:0:0:0:
256,192,110270,1,0,0:0:0:0:
256,192,110353,1,0,0:0:0:0:
256,192,110436,1,0,0:0:0:0:
256,192,110520,1,8,0:0:0:0:
256,192,110603,1,0,0:0:0:0:
256,192,110686,1,8,0:0:0:0:
256,192,110770,1,8,0:0:0:0:
256,192,110853,1,0,0:0:0:0:
256,192,110936,1,0,0:0:0:0:
256,192,111020,1,0,0:0:0:0:
256,192,111186,1,0,0:0:0:0:
256,192,111270,1,0,0:0:0:0:
256,192,111353,1,8,0:0:0:0:
256,192,111520,1,0,0:0:0:0:
256,192,111603,1,0,0:0:0:0:
256,192,111686,1,0,0:0:0:0:
256,192,111853,1,0,0:0:0:0:
256,192,111936,1,0,0:0:0:0:
256,192,112020,1,8,0:0:0:0:
256,192,112186,1,0,0:0:0:0:
256,192,112270,1,0,0:0:0:0:
256,192,112353,1,0,0:0:0:0:
256,192,112520,1,0,0:0:0:0:
256,192,112603,1,0,0:0:0:0:
256,192,112686,1,8,0:0:0:0:
256,192,112853,1,0,0:0:0:0:
256,192,112936,1,0,0:0:0:0:
256,192,113020,1,0,0:0:0:0:
256,192,113186,1,0,0:0:0:0:
256,192,113270,1,0,0:0:0:0:
256,192,113353,1,8,0:0:0:0:
256,192,113436,1,8,0:0:0:0:
256,192,113520,1,8,0:0:0:0:
256,192,113603,1,8,0:0:0:0:
256,192,113686,1,0,0:0:0:0:
256,192,114020,1,4,0:0:0:0:
256,192,114353,1,0,0:0:0:0:
256,192,114436,1,0,0:0:0:0:
256,192,114520,1,8,0:0:0:0:
256,192,114603,1,0,0:0:0:0:
256,192,114686,1,0,0:0:0:0:
256,192,114770,1,0,0:0:0:0:
256,192,114853,1,8,0:0:0:0:
256,192,114936,1,0,0:0:0:0:
256,192,115020,1,8,0:0:0:0:
256,192,115103,1,8,0:0:0:0:
256,192,115186,1,0,0:0:0:0:
256,192,115270,1,0,0:0:0:0:
256,192,115353,1,8,0:0:0:0:
256,192,115436,1,0,0:0:0:0:
256,192,115520,1,8,0:0:0:0:
256,192,115603,1,8,0:0:0:0:
256,192,115686,1,0,0:0:0:0:
256,192,115770,1,0,0:0:0:0:
256,192,115853,1,0,0:0:0:0:
256,192,115936,1,0,0:0:0:0:
256,192,116020,1,8,0:0:0:0:
256,192,116103,1,8,0:0:0:0:
256,192,116186,1,8,0:0:0:0:
256,192,116270,1,8,0:0:0:0:
256,192,116353,1,0,0:0:0:0:
256,192,116520,1,0,0:0:0:0:
256,192,116603,1,0,0:0:0:0:
256,192,116686,1,8,0:0:0:0:
256,192,116853,1,0,0:0:0:0:
256,192,116936,1,0,0:0:0:0:
256,192,117020,1,0,0:0:0:0:
256,192,117186,1,0,0:0:0:0:
256,192,117270,1,0,0:0:0:0:
256,192,117353,1,8,0:0:0:0:
256,192,117520,1,0,0:0:0:0:
256,192,117603,1,0,0:0:0:0:
256,192,117686,1,0,0:0:0:0:
256,192,117853,1,0,0:0:0:0:
256,192,117936,1,0,0:0:0:0:
256,192,118020,1,8,0:0:0:0:
256,192,118186,1,0,0:0:0:0:
256,192,118270,1,0,0:0:0:0:
256,192,118353,1,8,0:0:0:0:
256,192,118409,1,8,0:0:0:0:
256,192,118464,1,8,0:0:0:0:
256,192,118520,1,0,0:0:0:0:
256,192,118603,1,0,0:0:0:0:
256,192,118686,1,8,0:0:0:0:
256,192,118742,1,8,0:0:0:0:
256,192,118798,1,8,0:0:0:0:
256,192,118853,1,0,0:0:0:0:
256,192,118936,1,0,0:0:0:0:
256,192,119020,1,0,0:0:0:0:
256,192,119353,1,4,0:0:0:0:
256,192,119686,1,0,0:0:0:0:
256,192,119770,1,0,0:0:0:0:
256,192,119853,1,8,0:0:0:0:
256,192,120020,1,8,0:0:0:0:
256,192,120186,1,0,0:0:0:0:
256,192,120270,1,0,0:0:0:0:
256,192,120353,1,8,0:0:0:0:
256,192,120520,1,8,0:0:0:0:
256,192,120686,1,0,0:0:0:0:
256,192,120770,1,0,0:0:0:0:
256,192,120853,1,8,0:0:0:0:
256,192,121020,1,8,0:0:0:0:
256,192,121186,1,0,0:0:0:0:
256,192,121270,1,0,0:0:0:0:
256,192,121353,1,8,0:0:0:0:
256,192,121520,1,8,0:0:0:0:
256,192,121603,1,8,0:0:0:0:
256,192,121686,1,0,0:0:0:0:
256,192,121770,1,0,0:0:0:0:
256,192,121853,1,0,0:0:0:0:
256,192,121936,1,0,0:0:0:0:
256,192,122020,1,8,0:0:0:0:
256,192,122103,1,0,0:0:0:0:
256,192,122186,1,0,0:0:0:0:
256,192,122270,1,0,0:0:0:0:
256,192,122353,1,0,0:0:0:0:
256,192,122436,1,0,0:0:0:0:
256,192,122520,1,0,0:0:0:0:
256,192,122603,1,0,0:0:0:0:
256,192,122686,1,8,0:0:0:0:
256,192,122770,1,0,0:0:0:0:
256,192,122853,1,0,0:0:0:0:
256,192,122936,1,0,0:0:0:0:
256,192,123020,1,0,0:0:0:0:
256,192,123103,1,0,0:0:0:0:
256,192,123186,1,0,0:0:0:0:
256,192,123270,1,0,0:0:0:0:
256,192,123353,1,8,0:0:0:0:
256,192,123436,1,0,0:0:0:0:
256,192,123520,1,0,0:0:0:0:
256,192,123603,1,0,0:0:0:0:
256,192,123686,1,8,0:0:0:0:
256,192,123770,1,8,0:0:0:0:
256,192,123853,1,0,0:0:0:0:
256,192,123936,1,0,0:0:0:0:
256,192,124020,1,8,0:0:0:0:
256,192,124103,1,8,0:0:0:0:
256,192,124186,1,8,0:0:0:0:
256,192,124270,1,8,0:0:0:0:
256,192,124353,1,0,0:0:0:0:
256,192,124520,1,0,0:0:0:0:
256,192,124603,1,0,0:0:0:0:
256,192,124686,1,8,0:0:0:0:
256,192,124853,1,8,0:0:0:0:
256,192,125020,1,0,0:0:0:0:
256,192,125103,1,0,0:0:0:0:
256,192,125186,1,8,0:0:0:0:
256,192,125353,1,8,0:0:0:0:
256,192,125520,1,0,0:0:0:0:
256,192,125603,1,0,0:0:0:0:
256,192,125686,1,8,0:0:0:0:
256,192,125853,1,8,0:0:0:0:
256,192,126020,1,0,0:0:0:0:
256,192,126103,1,0,0:0:0:0:
256,192,126186,1,8,0:0:0:0:
256,192,126270,1,0,0:0:0:0:
256,192,126353,1,0,0:0:0:0:
256,192,126436,1,0,0:0:0:0:
256,192,126520,1,8,0:0:0:0:
256,192,126603,1,8,0:0:0:0:
256,192,126686,1,0,0:0:0:0:
256,192,126770,1,0,0:0:0:0:
256,192,126853,1,8,0:0:0:0:
256,192,126936,1,8,0:0:0:0:
256,192,127020,1,0,0:0:0:0:
256,192,127103,1,0,0:0:0:0:
256,192,127186,1,0,0:0:0:0:
256,192,127270,1,0,0:0:0:0:
256,192,127353,1,8,0:0:0:0:
256,192,127436,1,0,0:0:0:0:
256,192,127520,1,0,0:0:0:0:
256,192,127603,1,0,0:0:0:0:
256,192,127686,1,0,0:0:0:0:
256,192,127770,1,0,0:0:0:0:
256,192,127853,1,0,0:0:0:0:
256,192,127936,1,0,0:0:0:0:
256,192,128020,1,8,0:0:0:0:
256,192,128103,1,0,0:0:0:0:
256,192,128186,1,0,0:0:0:0:
256,192,128270,1,0,0:0:0:0:
256,192,128353,1,0,0:0:0:0:
256,192,128436,1,0,0:0:0:0:
256,192,128520,1,0,0:0:0:0:
256,192,128603,1,0,0:0:0:0:
256,192,128686,1,8,0:0:0:0:
256,192,128770,1,0,0:0:0:0:
256,192,128853,1,0,0:0:0:0:
256,192,128936,1,0,0:0:0:0:
256,192,129020,1,8,0:0:0:0:
256,192,129103,1,8,0:0:0:0:
256,192,129186,1,0,0:0:0:0:
256,192,129270,1,0,0:0:0:0:
256,192,129353,1,8,0:0:0:0:
256,192,129436,1,8,0:0:0:0:
256,192,129520,1,8,0:0:0:0:
256,192,129603,1,8,0:0:0:0:
256,192,129686,1,0,0:0:0:0:
256,192,130020,1,4,0:0:0:0:
256,192,130186,1,0,0:0:0:0:
256,192,130270,1,0,0:0:0:0:
256,192,130353,1,0,0:0:0:0:
256,192,130520,1,12,0:0:0:0:
256,192,130853,1,0,0:0:0:0:
256,192,131020,1,12,0:0:0:0:
256,192,131353,1,0,0:0:0:0:
256,192,131520,1,12,0:0:0:0:
256,192,131853,1,0,0:0:0:0:
256,192,132020,1,12,0:0:0:0:
256,192,132186,1,0,0:0:0:0:
256,192,132353,1,4,0:0:0:0:
256,192,132686,1,4,0:0:0:0:
256,192,132853,1,0,0:0:0:0:
256,192,132936,1,0,0:0:0:0:
256,192,133020,1,0,0:0:0:0:
256,192,133186,1,12,0:0:0:0:
256,192,133520,1,0,0:0:0:0:
256,192,133686,1,12,0:0:0:0:
256,192,134020,1,0,0:0:0:0:
256,192,134186,1,12,0:0:0:0:
256,192,134520,1,0,0:0:0:0:
256,192,134603,1,0,0:0:0:0:
256,192,134686,1,8,0:0:0:0:
256,192,134853,1,0,0:0:0:0:
256,192,135020,1,4,0:0:0:0:
256,192,135186,1,0,0:0:0:0:
256,192,135353,1,4,0:0:0:0:
256,192,135520,1,8,0:0:0:0:
256,192,135686,1,8,0:0:0:0:
256,192,135853,1,4,0:0:0:0:
256,192,136020,1,0,0:0:0:0:
256,192,136186,1,0,0:0:0:0:
256,192,136270,1,0,0:0:0:0:
256,192,136353,1,8,0:0:0:0:
256,192,136520,1,0,0:0:0:0:
256,192,136686,1,8,0:0:0:0:
256,192,136853,1,4,0:0:0:0:
256,192,137020,1,8,0:0:0:0:
256,192,137186,1,0,0:0:0:0:
256,192,137353,1,4,0:0:0:0:
256,192,137520,1,4,0:0:0:0:
256,192,137686,1,12,0:0:0:0:
256,192,137853,1,0,0:0:0:0:
256,192,138020,1,12,0:0:0:0:
256,192,138186,1,0,0:0:0:0:
256,192,138353,1,0,0:0:0:0:
256,192,138520,1,12,0:0:0:0:
256,192,138686,1,8,0:0:0:0:
256,192,138853,1,0,0:0:0:0:
256,192,139020,1,12,0:0:0:0:
256,192,139186,1,0,0:0:0:0:
256,192,139353,1,8,0:0:0:0:
256,192,139520,1,0,0:0:0:0:
256,192,139686,1,8,0:0:0:0:
256,192,139770,1,8,0:0:0:0:
256,192,139853,1,8,0:0:0:0:
256,192,139936,1,8,0:0:0:0:
256,192,140020,1,8,0:0:0:0:
256,192,140103,1,8,0:0:0:0:
256,192,140186,1,8,0:0:0:0:
256,192,140270,1,8,0:0:0:0:
256,192,140353,1,0,0:0:0:0:
256,192,140520,1,0,0:0:0:0:
256,192,140603,1,0,0:0:0:0:
256,192,140686,1,8,0:0:0:0:
256,192,140770,1,0,0:0:0:0:
256,192,140853,1,0,0:0:0:0:
256,192,140936,1,0,0:0:0:0:
256,192,141020,1,0,0:0:0:0:
256,192,141186,1,0,0:0:0:0:
256,192,141270,1,0,0:0:0:0:
256,192,141353,1,8,0:0:0:0:
256,192,141520,1,8,0:0:0:0:
256,192,141603,1,8,0:0:0:0:
256,192,141686,1,0,0:0:0:0:
256,192,141853,1,0,0:0:0:0:
256,192,141936,1,0,0:0:0:0:
256,192,142020,1,8,0:0:0:0:
256,192,142103,1,0,0:0:0:0:
256,192,142186,1,0,0:0:0:0:
256,192,142270,1,8,0:0:0:0:
256,192,142353,1,0,0:0:0:0:
256,192,142520,1,0,0:0:0:0:
256,192,142603,1,0,0:0:0:0:
256,192,142686,1,8,0:0:0:0:
256,192,142770,1,8,0:0:0:0:
256,192,142853,1,0,0:0:0:0:
256,192,143020,1,0,0:0:0:0:
256,192,143103,1,0,0:0:0:0:
256,192,143186,1,0,0:0:0:0:
256,192,143353,1,8,0:0:0:0:
256,192,143436,1,0,0:0:0:0:
256,192,143520,1,0,0:0:0:0:
256,192,143603,1,0,0:0:0:0:
256,192,143686,1,0,0:0:0:0:
256,192,143853,1,0,0:0:0:0:
256,192,143936,1,0,0:0:0:0:
256,192,144020,1,8,0:0:0:0:
256,192,144103,1,0,0:0:0:0:
256,192,144186,1,8,0:0:0:0:
256,192,144520,1,0,0:0:0:0:
256,192,144603,1,0,0:0:0:0:
256,192,144686,1,8,0:0:0:0:
256,192,144770,1,0,0:0:0:0:
256,192,144853,1,0,0:0:0:0:
256,192,144936,1,0,0:0:0:0:
256,192,145020,1,0,0:0:0:0:
256,192,145186,1,0,0:0:0:0:
256,192,145270,1,0,0:0:0:0:
256,192,145353,1,8,0:0:0:0:
256,192,145436,1,8,0:0:0:0:
256,192,145520,1,8,0:0:0:0:
256,192,145603,1,8,0:0:0:0:
256,192,145686,1,0,0:0:0:0:
256,192,145853,1,0,0:0:0:0:
256,192,145936,1,0,0:0:0:0:
256,192,146020,1,8,0:0:0:0:
256,192,146103,1,0,0:0:0:0:
256,192,146186,1,0,0:0:0:0:
256,192,146353,1,0,0:0:0:0:
256,192,146436,1,0,0:0:0:0:
256,192,146520,1,0,0:0:0:0:
256,192,146603,1,0,0:0:0:0:
256,192,146686,1,8,0:0:0:0:
256,192,146853,1,0,0:0:0:0:
256,192,146936,1,0,0:0:0:0:
256,192,147020,1,0,0:0:0:0:
256,192,147186,1,0,0:0:0:0:
256,192,147270,1,0,0:0:0:0:
256,192,147353,1,8,0:0:0:0:
256,192,147436,1,0,0:0:0:0:
256,192,147520,1,0,0:0:0:0:
256,192,147686,1,0,0:0:0:0:
256,192,147770,1,0,0:0:0:0:
256,192,147853,1,8,0:0:0:0:
256,192,147936,1,8,0:0:0:0:
256,192,148020,1,0,0:0:0:0:
256,192,148103,1,8,0:0:0:0:
256,192,148186,1,8,0:0:0:0:
256,192,148270,1,8,0:0:0:0:
256,192,148353,1,0,0:0:0:0:
256,192,148520,1,0,0:0:0:0:
256,192,148603,1,0,0:0:0:0:
256,192,148686,1,8,0:0:0:0:
256,192,148770,1,0,0:0:0:0:
256,192,148853,1,0,0:0:0:0:
256,192,148936,1,0,0:0:0:0:
256,192,149020,1,0,0:0:0:0:
256,192,149186,1,0,0:0:0:0:
256,192,149270,1,0,0:0:0:0:
256,192,149353,1,8,0:0:0:0:
256,192,149436,1,0,0:0:0:0:
256,192,149520,1,0,0:0:0:0:
256,192,149686,1,0,0:0:0:0:
256,192,149770,1,0,0:0:0:0:
256,192,149853,1,0,0:0:0:0:
256,192,150020,1,8,0:0:0:0:
256,192,150103,1,0,0:0:0:0:
256,192,150186,1,0,0:0:0:0:
256,192,150270,1,0,0:0:0:0:
256,192,150353,1,0,0:0:0:0:
256,192,150520,1,0,0:0:0:0:
256,192,150603,1,0,0:0:0:0:
256,192,150686,1,8,0:0:0:0:
256,192,150770,1,8,0:0:0:0:
256,192,150853,1,8,0:0:0:0:
256,192,150936,1,8,0:0:0:0:
256,192,151020,1,0,0:0:0:0:
256,192,151103,1,0,0:0:0:0:
256,192,151186,1,0,0:0:0:0:
256,192,151270,1,0,0:0:0:0:
256,192,151353,1,8,0:0:0:0:
256,192,151436,1,0,0:0:0:0:
256,192,151520,1,0,0:0:0:0:
256,192,151603,1,0,0:0:0:0:
256,192,151686,1,0,0:0:0:0:
256,192,151770,1,0,0:0:0:0:
256,192,151853,1,8,0:0:0:0:
256,192,151936,1,0,0:0:0:0:
256,192,152020,1,8,0:0:0:0:
256,192,152103,1,8,0:0:0:0:
256,192,152186,1,0,0:0:0:0:
256,192,152353,1,0,0:0:0:0:
256,192,152436,1,0,0:0:0:0:
256,192,152520,1,0,0:0:0:0:
256,192,152603,1,0,0:0:0:0:
256,192,152686,1,8,0:0:0:0:
256,192,152770,1,0,0:0:0:0:
256,192,152853,1,0,0:0:0:0:
256,192,152936,1,0,0:0:0:0:
256,192,153020,1,8,0:0:0:0:
256,192,153103,1,8,0:0:0:0:
256,192,153186,1,0,0:0:0:0:
256,192,153270,1,0,0:0:0:0:
256,192,153353,1,8,0:0:0:0:
256,192,153520,1,0,0:0:0:0:
256,192,153603,1,8,0:0:0:0:
256,192,153686,1,0,0:0:0:0:
256,192,153770,1,0,0:0:0:0:
256,192,153853,1,0,0:0:0:0:
256,192,153936,1,0,0:0:0:0:
256,192,154020,1,8,0:0:0:0:
256,192,154103,1,8,0:0:0:0:
256,192,154186,1,0,0:0:0:0:
256,192,154270,1,0,0:0:0:0:
256,192,154353,1,8,0:0:0:0:
256,192,154520,1,8,0:0:0:0:
256,192,154575,1,8,0:0:0:0:
256,192,154631,1,8,0:0:0:0:
256,192,154686,1,0,0:0:0:0:
256,192,154853,1,12,0:0:0:0:
256,192,155186,1,0,0:0:0:0:
256,192,155242,1,0,0:0:0:0:
256,192,155298,1,0,0:0:0:0:
256,192,155353,1,8,0:0:0:0:
256,192,155520,1,8,0:0:0:0:
256,192,155686,1,0,0:0:0:0:
256,192,155853,1,0,0:0:0:0:
256,192,155936,1,0,0:0:0:0:
256,192,156020,1,8,0:0:0:0:
256,192,156103,1,8,0:0:0:0:
256,192,156186,1,0,0:0:0:0:
256,192,156270,1,0,0:0:0:0:
256,192,156353,1,0,0:0:0:0:
256,192,156436,1,0,0:0:0:0:
256,192,156520,1,0,0:0:0:0:
256,192,156603,1,0,0:0:0:0:
256,192,156686,1,8,0:0:0:0:
256,192,156770,1,0,0:0:0:0:
256,192,156853,1,0,0:0:0:0:
256,192,156936,1,0,0:0:0:0:
256,192,157020,1,0,0:0:0:0:
256,192,157103,1,0,0:0:0:0:
256,192,157186,1,0,0:0:0:0:
256,192,157270,1,0,0:0:0:0:
256,192,157353,1,8,0:0:0:0:
256,192,157436,1,0,0:0:0:0:
256,192,157520,1,0,0:0:0:0:
256,192,157603,1,0,0:0:0:0:
256,192,157686,1,0,0:0:0:0:
256,192,157770,1,0,0:0:0:0:
256,192,157853,1,0,0:0:0:0:
256,192,157936,1,0,0:0:0:0:
256,192,158020,1,8,0:0:0:0:
256,192,158103,1,0,0:0:0:0:
256,192,158186,1,0,0:0:0:0:
256,192,158270,1,0,0:0:0:0:
256,192,158353,1,0,0:0:0:0:
256,192,158436,1,0,0:0:0:0:
256,192,158520,1,8,0:0:0:0:
256,192,158603,1,0,0:0:0:0:
256,192,158686,1,8,0:0:0:0:
256,192,158770,1,0,0:0:0:0:
256,192,158853,1,8,0:0:0:0:
256,192,158936,1,8,0:0:0:0:
256,192,159020,1,0,0:0:0:0:
256,192,159103,1,0,0:0:0:0:
256,192,159186,1,0,0:0:0:0:
256,192,159270,1,0,0:0:0:0:
256,192,159353,1,8,0:0:0:0:
256,192,159436,1,0,0:0:0:0:
256,192,159520,1,0,0:0:0:0:
256,192,159603,1,0,0:0:0:0:
256,192,159686,1,0,0:0:0:0:
256,192,159770,1,0,0:0:0:0:
256,192,159853,1,0,0:0:0:0:
256,192,159936,1,0,0:0:0:0:
256,192,160020,1,8,0:0:0:0:
256,192,160103,1,0,0:0:0:0:
256,192,160186,1,0,0:0:0:0:
256,192,160270,1,0,0:0:0:0:
256,192,160353,1,8,0:0:0:0:
256,192,160436,1,0,0:0:0:0:
256,192,160520,1,8,0:0:0:0:
256,192,160603,1,8,0:0:0:0:
256,192,160686,1,8,0:0:0:0:
256,192,160770,1,8,0:0:0:0:
256,192,160853,1,0,0:0:0:0:
256,192,160936,1,0,0:0:0:0:
256,192,161020,1,8,0:0:0:0:
256,192,161103,1,0,0:0:0:0:
256,192,161186,1,0,0:0:0:0:
256,192,161270,1,0,0:0:0:0:
256,192,161353,1,8,0:0:0:0:
256,192,161436,1,8,0:0:0:0:
256,192,161520,1,8,0:0:0:0:
256,192,161603,1,8,0:0:0:0:
256,192,161686,1,0,0:0:0:0:
256,192,162020,1,0,0:0:0:0:
256,192,162186,1,0,0:0:0:0:
256,192,162270,1,0,0:0:0:0:
256,192,162353,1,8,0:0:0:0:
256,192,162520,1,0,0:0:0:0:
256,192,162686,1,0,0:0:0:0:
256,192,162853,1,12,0:0:0:0:
256,192,163020,1,0,0:0:0:0:
256,192,163186,1,0,0:0:0:0:
256,192,163353,1,12,0:0:0:0:
256,192,163520,1,0,0:0:0:0:
256,192,163603,1,0,0:0:0:0:
256,192,163686,1,8,0:0:0:0:
256,192,163770,1,8,0:0:0:0:
256,192,163853,1,0,0:0:0:0:
256,192,163936,1,0,0:0:0:0:
256,192,164020,1,8,0:0:0:0:
256,192,164103,1,8,0:0:0:0:
256,192,164186,1,8,0:0:0:0:
256,192,164270,1,8,0:0:0:0:
256,192,164353,1,0,0:0:0:0:
256,192,164686,1,0,0:0:0:0:
256,192,164853,1,0,0:0:0:0:
256,192,164909,1,0,0:0:0:0:
256,192,164964,1,0,0:0:0:0:
256,192,165020,1,8,0:0:0:0:
256,192,165186,1,0,0:0:0:0:
256,192,165353,1,0,0:0:0:0:
256,192,165520,1,12,0:0:0:0:
256,192,165686,1,0,0:0:0:0:
256,192,165853,1,0,0:0:0:0:
256,192,166020,1,12,0:0:0:0:
256,192,166186,1,0,0:0:0:0:
256,192,166353,1,0,0:0:0:0:
256,192,166436,1,0,0:0:0:0:
256,192,166520,1,0,0:0:0:0:
256,192,166603,1,0,0:0:0:0:
256,192,166686,1,8,0:0:0:0:
256,192,166853,1,12,0:0:0:0:
256,192,167020,1,4,0:0:0:0:
256,192,167353,1,0,0:0:0:0:
256,192,167686,1,8,0:0:0:0:
256,192,167770,1,8,0:0:0:0:
256,192,167853,1,8,0:0:0:0:
256,192,167936,1,8,0:0:0:0:
256,192,168020,1,0,0:0:0:0:
256,192,168103,1,0,0:0:0:0:
256,192,168186,1,8,0:0:0:0:
256,192,168270,1,8,0:0:0:0:
256,192,168353,1,8,0:0:0:0:
256,192,168436,1,8,0:0:0:0:
256,192,168520,1,0,0:0:0:0:
256,192,168603,1,0,0:0:0:0:
256,192,168686,1,8,0:0:0:0:
256,192,168770,1,8,0:0:0:0:
256,192,168853,1,0,0:0:0:0:
256,192,168936,1,0,0:0:0:0:
256,192,169020,1,8,0:0:0:0:
256,192,169103,1,0,0:0:0:0:
256,192,169186,1,0,0:0:0:0:
256,192,169270,1,0,0:0:0:0:
256,192,169353,1,8,0:0:0:0:
256,192,169436,1,8,0:0:0:0:
256,192,169520,1,0,0:0:0:0:
256,192,169603,1,0,0:0:0:0:
256,192,169686,1,0,0:0:0:0:
256,192,169853,1,0,0:0:0:0:
256,192,170020,1,0,0:0:0:0:
256,192,170186,1,0,0:0:0:0:
256,192,170270,1,0,0:0:0:0:
256,192,170353,1,8,0:0:0:0:
256,192,170409,1,8,0:0:0:0:
256,192,170464,1,8,0:0:0:0:
256,192,170520,1,0,0:0:0:0:
256,192,170603,1,0,0:0:0:0:
256,192,170686,1,8,0:0:0:0:
256,192,170742,1,8,0:0:0:0:
256,192,170798,1,8,0:0:0:0:
256,192,170853,1,0,0:0:0:0:
256,192,170936,1,0,0:0:0:0:
256,192,171020,1,8,0:0:0:0:
256,192,171103,1,8,0:0:0:0:
256,192,171186,1,0,0:0:0:0:
256,192,171270,1,0,0:0:0:0:
256,192,171353,1,8,0:0:0:0:
256,192,171436,1,0,0:0:0:0:
256,192,171520,1,8,0:0:0:0:
256,192,171603,1,8,0:0:0:0:
256,192,171686,1,0,0:0:0:0:
256,192,171770,1,0,0:0:0:0:
256,192,171853,1,0,0:0:0:0:
256,192,171936,1,0,0:0:0:0:
256,192,172020,1,8,0:0:0:0:
256,192,172103,1,8,0:0:0:0:
256,192,172186,1,0,0:0:0:0:
256,192,172270,1,0,0:0:0:0:
256,192,172353,1,0,0:0:0:0:
256,192,172686,1,0,0:0:0:0:
256,192,173020,1,8,0:0:0:0:
256,192,173103,1,0,0:0:0:0:
256,192,173186,1,0,0:0:0:0:
256,192,173270,1,0,0:0:0:0:
256,192,173353,1,0,0:0:0:0:
256,192,173436,1,0,0:0:0:0:
256,192,173520,1,8,0:0:0:0:
256,192,173603,1,0,0:0:0:0:
256,192,173686,1,0,0:0:0:0:
256,192,173770,1,0,0:0:0:0:
256,192,173853,1,0,0:0:0:0:
256,192,173936,1,0,0:0:0:0:
256,192,174020,1,8,0:0:0:0:
256,192,174103,1,0,0:0:0:0:
256,192,174186,1,0,0:0:0:0:
256,192,174270,1,0,0:0:0:0:
256,192,174353,1,0,0:0:0:0:
256,192,174436,1,0,0:0:0:0:
256,192,174520,1,8,0:0:0:0:
256,192,174603,1,8,0:0:0:0:
256,192,174686,1,8,0:0:0:0:
256,192,174770,1,8,0:0:0:0:
256,192,174853,1,0,0:0:0:0:
256,192,174936,1,0,0:0:0:0:
256,192,175020,1,8,0:0:0:0:
256,192,175186,1,0,0:0:0:0:
256,192,175242,1,0,0:0:0:0:
256,192,175298,1,0,0:0:0:0:
256,192,175353,1,8,0:0:0:0:
256,192,175686,1,8,0:0:0:0:
256,192,175770,1,0,0:0:0:0:
256,192,175853,1,0,0:0:0:0:
256,192,175936,1,0,0:0:0:0:
256,192,176020,1,8,0:0:0:0:
256,192,176103,1,0,0:0:0:0:
256,192,176186,1,8,0:0:0:0:
256,192,176270,1,8,0:0:0:0:
256,192,176353,1,0,0:0:0:0:
256,192,176436,1,0,0:0:0:0:
256,192,176520,1,8,0:0:0:0:
256,192,176603,1,0,0:0:0:0:
256,192,176686,1,8,0:0:0:0:
256,192,176770,1,8,0:0:0:0:
256,192,176853,1,0,0:0:0:0:
256,192,176936,1,0,0:0:0:0:
256,192,177020,1,0,0:0:0:0:
256,192,177103,1,0,0:0:0:0:
256,192,177186,1,8,0:0:0:0:
256,192,177270,1,8,0:0:0:0:
256,192,177353,1,0,0:0:0:0:
256,192,177436,1,0,0:0:0:0:
256,192,177520,1,8,0:0:0:0:
256,192,177603,1,0,0:0:0:0:
256,192,177686,1,0,0:0:0:0:
256,192,177853,1,0,0:0:0:0:
256,192,178020,1,0,0:0:0:0:
256,192,178353,1,8,0:0:0:0:
256,192,178436,1,0,0:0:0:0:
256,192,178520,1,0,0:0:0:0:
256,192,178603,1,0,0:0:0:0:
256,192,178686,1,0,0:0:0:0:
256,192,178770,1,0,0:0:0:0:
256,192,178853,1,8,0:0:0:0:
256,192,178936,1,0,0:0:0:0:
256,192,179020,1,0,0:0:0:0:
256,192,179103,1,0,0:0:0:0:
256,192,179186,1,0,0:0:0:0:
256,192,179270,1,0,0:0:0:0:
256,192,179353,1,8,0:0:0:0:
256,192,179436,1,0,0:0:0:0:
256,192,179520,1,0,0:0:0:0:
256,192,179603,1,0,0:0:0:0:
256,192,179686,1,0,0:0:0:0:
256,192,179770,1,0,0:0:0:0:
256,192,179853,1,8,0:0:0:0:
256,192,179936,1,8,0:0:0:0:
256,192,180020,1,0,0:0:0:0:
256,192,180103,1,0,0:0:0:0:
256,192,180186,1,0,0:0:0:0:
256,192,180270,1,0,0:0:0:0:
256,192,180353,1,0,0:0:0:0:
256,192,180520,1,0,0:0:0:0:
256,192,180686,1,0,0:0:0:0:
256,192,180853,1,0,0:0:0:0:
256,192,180936,1,0,0:0:0:0:
256,192,181020,1,8,0:0:0:0:
256,192,181103,1,0,0:0:0:0:
256,192,181186,1,8,0:0:0:0:
256,192,181270,1,0,0:0:0:0:
256,192,181353,1,8,0:0:0:0:
256,192,181436,1,0,0:0:0:0:
256,192,181520,1,8,0:0:0:0:
256,192,181603,1,0,0:0:0:0:
256,192,181686,1,8,0:0:0:0:
256,192,181770,1,8,0:0:0:0:
256,192,181853,1,0,0:0:0:0:
256,192,181936,1,0,0:0:0:0:
256,192,182020,1,8,0:0:0:0:
256,192,182103,1,0,0:0:0:0:
256,192,182186,1,0,0:0:0:0:
256,192,182270,1,0,0:0:0:0:
256,192,182353,1,8,0:0:0:0:
256,192,182436,1,8,0:0:0:0:
256,192,182520,1,8,0:0:0:0:
256,192,182603,1,8,0:0:0:0:
256,192,182686,1,8,0:0:0:0:
256,192,182770,1,8,0:0:0:0:
256,192,182853,1,8,0:0:0:0:
256,192,182936,1,8,0:0:0:0:
256,192,183020,8,0,184186,0:0:0:0:
256,192,184353,5,8,0:0:0:0:
256,192,184436,1,8,0:0:0:0:
256,192,184520,1,0,0:0:0:0:
256,192,184603,1,8,0:0:0:0:
256,192,184686,1,0,0:0:0:0:
256,192,184770,1,0,0:0:0:0:
256,192,184853,1,8,0:0:0:0:
256,192,184936,1,8,0:0:0:0:
256,192,185020,1,0,0:0:0:0:
256,192,185103,1,0,0:0:0:0:
256,192,185186,1,8,0:0:0:0:
256,192,185270,1,0,0:0:0:0:
256,192,185353,1,8,0:0:0:0:
256,192,185436,1,8,0:0:0:0:
256,192,185520,1,8,0:0:0:0:
256,192,185603,1,0,0:0:0:0:
256,192,185686,1,8,0:0:0:0:
256,192,185770,1,8,0:0:0:0:
256,192,185853,1,0,0:0:0:0:
256,192,185936,1,0,0:0:0:0:
256,192,186020,1,8,0:0:0:0:
256,192,186103,1,0,0:0:0:0:
256,192,186186,1,8,0:0:0:0:
256,192,186270,1,8,0:0:0:0:
256,192,186353,1,0,0:0:0:0:
256,192,186436,1,8,0:0:0:0:
256,192,186520,1,0,0:0:0:0:
256,192,186603,1,0,0:0:0:0:
256,192,186686,1,8,0:0:0:0:
256,192,186770,1,0,0:0:0:0:
256,192,186853,1,0,0:0:0:0:
256,192,186936,1,8,0:0:0:0:
256,192,187020,1,8,0:0:0:0:
256,192,187103,1,0,0:0:0:0:
256,192,187186,1,0,0:0:0:0:
256,192,187270,1,8,0:0:0:0:
256,192,187353,1,0,0:0:0:0:
256,192,187436,1,0,0:0:0:0:
256,192,187520,1,8,0:0:0:0:
256,192,187603,1,0,0:0:0:0:
256,192,187686,1,0,0:0:0:0:
256,192,187770,1,8,0:0:0:0:
256,192,187853,1,0,0:0:0:0:
256,192,187936,1,0,0:0:0:0:
256,192,188020,1,8,0:0:0:0:
256,192,188103,1,8,0:0:0:0:
256,192,188186,1,0,0:0:0:0:
256,192,188270,1,8,0:0:0:0:
256,192,188353,1,0,0:0:0:0:
256,192,188436,1,8,0:0:0:0:
256,192,188520,1,0,0:0:0:0:
256,192,188603,1,0,0:0:0:0:
256,192,188686,1,8,0:0:0:0:
256,192,188770,1,0,0:0:0:0:
256,192,188853,1,0,0:0:0:0:
256,192,188936,1,8,0:0:0:0:
256,192,189020,1,0,0:0:0:0:
256,192,189103,1,0,0:0:0:0:
256,192,189186,1,8,0:0:0:0:
256,192,189270,1,0,0:0:0:0:
256,192,189353,1,8,0:0:0:0:
256,192,189436,1,8,0:0:0:0:
256,192,189520,1,8,0:0:0:0:
256,192,189603,1,8,0:0:0:0:
256,192,189686,1,0,0:0:0:0:
256,192,189770,1,0,0:0:0:0:
256,192,189853,1,8,0:0:0:0:
256,192,189936,1,8,0:0:0:0:
256,192,190020,1,0,0:0:0:0:
256,192,190103,1,0,0:0:0:0:
256,192,190186,1,8,0:0:0:0:
256,192,190270,1,0,0:0:0:0:
256,192,190353,1,8,0:0:0:0:
256,192,190436,1,8,0:0:0:0:
256,192,190520,1,8,0:0:0:0:
256,192,190603,1,0,0:0:0:0:
256,192,190686,1,8,0:0:0:0:
256,192,190770,1,8,0:0:0:0:
256,192,190853,1,0,0:0:0:0:
256,192,190936,1,0,0:0:0:0:
256,192,191020,1,0,0:0:0:0:
256,192,191103,1,8,0:0:0:0:
256,192,191186,1,8,0:0:0:0:
256,192,191270,1,0,0:0:0:0:
256,192,191353,1,8,0:0:0:0:
256,192,191436,1,8,0:0:0:0:
256,192,191520,1,0,0:0:0:0:
256,192,191603,1,8,0:0:0:0:
256,192,191686,1,0,0:0:0:0:
256,192,191770,1,8,0:0:0:0:
256,192,191853,1,8,0:0:0:0:
256,192,191936,1,0,0:0:0:0:
256,192,192020,1,8,0:0:0:0:
256,192,192103,1,8,0:0:0:0:
256,192,192186,1,0,0:0:0:0:
256,192,192270,1,0,0:0:0:0:
256,192,192353,1,8,0:0:0:0:
256,192,192436,1,8,0:0:0:0:
256,192,192520,1,0,0:0:0:0:
256,192,192603,1,8,0:0:0:0:
256,192,192686,1,0,0:0:0:0:
256,192,192770,1,0,0:0:0:0:
256,192,192853,1,8,0:0:0:0:
256,192,192936,1,0,0:0:0:0:
256,192,193020,1,8,0:0:0:0:
256,192,193103,1,8,0:0:0:0:
256,192,193186,1,0,0:0:0:0:
256,192,193270,1,8,0:0:0:0:
256,192,193353,1,0,0:0:0:0:
256,192,193436,1,0,0:0:0:0:
256,192,193520,1,8,0:0:0:0:
256,192,193603,1,0,0:0:0:0:
256,192,193686,1,8,0:0:0:0:
256,192,193770,1,8,0:0:0:0:
256,192,193853,1,0,0:0:0:0:
256,192,193936,1,0,0:0:0:0:
256,192,194020,1,0,0:0:0:0:
256,192,194103,1,0,0:0:0:0:
256,192,194186,1,8,0:0:0:0:
256,192,194270,1,8,0:0:0:0:
256,192,194353,1,0,0:0:0:0:
256,192,194436,1,0,0:0:0:0:
256,192,194520,1,0,0:0:0:0:
256,192,194603,1,0,0:0:0:0:
256,192,194686,1,8,0:0:0:0:
256,192,194770,1,8,0:0:0:0:
256,192,194853,1,8,0:0:0:0:
256,192,194936,1,8,0:0:0:0:
256,192,195020,1,8,0:0:0:0:
256,192,195103,1,0,0:0:0:0:
256,192,195186,1,0,0:0:0:0:
256,192,195270,1,8,0:0:0:0:
256,192,195353,1,8,0:0:0:0:
256,192,195436,1,0,0:0:0:0:
256,192,195520,1,0,0:0:0:0:
256,192,195603,1,8,0:0:0:0:
256,192,195686,1,8,0:0:0:0:
256,192,195770,1,0,0:0:0:0:
256,192,195853,1,0,0:0:0:0:
256,192,195936,1,8,0:0:0:0:
256,192,196020,1,8,0:0:0:0:
256,192,196103,1,0,0:0:0:0:
256,192,196186,1,0,0:0:0:0:
256,192,196270,1,8,0:0:0:0:
256,192,196353,1,8,0:0:0:0:
256,192,196436,1,8,0:0:0:0:
256,192,196520,1,0,0:0:0:0:
256,192,196603,1,8,0:0:0:0:
256,192,196686,1,8,0:0:0:0:
256,192,196770,1,8,0:0:0:0:
256,192,196853,1,0,0:0:0:0:
256,192,196936,1,8,0:0:0:0:
256,192,197020,1,8,0:0:0:0:
256,192,197103,1,8,0:0:0:0:
256,192,197186,1,0,0:0:0:0:
256,192,197270,1,8,0:0:0:0:
256,192,197353,1,8,0:0:0:0:
256,192,197436,1,8,0:0:0:0:
256,192,197520,1,0,0:0:0:0:
256,192,197603,1,0,0:0:0:0:
256,192,197686,1,8,0:0:0:0:
256,192,197770,1,0,0:0:0:0:
256,192,197853,1,0,0:0:0:0:
256,192,197936,1,8,0:0:0:0:
256,192,198020,1,8,0:0:0:0:
256,192,198103,1,0,0:0:0:0:
256,192,198186,1,0,0:0:0:0:
256,192,198270,1,8,0:0:0:0:
256,192,198353,1,8,0:0:0:0:
256,192,198436,1,0,0:0:0:0:
256,192,198520,1,0,0:0:0:0:
256,192,198603,1,8,0:0:0:0:
256,192,198686,1,8,0:0:0:0:
256,192,198770,1,0,0:0:0:0:
256,192,198853,1,8,0:0:0:0:
256,192,198936,1,0,0:0:0:0:
256,192,199020,1,8,0:0:0:0:
256,192,199103,1,8,0:0:0:0:
256,192,199186,1,0,0:0:0:0:
256,192,199270,1,8,0:0:0:0:
256,192,199353,1,8,0:0:0:0:
256,192,199436,1,0,0:0:0:0:
256,192,199520,1,8,0:0:0:0:
256,192,199603,1,0,0:0:0:0:
256,192,199686,1,8,0:0:0:0:
256,192,199770,1,8,0:0:0:0:
256,192,199853,1,0,0:0:0:0:
256,192,199936,1,8,0:0:0:0:
256,192,200020,1,8,0:0:0:0:
256,192,200103,1,0,0:0:0:0:
256,192,200186,1,8,0:0:0:0:
256,192,200270,1,0,0:0:0:0:
256,192,200353,1,8,0:0:0:0:
256,192,200686,1,8,0:0:0:0:
256,192,201020,1,8,0:0:0:0:
256,192,201103,1,8,0:0:0:0:
256,192,201186,1,0,0:0:0:0:
256,192,201270,1,8,0:0:0:0:
256,192,201353,1,0,0:0:0:0:
256,192,201436,1,0,0:0:0:0:
256,192,201520,1,8,0:0:0:0:
256,192,201603,1,0,0:0:0:0:
256,192,201686,1,8,0:0:0:0:
256,192,201770,1,8,0:0:0:0:
256,192,201853,1,0,0:0:0:0:
256,192,201936,1,0,0:0:0:0:
256,192,202020,1,8,0:0:0:0:
256,192,202103,1,0,0:0:0:0:
256,192,202186,1,8,0:0:0:0:
256,192,202270,1,8,0:0:0:0:
256,192,202353,1,0,0:0:0:0:
256,192,202436,1,0,0:0:0:0:
256,192,202520,1,8,0:0:0:0:
256,192,202603,1,0,0:0:0:0:
256,192,202686,1,8,0:0:0:0:
256,192,202770,1,8,0:0:0:0:
256,192,202853,1,0,0:0:0:0:
256,192,202936,1,8,0:0:0:0:
256,192,203020,1,0,0:0:0:0:
256,192,203103,1,0,0:0:0:0:
256,192,203186,1,8,0:0:0:0:
256,192,203270,1,8,0:0:0:0:
256,192,203353,1,0,0:0:0:0:
256,192,203436,1,0,0:0:0:0:
256,192,203520,1,8,0:0:0:0:
256,192,203603,1,0,0:0:0:0:
256,192,203686,1,8,0:0:0:0:
256,192,203770,1,8,0:0:0:0:
256,192,203853,1,0,0:0:0:0:
256,192,203936,1,0,0:0:0:0:
256,192,204020,1,0,0:0:0:0:
256,192,204103,1,0,0:0:0:0:
256,192,204186,1,8,0:0:0:0:
256,192,204270,1,0,0:0:0:0:
256,192,204353,1,8,0:0:0:0:
256,192,204436,1,8,0:0:0:0:
256,192,204520,1,0,0:0:0:0:
256,192,204603,1,8,0:0:0:0:
256,192,204686,1,0,0:0:0:0:
256,192,204770,1,0,0:0:0:0:
256,192,204853,1,8,0:0:0:0:
256,192,204936,1,0,0:0:0:0:
256,192,205020,1,8,0:0:0:0:
256,192,205103,1,8,0:0:0:0:
256,192,205186,1,0,0:0:0:0:
256,192,205270,1,0,0:0:0:0:
256,192,205353,1,8,0:0:0:0:
256,192,205436,1,8,0:0:0:0:
256,192,205520,1,8,0:0:0:0:
256,192,205603,1,8,0:0:0:0:
256,192,205686,1,8,0:0:0:0:
256,192,205936,1,8,0:0:0:0:
256,192,206186,1,8,0:0:0:0:
256,192,206353,1,8,0:0:0:0:
320,64,206520,2,4,L|480:128,5,140
256,192,208353,1,4,0:0:0:0:
256,192,208686,1,4,0:0:0:0:
256,192,209020,1,0,0:0:0:0:
256,192,209103,1,0,0:0:0:0:
256,192,209186,1,8,0:0:0:0:
256,192,209520,1,0,0:0:0:0:
256,192,209686,1,12,0:0:0:0:
256,192,210020,1,0,0:0:0:0:
256,192,210186,1,12,0:0:0:0:
256,192,210520,1,0,0:0:0:0:
256,192,210686,1,12,0:0:0:0:
256,192,210853,1,0,0:0:0:0:
256,192,211020,1,4,0:0:0:0:
256,192,211353,1,4,0:0:0:0:
256,192,211686,1,0,0:0:0:0:
256,192,211770,1,0,0:0:0:0:
256,192,211853,1,8,0:0:0:0:
256,192,211936,1,0,0:0:0:0:
256,192,212020,1,0,0:0:0:0:
256,192,212103,1,0,0:0:0:0:
256,192,212186,1,0,0:0:0:0:
256,192,212270,1,0,0:0:0:0:
256,192,212353,1,8,0:0:0:0:
256,192,212436,1,0,0:0:0:0:
256,192,212520,1,0,0:0:0:0:
256,192,212603,1,0,0:0:0:0:
256,192,212686,1,0,0:0:0:0:
256,192,212770,1,0,0:0:0:0:
256,192,212853,1,8,0:0:0:0:
256,192,212936,1,0,0:0:0:0:
256,192,213020,1,0,0:0:0:0:
256,192,213103,1,0,0:0:0:0:
256,192,213186,1,8,0:0:0:0:
256,192,213270,1,0,0:0:0:0:
256,192,213353,1,0,0:0:0:0:
256,192,213436,1,0,0:0:0:0:
256,192,213520,1,8,0:0:0:0:
256,192,213603,1,8,0:0:0:0:
256,192,213686,1,0,0:0:0:0:
256,192,213853,1,0,0:0:0:0:
256,192,214020,1,8,0:0:0:0:
256,192,214186,1,0,0:0:0:0:
256,192,214353,1,0,0:0:0:0:
256,192,214520,1,8,0:0:0:0:
256,192,214603,1,8,0:0:0:0:
256,192,214686,1,0,0:0:0:0:
256,192,214770,1,0,0:0:0:0:
256,192,214853,1,0,0:0:0:0:
256,192,214936,1,0,0:0:0:0:
256,192,215020,1,8,0:0:0:0:
256,192,215186,1,0,0:0:0:0:
256,192,215270,1,0,0:0:0:0:
256,192,215353,1,8,0:0:0:0:
256,192,215436,1,8,0:0:0:0:
256,192,215520,1,0,0:0:0:0:
256,192,215603,1,0,0:0:0:0:
256,192,215686,1,8,0:0:0:0:
256,192,215770,1,8,0:0:0:0:
256,192,215853,1,0,0:0:0:0:
256,192,215936,1,0,0:0:0:0:
256,192,216020,1,8,0:0:0:0:
256,192,216075,1,8,0:0:0:0:
256,192,216131,1,0,0:0:0:0:
256,192,216186,1,0,0:0:0:0:
256,192,216242,1,0,0:0:0:0:
256,192,216298,1,0,0:0:0:0:
256,192,216353,1,0,0:0:0:0:
256,192,216686,1,8,0:0:0:0:
256,192,216853,1,0,0:0:0:0:
256,192,216936,1,0,0:0:0:0:
256,192,217020,1,0,0:0:0:0:
256,192,217186,1,0,0:0:0:0:
256,192,217353,1,8,0:0:0:0:
256,192,217686,1,0,0:0:0:0:
256,192,218020,1,8,0:0:0:0:
256,192,218186,1,0,0:0:0:0:
256,192,218270,1,0,0:0:0:0:
256,192,218353,1,0,0:0:0:0:
256,192,218520,1,0,0:0:0:0:
256,192,218686,1,8,0:0:0:0:
256,192,218770,1,0,0:0:0:0:
256,192,218853,1,0,0:0:0:0:
256,192,218936,1,0,0:0:0:0:
256,192,219020,1,0,0:0:0:0:
256,192,219353,1,8,0:0:0:0:
256,192,219520,1,0,0:0:0:0:
256,192,219603,1,0,0:0:0:0:
256,192,219686,1,0,0:0:0:0:
256,192,219853,1,8,0:0:0:0:
256,192,220020,1,8,0:0:0:0:
256,192,220186,1,4,0:0:0:0:
256,192,220520,1,0,0:0:0:0:
256,192,220575,1,0,0:0:0:0:
256,192,220631,1,0,0:0:0:0:
256,192,220686,1,8,0:0:0:0:
256,192,220853,1,12,0:0:0:0:
256,192,221020,1,12,0:0:0:0:
256,192,221186,1,0,0:0:0:0:
256,192,221242,1,0,0:0:0:0:
256,192,221298,1,0,0:0:0:0:
256,192,221353,1,8,0:0:0:0:
256,192,221520,1,12,0:0:0:0:
256,192,221686,1,4,0:0:0:0:
256,192,222020,1,8,0:0:0:0:
256,192,222186,1,0,0:0:0:0:
256,192,222270,1,0,0:0:0:0:
256,192,222353,1,0,0:0:0:0:
256,192,222520,1,8,0:0:0:0:
256,192,222686,1,8,0:0:0:0:
256,192,223020,1,0,0:0:0:0:
256,192,223186,1,8,0:0:0:0:
256,192,223353,1,8,0:0:0:0:
256,192,223436,1,0,0:0:0:0:
256,192,223520,1,8,0:0:0:0:
256,192,223853,1,0,0:0:0:0:
256,192,224020,1,8,0:0:0:0:
256,192,224186,1,8,0:0:0:0:
256,192,224270,1,8,0:0:0:0:
256,192,224353,1,0,0:0:0:0:
256,192,224686,1,8,0:0:0:0:
256,192,224853,1,0,0:0:0:0:
256,192,225186,1,0,0:0:0:0:
256,192,225353,1,8,0:0:0:0:
256,192,225686,1,0,0:0:0:0:
256,192,225853,1,8,0:0:0:0:
256,192,226020,1,8,0:0:0:0:
256,192,226186,1,8,0:0:0:0:
256,192,226270,1,8,0:0:0:0:
256,192,226353,1,0,0:0:0:0:
256,192,226520,1,8,0:0:0:0:
256,192,226575,1,8,0:0:0:0:
256,192,226631,1,8,0:0:0:0:
256,192,226686,1,0,0:0:0:0:
256,192,226770,1,0,0:0:0:0:
256,192,226853,1,8,0:0:0:0:
256,192,226936,1,8,0:0:0:0:
256,192,227020,1,0,0:0:0:0:
256,192,227186,1,0,0:0:0:0:
256,192,227353,1,8,0:0:0:0:
256,192,227520,1,0,0:0:0:0:
256,192,227603,1,0,0:0:0:0:
256,192,227686,1,0,0:0:0:0:
256,192,227853,1,0,0:0:0:0:
256,192,228020,1,8,0:0:0:0:
256,192,228186,1,0,0:0:0:0:
256,192,228353,1,0,0:0:0:0:
256,192,228520,1,0,0:0:0:0:
256,192,228686,1,8,0:0:0:0:
256,192,228853,1,0,0:0:0:0:
256,192,228936,1,0,0:0:0:0:
256,192,229020,1,0,0:0:0:0:
256,192,229186,1,0,0:0:0:0:
256,192,229270,1,0,0:0:0:0:
256,192,229353,1,8,0:0:0:0:
256,192,229436,1,0,0:0:0:0:
256,192,229520,1,0,0:0:0:0:
256,192,229603,1,0,0:0:0:0:
256,192,229686,1,0,0:0:0:0:
256,192,229853,1,0,0:0:0:0:
256,192,230020,1,8,0:0:0:0:
256,192,230186,1,0,0:0:0:0:
256,192,230270,1,0,0:0:0:0:
256,192,230353,1,0,0:0:0:0:
256,192,230520,1,8,0:0:0:0:
256,192,230686,1,8,0:0:0:0:
256,192,230853,1,4,0:0:0:0:
256,192,231186,1,0,0:0:0:0:
256,192,231270,1,0,0:0:0:0:
256,192,231353,1,8,0:0:0:0:
256,192,231520,1,0,0:0:0:0:
256,192,231686,1,0,0:0:0:0:
256,192,231853,1,0,0:0:0:0:
256,192,231936,1,0,0:0:0:0:
256,192,232020,1,8,0:0:0:0:
256,192,232103,1,8,0:0:0:0:
256,192,232186,1,8,0:0:0:0:
256,192,232270,1,8,0:0:0:0:
256,192,232353,1,0,0:0:0:0:
256,192,232436,1,0,0:0:0:0:
256,192,232520,1,0,0:0:0:0:
256,192,232603,1,0,0:0:0:0:
256,192,232686,1,8,0:0:0:0:
256,192,232770,1,0,0:0:0:0:
256,192,232853,1,0,0:0:0:0:
256,192,232936,1,0,0:0:0:0:
256,192,233020,1,0,0:0:0:0:
256,192,233186,1,0,0:0:0:0:
256,192,233270,1,0,0:0:0:0:
256,192,233353,1,8,0:0:0:0:
256,192,233520,1,0,0:0:0:0:
256,192,233603,1,0,0:0:0:0:
256,192,233686,1,0,0:0:0:0:
256,192,233770,1,0,0:0:0:0:
256,192,233853,1,0,0:0:0:0:
256,192,233936,1,0,0:0:0:0:
256,192,234020,1,8,0:0:0:0:
256,192,234103,1,0,0:0:0:0:
256,192,234186,1,0,0:0:0:0:
256,192,234270,1,0,0:0:0:0:
256,192,234353,1,8,0:0:0:0:
256,192,234436,1,0,0:0:0:0:
256,192,234520,1,8,0:0:0:0:
256,192,234603,1,0,0:0:0:0:
256,192,234686,1,8,0:0:0:0:
256,192,234770,1,8,0:0:0:0:
256,192,234853,1,0,0:0:0:0:
256,192,234936,1,0,0:0:0:0:
256,192,235020,1,0,0:0:0:0:
256,192,235186,1,0,0:0:0:0:
256,192,235270,1,0,0:0:0:0:
256,192,235353,1,8,0:0:0:0:
256,192,235436,1,0,0:0:0:0:
256,192,235520,1,0,0:0:0:0:
256,192,235603,1,0,0:0:0:0:
256,192,235686,1,8,0:0:0:0:
256,192,235770,1,8,0:0:0:0:
256,192,235853,1,0,0:0:0:0:
256,192,235936,1,0,0:0:0:0:
256,192,236020,1,8,0:0:0:0:
256,192,236186,1,0,0:0:0:0:
256,192,236270,1,0,0:0:0:0:
256,192,236353,1,8,0:0:0:0:
256,192,236436,1,0,0:0:0:0:
256,192,236520,1,0,0:0:0:0:
256,192,236603,1,0,0:0:0:0:
256,192,236686,1,8,0:0:0:0:
256,192,236770,1,8,0:0:0:0:
256,192,236853,1,0,0:0:0:0:
256,192,236936,1,0,0:0:0:0:
256,192,237020,1,8,0:0:0:0:
256,192,237075,1,8,0:0:0:0:
256,192,237131,1,8,0:0:0:0:
256,192,237186,1,0,0:0:0:0:
256,192,237270,1,0,0:0:0:0:
256,192,237353,1,8,0:0:0:0:
256,192,237436,1,8,0:0:0:0:
256,192,237520,1,8,0:0:0:0:
256,192,237603,1,8,0:0:0:0:
256,192,237686,1,0,0:0:0:0:
256,192,237853,1,8,0:0:0:0:
256,192,238020,1,8,0:0:0:0:
256,192,238186,1,0,0:0:0:0:
256,192,238353,1,12,0:0:0:0:
256,192,238520,1,0,0:0:0:0:
256,192,238686,1,0,0:0:0:0:
256,192,238853,1,12,0:0:0:0:
256,192,239020,1,0,0:0:0:0:
256,192,239186,1,0,0:0:0:0:
256,192,239353,1,12,0:0:0:0:
256,192,239520,1,0,0:0:0:0:
256,192,239686,1,0,0:0:0:0:
256,192,239853,1,12,0:0:0:0:
256,192,240020,1,12,0:0:0:0:
256,192,240186,1,0,0:0:0:0:
256,192,240353,1,12,0:0:0:0:
256,192,240520,1,0,0:0:0:0:
256,192,240686,1,12,0:0:0:0:
256,192,240853,1,0,0:0:0:0:
256,192,241020,1,12,0:0:0:0:
256,192,241186,1,0,0:0:0:0:
256,192,241353,1,0,0:0:0:0:
256,192,241520,1,12,0:0:0:0:
256,192,241686,1,0,0:0:0:0:
256,192,241853,1,0,0:0:0:0:
256,192,242020,1,12,0:0:0:0:
256,192,242186,1,0,0:0:0:0:
256,192,242353,1,0,0:0:0:0:
256,192,242436,1,0,0:0:0:0:
256,192,242520,1,8,0:0:0:0:
256,192,242686,1,8,0:0:0:0:
256,192,242853,1,4,0:0:0:0:
256,192,243020,1,12,0:0:0:0:
256,192,243186,1,4,0:0:0:0:
256,192,243353,1,4,0:0:0:0:
256,192,243686,1,8,0:0:0:0:
256,192,243770,1,8,0:0:0:0:
256,192,243853,1,0,0:0:0:0:
256,192,243936,1,0,0:0:0:0:
256,192,244020,1,0,0:0:0:0:
256,192,244103,1,0,0:0:0:0:
256,192,244186,1,8,0:0:0:0:
256,192,244270,1,8,0:0:0:0:
256,192,244353,1,0,0:0:0:0:
256,192,244436,1,0,0:0:0:0:
256,192,244520,1,0,0:0:0:0:
256,192,244603,1,0,0:0:0:0:
256,192,244686,1,8,0:0:0:0:
256,192,244770,1,8,0:0:0:0:
256,192,244853,1,0,0:0:0:0:
256,192,244936,1,0,0:0:0:0:
256,192,245020,1,0,0:0:0:0:
256,192,245103,1,0,0:0:0:0:
256,192,245186,1,8,0:0:0:0:
256,192,245270,1,8,0:0:0:0:
256,192,245353,1,8,0:0:0:0:
256,192,245436,1,8,0:0:0:0:
256,192,245520,1,0,0:0:0:0:
256,192,245603,1,0,0:0:0:0:
256,192,245686,1,8,0:0:0:0:
256,192,245770,1,8,0:0:0:0:
256,192,245853,1,8,0:0:0:0:
256,192,245936,1,8,0:0:0:0:
256,192,246020,1,0,0:0:0:0:
256,192,246353,1,8,0:0:0:0:
256,192,246436,1,8,0:0:0:0:
256,192,246520,1,0,0:0:0:0:
256,192,246603,1,0,0:0:0:0:
256,192,246686,1,0,0:0:0:0:
256,192,246770,1,0,0:0:0:0:
256,192,246853,1,8,0:0:0:0:
256,192,246936,1,0,0:0:0:0:
256,192,247020,1,8,0:0:0:0:
256,192,247103,1,8,0:0:0:0:
256,192,247186,1,0,0:0:0:0:
256,192,247270,1,0,0:0:0:0:
256,192,247353,1,8,0:0:0:0:
256,192,247436,1,8,0:0:0:0:
256,192,247520,1,0,0:0:0:0:
256,192,247603,1,0,0:0:0:0:
256,192,247686,1,0,0:0:0:0:
256,192,247770,1,0,0:0:0:0:
256,192,247853,1,8,0:0:0:0:
256,192,247936,1,0,0:0:0:0:
256,192,248020,1,8,0:0:0:0:
256,192,248103,1,8,0:0:0:0:
256,192,248186,1,0,0:0:0:0:
256,192,248270,1,0,0:0:0:0:
160,64,249020,2,0,L|224:64,1,62.9999980773926
256,192,249353,1,0,0:0:0:0:
256,192,249520,1,0,0:0:0:0:
256,192,249686,1,12,0:0:0:0:
256,192,250020,1,8,0:0:0:0:
256,192,250353,1,0,0:0:0:0:
256,192,250520,1,8,0:0:0:0:
256,192,250853,1,0,0:0:0:0:
256,192,250936,1,0,0:0:0:0:
256,192,251020,1,8,0:0:0:0:
256,192,251353,1,0,0:0:0:0:
256,192,251520,1,8,0:0:0:0:
256,192,251853,1,0,0:0:0:0:
256,192,252020,1,8,0:0:0:0:
256,192,252353,1,0,0:0:0:0:
256,192,252686,1,0,0:0:0:0:
256,192,252853,1,0,0:0:0:0:
256,192,253020,1,8,0:0:0:0:
256,192,253186,1,8,0:0:0:0:
256,192,253520,1,0,0:0:0:0:
256,192,253603,1,8,0:0:0:0:
256,192,253686,1,8,0:0:0:0:
256,192,254020,1,0,0:0:0:0:
256,192,254186,1,8,0:0:0:0:
256,192,254353,1,0,0:0:0:0:
256,192,254520,1,8,0:0:0:0:
256,192,254686,1,8,0:0:0:0:
256,192,254853,1,0,0:0:0:0:
256,192,255020,1,8,0:0:0:0:
256,192,255353,1,8,0:0:0:0:
256,192,255686,1,0,0:0:0:0:
256,192,255853,1,8,0:0:0:0:
256,192,256020,1,0,0:0:0:0:
256,192,256186,1,0,0:0:0:0:
256,192,256270,1,8,0:0:0:0:
256,192,256353,1,8,0:0:0:0:
256,192,256520,1,0,0:0:0:0:
256,192,256686,1,8,0:0:0:0:
256,192,256853,1,0,0:0:0:0:
256,192,257020,1,0,0:0:0:0:
256,192,257186,1,8,0:0:0:0:
256,192,257353,1,8,0:0:0:0:
256,192,257686,1,0,0:0:0:0:
256,192,258020,1,0,0:0:0:0:
256,192,258186,1,0,0:0:0:0:
256,192,258353,1,8,0:0:0:0:
256,192,258520,1,8,0:0:0:0:
256,192,258686,1,0,0:0:0:0:
256,192,258853,1,0,0:0:0:0:
256,192,258936,1,8,0:0:0:0:
256,192,259020,1,8,0:0:0:0:
256,192,259186,1,0,0:0:0:0:
256,192,259520,1,0,0:0:0:0:
256,192,259603,1,0,0:0:0:0:
256,192,259686,1,8,0:0:0:0:
256,192,259770,1,8,0:0:0:0:
256,192,259853,1,8,0:0:0:0:
256,192,259936,1,8,0:0:0:0:
256,192,260020,1,8,0:0:0:0:
256,192,260103,1,8,0:0:0:0:
256,192,260186,1,8,0:0:0:0:
256,192,260270,1,8,0:0:0:0:
256,192,260353,1,0,0:0:0:0:
256,192,260686,1,4,0:0:0:0:
256,192,261020,1,0,0:0:0:0:
256,192,261103,1,0,0:0:0:0:
256,192,261186,1,8,0:0:0:0:
256,192,261520,1,0,0:0:0:0:
256,192,261603,1,0,0:0:0:0:
256,192,261686,1,8,0:0:0:0:
256,192,262020,1,0,0:0:0:0:
256,192,262103,1,0,0:0:0:0:
256,192,262186,1,8,0:0:0:0:
256,192,262520,1,0,0:0:0:0:
256,192,262603,1,0,0:0:0:0:
256,192,262686,1,8,0:0:0:0:
256,192,262770,1,8,0:0:0:0:
256,192,262853,1,0,0:0:0:0:
256,192,263020,1,4,0:0:0:0:
256,192,263353,1,8,0:0:0:0:
256,192,263686,1,0,0:0:0:0:
256,192,263853,1,0,0:0:0:0:
256,192,264020,1,8,0:0:0:0:
256,192,264353,1,0,0:0:0:0:
256,192,264686,1,8,0:0:0:0:
256,192,264853,1,8,0:0:0:0:
256,192,265020,1,0,0:0:0:0:
256,192,265186,1,8,0:0:0:0:
256,192,265353,1,8,0:0:0:0:
256,192,265520,1,8,0:0:0:0:
256,192,265603,1,8,0:0:0:0:
256,192,265686,1,0,0:0:0:0:
256,192,266020,1,4,0:0:0:0:
256,192,266353,1,0,0:0:0:0:
256,192,266436,1,0,0:0:0:0:
256,192,266520,1,8,0:0:0:0:
256,192,266853,1,0,0:0:0:0:
256,192,266936,1,0,0:0:0:0:
256,192,267020,1,8,0:0:0:0:
256,192,267353,1,0,0:0:0:0:
256,192,267436,1,0,0:0:0:0:
256,192,267520,1,8,0:0:0:0:
256,192,267853,1,0,0:0:0:0:
256,192,267936,1,0,0:0:0:0:
256,192,268020,1,8,0:0:0:0:
256,192,268103,1,8,0:0:0:0:
256,192,268186,1,0,0:0:0:0:
256,192,268353,1,4,0:0:0:0:
256,192,268686,1,8,0:0:0:0:
256,192,269020,1,0,0:0:0:0:
256,192,269186,1,0,0:0:0:0:
256,192,269353,1,8,0:0:0:0:
256,192,269686,1,0,0:0:0:0:
256,192,269853,1,0,0:0:0:0:
256,192,270020,1,8,0:0:0:0:
256,192,270353,1,0,0:0:0:0:
256,192,270520,1,0,0:0:0:0:
256,192,270603,1,0,0:0:0:0:
256,192,270686,1,8,0:0:0:0:
256,192,270770,1,8,0:0:0:0:
256,192,270853,1,8,0:0:0:0:
256,192,270936,1,8,0:0:0:0:
256,192,271020,1,0,0:0:0:0:
256,192,271353,1,4,0:0:0:0:
256,192,271686,1,0,0:0:0:0:
256,192,271770,1,0,0:0:0:0:
256,192,271853,1,8,0:0:0:0:
256,192,271936,1,0,0:0:0:0:
256,192,272020,1,0,0:0:0:0:
256,192,272103,1,0,0:0:0:0:
256,192,272186,1,0,0:0:0:0:
256,192,272270,1,0,0:0:0:0:
256,192,272353,1,8,0:0:0:0:
256,192,272436,1,0,0:0:0:0:
256,192,272520,1,0,0:0:0:0:
256,192,272603,1,0,0:0:0:0:
256,192,272686,1,0,0:0:0:0:
256,192,272770,1,0,0:0:0:0:
256,192,272853,1,8,0:0:0:0:
256,192,272936,1,0,0:0:0:0:
256,192,273020,1,0,0:0:0:0:
256,192,273103,1,0,0:0:0:0:
256,192,273186,1,8,0:0:0:0:
256,192,273270,1,0,0:0:0:0:
256,192,273353,1,8,0:0:0:0:
256,192,273436,1,0,0:0:0:0:
256,192,273520,1,8,0:0:0:0:
256,192,273603,1,8,0:0:0:0:
256,192,273686,1,0,0:0:0:0:
256,192,273853,1,0,0:0:0:0:
256,192,273936,1,0,0:0:0:0:
256,192,274020,1,8,0:0:0:0:
256,192,274186,1,0,0:0:0:0:
256,192,274270,1,0,0:0:0:0:
256,192,274353,1,0,0:0:0:0:
256,192,274520,1,0,0:0:0:0:
256,192,274603,1,0,0:0:0:0:
256,192,274686,1,8,0:0:0:0:
256,192,274853,1,0,0:0:0:0:
256,192,274936,1,0,0:0:0:0:
256,192,275020,1,0,0:0:0:0:
256,192,275186,1,0,0:0:0:0:
256,192,275270,1,0,0:0:0:0:
256,192,275353,1,8,0:0:0:0:
256,192,275520,1,0,0:0:0:0:
256,192,275603,1,0,0:0:0:0:
256,192,275686,1,0,0:0:0:0:
256,192,275853,1,0,0:0:0:0:
256,192,275936,1,0,0:0:0:0:
256,192,276020,1,8,0:0:0:0:
256,192,276103,1,8,0:0:0:0:
256,192,276186,1,8,0:0:0:0:
256,192,276270,1,8,0:0:0:0:
256,192,276353,1,0,0:0:0:0:
256,192,276686,1,4,0:0:0:0:
256,192,277020,1,0,0:0:0:0:
256,192,277103,1,0,0:0:0:0:
256,192,277186,1,8,0:0:0:0:
256,192,277270,1,0,0:0:0:0:
256,192,277353,1,0,0:0:0:0:
256,192,277436,1,0,0:0:0:0:
256,192,277520,1,8,0:0:0:0:
256,192,277603,1,0,0:0:0:0:
256,192,277686,1,8,0:0:0:0:
256,192,277770,1,8,0:0:0:0:
256,192,277853,1,0,0:0:0:0:
256,192,277936,1,0,0:0:0:0:
256,192,278020,1,8,0:0:0:0:
256,192,278103,1,0,0:0:0:0:
256,192,278186,1,8,0:0:0:0:
256,192,278270,1,8,0:0:0:0:
256,192,278353,1,0,0:0:0:0:
256,192,278436,1,0,0:0:0:0:
256,192,278520,1,8,0:0:0:0:
256,192,278603,1,8,0:0:0:0:
256,192,278686,1,8,0:0:0:0:
256,192,278770,1,8,0:0:0:0:
256,192,278853,1,0,0:0:0:0:
256,192,278936,1,0,0:0:0:0:
256,192,279020,1,0,0:0:0:0:
256,192,279186,1,0,0:0:0:0:
256,192,279270,1,0,0:0:0:0:
256,192,279353,1,8,0:0:0:0:
256,192,279520,1,0,0:0:0:0:
256,192,279603,1,0,0:0:0:0:
256,192,279686,1,0,0:0:0:0:
256,192,279853,1,0,0:0:0:0:
256,192,279936,1,0,0:0:0:0:
256,192,280020,1,8,0:0:0:0:
256,192,280186,1,0,0:0:0:0:
256,192,280270,1,0,0:0:0:0:
256,192,280353,1,0,0:0:0:0:
256,192,280520,1,0,0:0:0:0:
256,192,280603,1,0,0:0:0:0:
256,192,280686,1,8,0:0:0:0:
256,192,280853,1,0,0:0:0:0:
256,192,280936,1,0,0:0:0:0:
256,192,281020,1,8,0:0:0:0:
256,192,281075,1,8,0:0:0:0:
256,192,281131,1,8,0:0:0:0:
256,192,281186,1,0,0:0:0:0:
256,192,281270,1,0,0:0:0:0:
256,192,281353,1,8,0:0:0:0:
256,192,281409,1,8,0:0:0:0:
256,192,281464,1,8,0:0:0:0:
256,192,281520,1,0,0:0:0:0:
256,192,281603,1,0,0:0:0:0:
256,192,281686,1,0,0:0:0:0:
256,192,282020,1,4,0:0:0:0:
256,192,282353,1,0,0:0:0:0:
256,192,282436,1,0,0:0:0:0:
256,192,282520,1,8,0:0:0:0:
256,192,282686,1,8,0:0:0:0:
256,192,282853,1,0,0:0:0:0:
256,192,282936,1,0,0:0:0:0:
256,192,283020,1,8,0:0:0:0:
256,192,283186,1,8,0:0:0:0:
256,192,283353,1,0,0:0:0:0:
256,192,283436,1,0,0:0:0:0:
256,192,283520,1,8,0:0:0:0:
256,192,283686,1,8,0:0:0:0:
256,192,283853,1,0,0:0:0:0:
256,192,283936,1,0,0:0:0:0:
256,192,284020,1,8,0:0:0:0:
256,192,284186,1,8,0:0:0:0:
256,192,284270,1,8,0:0:0:0:
256,192,284353,1,0,0:0:0:0:
256,192,284436,1,0,0:0:0:0:
256,192,284520,1,0,0:0:0:0:
256,192,284603,1,0,0:0:0:0:
256,192,284686,1,8,0:0:0:0:
256,192,284770,1,0,0:0:0:0:
256,192,284853,1,0,0:0:0:0:
256,192,284936,1,0,0:0:0:0:
256,192,285020,1,0,0:0:0:0:
256,192,285103,1,0,0:0:0:0:
256,192,285186,1,0,0:0:0:0:
256,192,285270,1,0,0:0:0:0:
256,192,285353,1,8,0:0:0:0:
256,192,285436,1,0,0:0:0:0:
256,192,285520,1,0,0:0:0:0:
256,192,285603,1,0,0:0:0:0:
256,192,285686,1,0,0:0:0:0:
256,192,285770,1,0,0:0:0:0:
256,192,285853,1,0,0:0:0:0:
256,192,285936,1,0,0:0:0:0:
256,192,286020,1,8,0:0:0:0:
256,192,286103,1,0,0:0:0:0:
256,192,286186,1,0,0:0:0:0:
256,192,286270,1,0,0:0:0:0:
256,192,286353,1,8,0:0:0:0:
256,192,286436,1,8,0:0:0:0:
256,192,286520,1,0,0:0:0:0:
256,192,286603,1,0,0:0:0:0:
256,192,286686,1,8,0:0:0:0:
256,192,286770,1,8,0:0:0:0:
256,192,286853,1,8,0:0:0:0:
256,192,286936,1,8,0:0:0:0:
256,192,287020,1,0,0:0:0:0:
256,192,287186,1,0,0:0:0:0:
256,192,287270,1,0,0:0:0:0:
256,192,287353,1,8,0:0:0:0:
256,192,287520,1,8,0:0:0:0:
256,192,287686,1,0,0:0:0:0:
256,192,287770,1,0,0:0:0:0:
256,192,287853,1,8,0:0:0:0:
256,192,288020,1,8,0:0:0:0:
256,192,288186,1,0,0:0:0:0:
256,192,288270,1,0,0:0:0:0:
256,192,288353,1,8,0:0:0:0:
256,192,288520,1,8,0:0:0:0:
256,192,288686,1,0,0:0:0:0:
256,192,288770,1,0,0:0:0:0:
256,192,288853,1,8,0:0:0:0:
256,192,288936,1,0,0:0:0:0:
256,192,289020,1,0,0:0:0:0:
256,192,289103,1,0,0:0:0:0:
256,192,289186,1,8,0:0:0:0:
256,192,289270,1,8,0:0:0:0:
256,192,289353,1,0,0:0:0:0:
256,192,289436,1,0,0:0:0:0:
256,192,289520,1,8,0:0:0:0:
256,192,289603,1,8,0:0:0:0:
256,192,289686,1,0,0:0:0:0:
256,192,289770,1,0,0:0:0:0:
256,192,289853,1,0,0:0:0:0:
256,192,289936,1,0,0:0:0:0:
256,192,290020,1,8,0:0:0:0:
256,192,290103,1,0,0:0:0:0:
256,192,290186,1,0,0:0:0:0:
256,192,290270,1,0,0:0:0:0:
256,192,290353,1,0,0:0:0:0:
256,192,290436,1,0,0:0:0:0:
256,192,290520,1,0,0:0:0:0:
256,192,290603,1,0,0:0:0:0:
256,192,290686,1,8,0:0:0:0:
256,192,290770,1,0,0:0:0:0:
256,192,290853,1,0,0:0:0:0:
256,192,290936,1,0,0:0:0:0:
256,192,291020,1,0,0:0:0:0:
256,192,291103,1,0,0:0:0:0:
256,192,291186,1,0,0:0:0:0:
256,192,291270,1,0,0:0:0:0:
256,192,291353,1,8,0:0:0:0:
256,192,291436,1,0,0:0:0:0:
256,192,291520,1,0,0:0:0:0:
256,192,291603,1,0,0:0:0:0:
256,192,291686,1,8,0:0:0:0:
256,192,291770,1,8,0:0:0:0:
256,192,291853,1,0,0:0:0:0:
256,192,291936,1,0,0:0:0:0:
256,192,292020,1,8,0:0:0:0:
256,192,292103,1,8,0:0:0:0:
256,192,292186,1,8,0:0:0:0:
256,192,292270,1,8,0:0:0:0:
256,192,292353,1,0,0:0:0:0:
256,192,292686,1,4,0:0:0:0:
256,192,292853,1,0,0:0:0:0:
256,192,292936,1,0,0:0:0:0:
256,192,293020,1,0,0:0:0:0:
256,192,293186,1,12,0:0:0:0:
256,192,293520,1,0,0:0:0:0:
256,192,293686,1,12,0:0:0:0:
256,192,294020,1,0,0:0:0:0:
256,192,294186,1,12,0:0:0:0:
256,192,294520,1,0,0:0:0:0:
256,192,294603,1,0,0:0:0:0:
256,192,294686,1,8,0:0:0:0:
256,192,294853,1,0,0:0:0:0:
256,192,295020,1,4,0:0:0:0:
256,192,295353,1,4,0:0:0:0:
256,192,295520,1,0,0:0:0:0:
256,192,295603,1,0,0:0:0:0:
256,192,295686,1,0,0:0:0:0:
256,192,295853,1,12,0:0:0:0:
256,192,296186,1,0,0:0:0:0:
256,192,296353,1,12,0:0:0:0:
256,192,296520,1,0,0:0:0:0:
256,192,296686,1,0,0:0:0:0:
256,192,296853,1,12,0:0:0:0:
256,192,297020,1,0,0:0:0:0:
256,192,297186,1,0,0:0:0:0:
256,192,297270,1,0,0:0:0:0:
256,192,297353,1,8,0:0:0:0:
256,192,297520,1,0,0:0:0:0:
256,192,297686,1,4,0:0:0:0:
256,192,297853,1,0,0:0:0:0:
256,192,298020,1,4,0:0:0:0:
256,192,298186,1,8,0:0:0:0:
256,192,298353,1,8,0:0:0:0:
256,192,298520,1,4,0:0:0:0:
256,192,298686,1,0,0:0:0:0:
256,192,298853,1,0,0:0:0:0:
256,192,298936,1,0,0:0:0:0:
256,192,299020,1,8,0:0:0:0:
256,192,299186,1,0,0:0:0:0:
256,192,299353,1,8,0:0:0:0:
256,192,299520,1,4,0:0:0:0:
256,192,299686,1,8,0:0:0:0:
256,192,299853,1,0,0:0:0:0:
256,192,300020,1,4,0:0:0:0:
256,192,300186,1,4,0:0:0:0:
256,192,300353,1,12,0:0:0:0:
256,192,300520,1,0,0:0:0:0:
256,192,300686,1,12,0:0:0:0:
256,192,300853,1,0,0:0:0:0:
256,192,301020,1,0,0:0:0:0:
256,192,301186,1,12,0:0:0:0:
256,192,301353,1,8,0:0:0:0:
256,192,301520,1,0,0:0:0:0:
256,192,301686,1,12,0:0:0:0:
256,192,301853,1,0,0:0:0:0:
256,192,302020,1,8,0:0:0:0:
256,192,302186,1,0,0:0:0:0:
256,192,302353,1,8,0:0:0:0:
256,192,302436,1,8,0:0:0:0:
256,192,302520,1,8,0:0:0:0:
256,192,302603,1,8,0:0:0:0:
256,192,302686,1,8,0:0:0:0:
256,192,302770,1,8,0:0:0:0:
256,192,302853,1,8,0:0:0:0:
256,192,302936,1,8,0:0:0:0:
256,192,303020,1,0,0:0:0:0:
256,192,303186,1,0,0:0:0:0:
256,192,303270,1,0,0:0:0:0:
256,192,303353,1,8,0:0:0:0:
256,192,303436,1,0,0:0:0:0:
256,192,303520,1,0,0:0:0:0:
256,192,303603,1,0,0:0:0:0:
256,192,303686,1,0,0:0:0:0:
256,192,303853,1,0,0:0:0:0:
256,192,303936,1,0,0:0:0:0:
256,192,304020,1,8,0:0:0:0:
256,192,304186,1,8,0:0:0:0:
256,192,304270,1,8,0:0:0:0:
256,192,304353,1,0,0:0:0:0:
256,192,304520,1,0,0:0:0:0:
256,192,304603,1,0,0:0:0:0:
256,192,304686,1,8,0:0:0:0:
256,192,304770,1,0,0:0:0:0:
256,192,304853,1,0,0:0:0:0:
256,192,304936,1,8,0:0:0:0:
256,192,305020,1,0,0:0:0:0:
256,192,305186,1,0,0:0:0:0:
256,192,305270,1,0,0:0:0:0:
256,192,305353,1,8,0:0:0:0:
256,192,305436,1,0,0:0:0:0:
256,192,305520,1,0,0:0:0:0:
256,192,305686,1,0,0:0:0:0:
256,192,305770,1,0,0:0:0:0:
256,192,305853,1,0,0:0:0:0:
256,192,306020,1,8,0:0:0:0:
256,192,306103,1,0,0:0:0:0:
256,192,306186,1,0,0:0:0:0:
256,192,306270,1,0,0:0:0:0:
256,192,306353,1,0,0:0:0:0:
256,192,306520,1,0,0:0:0:0:
256,192,306603,1,0,0:0:0:0:
256,192,306686,1,8,0:0:0:0:
256,192,306770,1,0,0:0:0:0:
256,192,306853,1,8,0:0:0:0:
256,192,307186,1,0,0:0:0:0:
256,192,307270,1,0,0:0:0:0:
256,192,307353,1,8,0:0:0:0:
256,192,307436,1,0,0:0:0:0:
256,192,307520,1,0,0:0:0:0:
256,192,307603,1,0,0:0:0:0:
256,192,307686,1,0,0:0:0:0:
256,192,307853,1,0,0:0:0:0:
256,192,307936,1,0,0:0:0:0:
256,192,308020,1,8,0:0:0:0:
256,192,308103,1,8,0:0:0:0:
256,192,308186,1,8,0:0:0:0:
256,192,308270,1,8,0:0:0:0:
256,192,308353,1,0,0:0:0:0:
256,192,308520,1,0,0:0:0:0:
256,192,308603,1,0,0:0:0:0:
256,192,308686,1,8,0:0:0:0:
256,192,308770,1,0,0:0:0:0:
256,192,308853,1,0,0:0:0:0:
256,192,309020,1,0,0:0:0:0:
256,192,309103,1,0,0:0:0:0:
256,192,309186,1,0,0:0:0:0:
256,192,309270,1,0,0:0:0:0:
256,192,309353,1,8,0:0:0:0:
256,192,309520,1,0,0:0:0:0:
256,192,309603,1,0,0:0:0:0:
256,192,309686,1,0,0:0:0:0:
256,192,309770,1,0,0:0:0:0:
256,192,309853,1,0,0:0:0:0:
256,192,310020,1,8,0:0:0:0:
256,192,310103,1,0,0:0:0:0:
256,192,310186,1,0,0:0:0:0:
256,192,310270,1,8,0:0:0:0:
256,192,310353,1,8,0:0:0:0:
256,192,310436,1,8,0:0:0:0:
256,192,310520,1,0,0:0:0:0:
256,192,310603,1,0,0:0:0:0:
256,192,310686,1,8,0:0:0:0:
256,192,310770,1,8,0:0:0:0:
256,192,310853,1,0,0:0:0:0:
256,192,310936,1,0,0:0:0:0:
256,192,311020,1,0,0:0:0:0:
256,192,311186,1,0,0:0:0:0:
256,192,311270,1,0,0:0:0:0:
256,192,311353,1,8,0:0:0:0:
256,192,311436,1,0,0:0:0:0:
256,192,311520,1,0,0:0:0:0:
256,192,311603,1,0,0:0:0:0:
256,192,311686,1,0,0:0:0:0:
256,192,311853,1,0,0:0:0:0:
256,192,311936,1,0,0:0:0:0:
256,192,312020,1,8,0:0:0:0:
256,192,312103,1,0,0:0:0:0:
256,192,312186,1,0,0:0:0:0:
256,192,312353,1,0,0:0:0:0:
256,192,312436,1,0,0:0:0:0:
256,192,312520,1,0,0:0:0:0:
256,192,312603,1,0,0:0:0:0:
256,192,312686,1,8,0:0:0:0:
256,192,312853,1,0,0:0:0:0:
256,192,312936,1,0,0:0:0:0:
256,192,313020,1,8,0:0:0:0:
256,192,313103,1,8,0:0:0:0:
256,192,313186,1,0,0:0:0:0:
256,192,313270,1,0,0:0:0:0:
256,192,313353,1,8,0:0:0:0:
256,192,313436,1,8,0:0:0:0:
256,192,313520,1,0,0:0:0:0:
256,192,313603,1,8,0:0:0:0:
256,192,313686,1,0,0:0:0:0:
256,192,313770,1,0,0:0:0:0:
256,192,313853,1,0,0:0:0:0:
256,192,313936,1,0,0:0:0:0:
256,192,314020,1,8,0:0:0:0:
256,192,314103,1,0,0:0:0:0:
256,192,314186,1,0,0:0:0:0:
256,192,314270,1,0,0:0:0:0:
256,192,314353,1,0,0:0:0:0:
256,192,314436,1,0,0:0:0:0:
256,192,314520,1,8,0:0:0:0:
256,192,314603,1,0,0:0:0:0:
256,192,314686,1,8,0:0:0:0:
256,192,314770,1,8,0:0:0:0:
256,192,314853,1,0,0:0:0:0:
256,192,315020,1,0,0:0:0:0:
256,192,315103,1,0,0:0:0:0:
256,192,315186,1,0,0:0:0:0:
256,192,315270,1,0,0:0:0:0:
256,192,315353,1,8,0:0:0:0:
256,192,315436,1,0,0:0:0:0:
256,192,315520,1,0,0:0:0:0:
256,192,315603,1,0,0:0:0:0:
256,192,315686,1,8,0:0:0:0:
256,192,315770,1,8,0:0:0:0:
256,192,315853,1,0,0:0:0:0:
256,192,315936,1,0,0:0:0:0:
256,192,316020,1,8,0:0:0:0:
256,192,316186,1,0,0:0:0:0:
256,192,316270,1,8,0:0:0:0:
256,192,316353,1,0,0:0:0:0:
256,192,316436,1,0,0:0:0:0:
256,192,316520,1,0,0:0:0:0:
256,192,316603,1,0,0:0:0:0:
256,192,316686,1,8,0:0:0:0:
256,192,316770,1,8,0:0:0:0:
256,192,316853,1,0,0:0:0:0:
256,192,316936,1,0,0:0:0:0:
256,192,317020,1,8,0:0:0:0:
256,192,317186,1,8,0:0:0:0:
256,192,317270,1,8,0:0:0:0:
256,192,317353,1,0,0:0:0:0:
256,192,317520,1,12,0:0:0:0:
256,192,317853,1,0,0:0:0:0:
256,192,317909,1,0,0:0:0:0:
256,192,317964,1,0,0:0:0:0:
256,192,318020,1,8,0:0:0:0:
256,192,318186,1,8,0:0:0:0:
256,192,318353,1,0,0:0:0:0:
256,192,318520,1,0,0:0:0:0:
256,192,318603,1,0,0:0:0:0:
256,192,318686,1,8,0:0:0:0:
256,192,318770,1,8,0:0:0:0:
256,192,318853,1,8,0:0:0:0:
256,192,318936,1,8,0:0:0:0:
256,192,319020,1,0,0:0:0:0:
256,192,319103,1,0,0:0:0:0:
256,192,319186,1,0,0:0:0:0:
256,192,319270,1,0,0:0:0:0:
256,192,319353,1,8,0:0:0:0:
256,192,319436,1,0,0:0:0:0:
256,192,319520,1,0,0:0:0:0:
256,192,319603,1,0,0:0:0:0:
256,192,319686,1,0,0:0:0:0:
256,192,319770,1,0,0:0:0:0:
256,192,319853,1,0,0:0:0:0:
256,192,319936,1,0,0:0:0:0:
256,192,320020,1,8,0:0:0:0:
256,192,320103,1,0,0:0:0:0:
256,192,320186,1,0,0:0:0:0:
256,192,320270,1,0,0:0:0:0:
256,192,320353,1,0,0:0:0:0:
256,192,320436,1,0,0:0:0:0:
256,192,320520,1,0,0:0:0:0:
256,192,320603,1,0,0:0:0:0:
256,192,320686,1,8,0:0:0:0:
256,192,320770,1,0,0:0:0:0:
256,192,320853,1,0,0:0:0:0:
256,192,320936,1,0,0:0:0:0:
256,192,321020,1,0,0:0:0:0:
256,192,321103,1,0,0:0:0:0:
256,192,321186,1,8,0:0:0:0:
256,192,321270,1,0,0:0:0:0:
256,192,321353,1,8,0:0:0:0:
256,192,321436,1,0,0:0:0:0:
256,192,321520,1,8,0:0:0:0:
256,192,321603,1,8,0:0:0:0:
256,192,321686,1,0,0:0:0:0:
256,192,321770,1,0,0:0:0:0:
256,192,321853,1,0,0:0:0:0:
256,192,321936,1,0,0:0:0:0:
256,192,322020,1,8,0:0:0:0:
256,192,322103,1,0,0:0:0:0:
256,192,322186,1,0,0:0:0:0:
256,192,322270,1,0,0:0:0:0:
256,192,322353,1,0,0:0:0:0:
256,192,322436,1,0,0:0:0:0:
256,192,322520,1,0,0:0:0:0:
256,192,322603,1,0,0:0:0:0:
256,192,322686,1,8,0:0:0:0:
256,192,322770,1,0,0:0:0:0:
256,192,322853,1,0,0:0:0:0:
256,192,322936,1,0,0:0:0:0:
256,192,323020,1,8,0:0:0:0:
256,192,323103,1,0,0:0:0:0:
256,192,323186,1,8,0:0:0:0:
256,192,323270,1,8,0:0:0:0:
256,192,323353,1,8,0:0:0:0:
256,192,323436,1,8,0:0:0:0:
256,192,323520,1,0,0:0:0:0:
256,192,323603,1,0,0:0:0:0:
256,192,323686,1,8,0:0:0:0:
256,192,323770,1,0,0:0:0:0:
256,192,323853,1,0,0:0:0:0:
256,192,323936,1,0,0:0:0:0:
256,192,324020,1,8,0:0:0:0:
256,192,324103,1,8,0:0:0:0:
256,192,324186,1,8,0:0:0:0:
256,192,324270,1,8,0:0:0:0:
256,192,324353,1,0,0:0:0:0:
256,192,324520,1,8,0:0:0:0:
256,192,324686,1,8,0:0:0:0:
256,192,324853,1,0,0:0:0:0:
256,192,325020,1,12,0:0:0:0:
256,192,325186,1,0,0:0:0:0:
256,192,325353,1,0,0:0:0:0:
256,192,325520,1,12,0:0:0:0:
256,192,325686,1,0,0:0:0:0:
256,192,325853,1,0,0:0:0:0:
256,192,326020,1,12,0:0:0:0:
256,192,326186,1,0,0:0:0:0:
256,192,326353,1,0,0:0:0:0:
256,192,326520,1,12,0:0:0:0:
256,192,326686,1,12,0:0:0:0:
256,192,326853,1,0,0:0:0:0:
256,192,327020,1,12,0:0:0:0:
256,192,327186,1,0,0:0:0:0:
256,192,327353,1,12,0:0:0:0:
256,192,327520,1,0,0:0:0:0:
256,192,327686,1,8,0:0:0:0:
256,192,327853,1,8,0:0:0:0:
256,192,328020,1,4,0:0:0:0:
256,192,328186,1,8,0:0:0:0:
256,192,328353,1,8,0:0:0:0:
256,192,328520,1,4,0:0:0:0:
256,192,328686,1,8,0:0:0:0:
256,192,328770,1,8,0:0:0:0:
256,192,328853,1,0,0:0:0:0:
256,192,328936,1,0,0:0:0:0:
256,192,329020,1,8,0:0:0:0:
256,192,329103,1,0,0:0:0:0:
256,192,329186,1,0,0:0:0:0:
256,192,329270,1,0,0:0:0:0:
256,192,329353,1,8,0:0:0:0:
256,192,329436,1,8,0:0:0:0:
256,192,329520,1,8,0:0:0:0:
256,192,329603,1,8,0:0:0:0:
256,192,329686,1,0,0:0:0:0:
256,192,329853,1,4,0:0:0:0:
256,192,330020,1,4,0:0:0:0:
256,192,330353,1,8,0:0:0:0:
256,192,330436,1,0,0:0:0:0:
256,192,330520,1,0,0:0:0:0:
256,192,330603,1,0,0:0:0:0:
256,192,330686,1,0,0:0:0:0:
256,192,330770,1,0,0:0:0:0:
256,192,330853,1,8,0:0:0:0:
256,192,330936,1,0,0:0:0:0:
256,192,331020,1,0,0:0:0:0:
256,192,331103,1,0,0:0:0:0:
256,192,331186,1,0,0:0:0:0:
256,192,331270,1,0,0:0:0:0:
256,192,331353,1,8,0:0:0:0:
256,192,331436,1,0,0:0:0:0:
256,192,331520,1,0,0:0:0:0:
256,192,331603,1,0,0:0:0:0:
256,192,331686,1,0,0:0:0:0:
256,192,331770,1,0,0:0:0:0:
256,192,331853,1,8,0:0:0:0:
256,192,331936,1,0,0:0:0:0:
256,192,332020,1,8,0:0:0:0:
256,192,332103,1,0,0:0:0:0:
256,192,332186,1,0,0:0:0:0:
256,192,332270,1,0,0:0:0:0:
256,192,332353,1,8,0:0:0:0:
256,192,332436,1,8,0:0:0:0:
256,192,332520,1,0,0:0:0:0:
256,192,332603,1,0,0:0:0:0:
256,192,332686,1,0,0:0:0:0:
256,192,333020,1,8,0:0:0:0:
256,192,333103,1,0,0:0:0:0:
256,192,333186,1,0,0:0:0:0:
256,192,333270,1,0,0:0:0:0:
256,192,333353,1,0,0:0:0:0:
256,192,333436,1,0,0:0:0:0:
256,192,333520,1,8,0:0:0:0:
256,192,333603,1,0,0:0:0:0:
256,192,333686,1,0,0:0:0:0:
256,192,333770,1,0,0:0:0:0:
256,192,333853,1,0,0:0:0:0:
256,192,333936,1,0,0:0:0:0:
256,192,334020,1,8,0:0:0:0:
256,192,334103,1,0,0:0:0:0:
256,192,334186,1,0,0:0:0:0:
256,192,334270,1,0,0:0:0:0:
256,192,334353,1,8,0:0:0:0:
256,192,334436,1,0,0:0:0:0:
256,192,334520,1,0,0:0:0:0:
256,192,334603,1,0,0:0:0:0:
256,192,334686,1,8,0:0:0:0:
256,192,334742,1,8,0:0:0:0:
256,192,334798,1,8,0:0:0:0:
256,192,334853,1,0,0:0:0:0:
256,192,334936,1,0,0:0:0:0:
256,192,335020,1,8,0:0:0:0:
