osu file format v14

[General]
AudioFilename: bepis.ogg
AudioLeadIn: 0
PreviewTime: 8572
Countdown: 0
SampleSet: Drum
StackLeniency: 0.7
Mode: 3
LetterboxInBreaks: 0
SpecialStyle: 0
WidescreenStoryboard: 0

[Editor]
DistanceSpacing: 0.8
BeatDivisor: 4
GridSize: 32
TimelineZoom: 1.4

[Metadata]
Title:The Pepsiman Pepsi Jam
TitleUnicode:The Pepsiman Pepsi Jam
Artist:GaMetal & Friends
ArtistUnicode:GaMetal & Friends
Creator:AutotelicBrown
Version:Bepis
Source:ペプシマン
Tags:GaMetal Jonny Atma InsaneInTheRainMusic ToxicxEternity The8BitDrummer Tee Lopes Eric L. RichaadEB Sax Dragon Pepsi Man Pepsiman Main Theme IX 2020 pepsi bepis Takuya Onuki
BeatmapID:2863218
BeatmapSetID:1386044

[Difficulty]
HPDrainRate:8
CircleSize:4
OverallDifficulty:8
ApproachRate:5
SliderMultiplier:1.4
SliderTickRate:1

[Events]
//Background and Video events
0,0,"bg.png",0,0
//Break Periods
//Storyboard Layer 0 (Background)
//Storyboard Layer 1 (Fail)
//Storyboard Layer 2 (Pass)
//Storyboard Layer 3 (Foreground)
//Storyboard Layer 4 (Overlay)
//Storyboard Sound Samples

[TimingPoints]
63,357.142857,4,3,1,40,1,0
25777,-100,4,3,1,45,0,0
62920,-100,4,3,1,50,0,0
100062,-100,4,3,1,45,0,0
148634,-100,4,3,1,50,0,0
151491,-100,4,3,1,45,0,0
174348,-100,4,3,1,50,0,0
177205,-100,4,3,1,45,0,0
211491,-100,4,3,1,50,0,0
214348,-100,4,3,1,45,0,0
251491,-100,4,3,1,50,0,0
257205,-100,4,3,1,45,0,0
277205,-100,4,3,1,50,0,0
280062,-100,4,3,1,50,0,1
294348,-100,4,3,1,50,0,0

[HitObjects]
448,192,1491,5,0,3:0:0:0:
448,192,1848,1,0,3:0:0:0:
448,192,2205,1,0,3:0:0:0:
64,192,2384,1,0,3:0:0:0:
192,192,2443,1,0,3:0:0:0:
64,192,2503,1,0,3:0:0:0:
320,192,2562,1,0,3:0:0:0:
192,192,2741,1,0,3:0:0:0:
64,192,2920,1,0,0:0:0:0:
320,192,2920,1,0,0:0:0:0:
448,192,2920,1,0,0:0:0:0:
192,192,3277,1,0,0:0:0:0:
448,192,3455,1,0,0:0:0:0:
64,192,3812,1,0,0:0:0:0:
320,192,3991,1,0,0:0:0:0:
64,192,4170,1,0,0:0:0:0:
448,192,4170,1,0,0:0:0:0:
64,192,4348,1,0,0:0:0:0:
320,192,4348,1,0,0:0:0:0:
192,192,4705,1,0,0:0:0:0:
448,192,4884,1,0,0:0:0:0:
64,192,5241,1,0,0:0:0:0:
192,192,5330,1,0,0:0:0:0:
64,192,5420,1,0,0:0:0:0:
448,192,5420,1,0,0:0:0:0:
192,192,5598,1,0,0:0:0:0:
320,192,5598,1,0,0:0:0:0:
448,192,5598,1,0,0:0:0:0:
64,192,5777,1,0,0:0:0:0:
192,192,5777,1,0,0:0:0:0:
320,192,5777,1,0,0:0:0:0:
192,192,6134,1,0,0:0:0:0:
448,192,6312,1,0,0:0:0:0:
64,192,6670,1,0,0:0:0:0:
320,192,6848,1,0,0:0:0:0:
192,192,7027,1,0,0:0:0:0:
320,192,7116,1,0,0:0:0:0:
64,192,7205,1,0,0:0:0:0:
448,192,7295,1,0,0:0:0:0:
320,192,7384,1,0,0:0:0:0:
192,192,7473,1,0,0:0:0:0:
448,192,7562,1,0,0:0:0:0:
64,192,7652,1,0,0:0:0:0:
320,192,7741,1,0,0:0:0:0:
448,192,7830,1,0,0:0:0:0:
192,192,7920,1,0,0:0:0:0:
320,192,7979,1,0,0:0:0:0:
64,192,8039,1,0,0:0:0:0:
448,192,8098,1,0,0:0:0:0:
320,192,8187,1,0,0:0:0:0:
64,192,8277,1,0,0:0:0:0:
320,192,8366,1,0,0:0:0:0:
192,192,8455,1,0,0:0:0:0:
448,192,8545,1,0,0:0:0:0:
64,192,8634,1,0,0:0:0:0:
192,192,8634,1,0,0:0:0:0:
320,192,8634,1,0,0:0:0:0:
64,192,8991,1,0,0:0:0:0:
192,192,8991,1,0,0:0:0:0:
64,192,9170,1,0,0:0:0:0:
320,192,9170,1,0,0:0:0:0:
448,192,9170,1,0,0:0:0:0:
192,192,9527,1,0,0:0:0:0:
64,192,9705,1,0,0:0:0:0:
448,192,9705,1,0,0:0:0:0:
320,192,9884,1,0,0:0:0:0:
448,192,9884,1,0,0:0:0:0:
192,192,10062,1,0,0:0:0:0:
64,192,10062,1,0,0:0:0:0:
448,192,10420,1,0,0:0:0:0:
192,192,10598,1,0,0:0:0:0:
320,192,10687,1,0,0:0:0:0:
64,192,10777,1,0,0:0:0:0:
448,192,10777,1,0,0:0:0:0:
192,192,10866,1,0,0:0:0:0:
320,192,10866,1,0,0:0:0:0:
448,192,10955,1,0,0:0:0:0:
64,192,11045,1,0,0:0:0:0:
320,192,11134,1,0,0:0:0:0:
192,192,11193,1,0,0:0:0:0:
448,192,11253,1,0,0:0:0:0:
320,192,11312,1,0,0:0:0:0:
64,192,11312,1,0,0:0:0:0:
64,192,11491,1,0,0:0:0:0:
192,192,11491,1,0,0:0:0:0:
448,192,11491,1,0,0:0:0:0:
448,192,11848,1,0,0:0:0:0:
64,192,12027,1,0,0:0:0:0:
320,192,12027,1,0,0:0:0:0:
192,192,12384,1,0,0:0:0:0:
448,192,12562,1,0,0:0:0:0:
64,192,12562,1,0,0:0:0:0:
320,192,12741,1,0,0:0:0:0:
448,192,12741,1,0,0:0:0:0:
64,192,12920,1,0,0:0:0:0:
192,192,12920,1,0,0:0:0:0:
448,192,13277,1,0,0:0:0:0:
64,192,13455,1,0,0:0:0:0:
320,192,13455,1,0,0:0:0:0:
192,192,13812,1,0,0:0:0:0:
64,192,13991,1,0,0:0:0:0:
448,192,13991,1,0,0:0:0:0:
320,192,14170,1,0,0:0:0:0:
448,192,14170,1,0,0:0:0:0:
64,192,14348,1,0,0:0:0:0:
192,192,14348,1,0,0:0:0:0:
448,192,14705,1,0,0:0:0:0:
64,192,14884,1,0,0:0:0:0:
320,192,14884,1,0,0:0:0:0:
192,192,15241,1,0,0:0:0:0:
64,192,15420,1,0,0:0:0:0:
448,192,15420,1,0,0:0:0:0:
320,192,15598,1,0,0:0:0:0:
448,192,15598,1,0,0:0:0:0:
64,192,15777,1,0,0:0:0:0:
192,192,15777,1,0,0:0:0:0:
448,192,16134,1,0,0:0:0:0:
320,192,16312,1,0,0:0:0:0:
64,192,16312,1,0,0:0:0:0:
192,192,16580,1,0,0:0:0:0:
320,192,16670,1,0,0:0:0:0:
64,192,16848,1,0,0:0:0:0:
448,192,16848,1,0,0:0:0:0:
192,192,17027,1,0,0:0:0:0:
320,192,17027,1,0,0:0:0:0:
448,192,17027,1,0,0:0:0:0:
64,192,17205,1,0,0:0:0:0:
192,192,17205,128,0,17741:0:0:0:0:
320,192,17205,1,0,0:0:0:0:
448,192,17384,1,0,0:0:0:0:
320,192,17473,1,0,0:0:0:0:
448,192,17562,1,0,0:0:0:0:
64,192,17741,1,0,0:0:0:0:
320,192,17741,1,0,0:0:0:0:
448,192,17741,1,0,0:0:0:0:
192,192,18098,1,0,0:0:0:0:
64,192,18277,1,0,0:0:0:0:
448,192,18277,1,0,0:0:0:0:
320,192,18455,1,0,0:0:0:0:
448,192,18455,1,0,0:0:0:0:
64,192,18634,1,0,0:0:0:0:
192,192,18634,1,0,0:0:0:0:
448,192,18991,1,0,0:0:0:0:
64,192,19170,1,0,0:0:0:0:
320,192,19170,1,0,0:0:0:0:
192,192,19527,1,0,0:0:0:0:
64,192,19705,1,0,0:0:0:0:
448,192,19705,1,0,0:0:0:0:
320,192,19884,1,0,0:0:0:0:
448,192,19884,1,0,0:0:0:0:
192,192,20062,1,0,0:0:0:0:
64,192,20062,1,0,0:0:0:0:
448,192,20420,1,0,0:0:0:0:
64,192,20598,1,0,0:0:0:0:
320,192,20598,1,0,0:0:0:0:
192,192,20955,1,0,0:0:0:0:
64,192,21134,1,0,0:0:0:0:
448,192,21134,1,0,0:0:0:0:
448,192,21312,1,0,0:0:0:0:
320,192,21312,1,0,0:0:0:0:
64,192,21491,1,0,0:0:0:0:
192,192,21491,1,0,0:0:0:0:
448,192,21670,1,0,0:0:0:0:
320,192,21759,1,0,0:0:0:0:
448,192,21848,1,0,0:0:0:0:
192,192,21937,1,0,0:0:0:0:
320,192,22027,1,0,0:0:0:0:
64,192,22116,1,0,0:0:0:0:
320,192,22205,1,0,0:0:0:0:
192,192,22295,1,0,0:0:0:0:
64,192,22384,1,0,0:0:0:0:
448,192,22473,1,0,0:0:0:0:
64,192,22562,1,0,0:0:0:0:
320,192,22652,1,0,0:0:0:0:
192,192,22741,1,0,0:0:0:0:
448,192,22830,1,0,0:0:0:0:
64,192,22920,1,0,0:0:0:0:
192,192,22920,1,0,0:0:0:0:
320,192,22920,1,0,0:0:0:0:
320,192,23277,1,0,0:0:0:0:
64,192,23455,1,0,0:0:0:0:
192,192,23455,1,0,0:0:0:0:
448,192,23455,1,0,0:0:0:0:
320,192,23812,1,0,0:0:0:0:
64,192,23991,1,0,0:0:0:0:
64,192,24170,1,0,0:0:0:0:
192,192,24348,1,0,0:0:0:0:
448,192,24348,1,0,0:0:0:0:
320,192,24527,1,0,0:0:0:0:
192,192,24616,1,0,0:0:0:0:
320,192,24705,1,0,0:0:0:0:
448,192,24705,1,0,0:0:0:0:
64,192,24884,1,0,0:0:0:0:
448,192,24884,1,0,0:0:0:0:
192,192,25062,1,0,0:0:0:0:
448,192,25152,1,0,0:0:0:0:
192,192,25241,1,0,0:0:0:0:
320,192,25241,1,0,0:0:0:0:
64,192,25420,1,0,0:0:0:0:
320,192,25509,1,0,0:0:0:0:
192,192,25598,1,0,0:0:0:0:
448,192,25687,1,0,0:0:0:0:
64,192,25777,1,0,0:0:0:0:
320,192,25777,128,0,26848:0:0:0:0:
192,192,27027,1,0,0:0:0:0:
320,192,27205,1,0,0:0:0:0:
448,192,27384,1,0,0:0:0:0:
320,192,27920,1,0,0:0:0:0:
192,192,28098,1,0,0:0:0:0:
192,192,28455,1,0,0:0:0:0:
320,192,28634,1,0,0:0:0:0:
448,192,28812,1,0,0:0:0:0:
320,192,29348,1,0,0:0:0:0:
192,192,29527,1,0,0:0:0:0:
64,192,29705,128,0,29884:0:0:0:0:
320,192,30062,1,0,0:0:0:0:
448,192,30241,1,0,0:0:0:0:
64,192,30420,128,0,30598:0:0:0:0:
320,192,30777,1,0,0:0:0:0:
192,192,30955,1,0,0:0:0:0:
64,192,31134,128,0,31312:0:0:0:0:
192,192,31491,1,0,0:0:0:0:
320,192,31491,1,0,0:0:0:0:
448,192,31670,1,0,0:0:0:0:
192,192,31848,1,0,0:0:0:0:
320,192,32027,128,0,32384:0:0:0:0:
64,192,32384,1,0,0:0:0:0:
192,192,32741,128,0,33098:0:0:0:0:
448,192,33098,1,0,0:0:0:0:
320,192,33277,1,0,0:0:0:0:
64,192,33455,1,0,0:0:0:0:
448,192,33634,1,0,0:0:0:0:
192,192,33812,1,0,0:0:0:0:
320,192,33991,1,0,0:0:0:0:
64,192,34170,1,0,0:0:0:0:
192,192,34348,1,0,0:0:0:0:
448,192,34378,1,0,0:0:0:0:
320,192,34527,1,0,0:0:0:0:
448,192,34705,1,0,0:0:0:0:
320,192,34884,1,0,0:0:0:0:
448,192,35062,1,0,0:0:0:0:
64,192,35241,1,0,0:0:0:0:
192,192,35420,1,0,0:0:0:0:
320,192,35598,128,0,36134:0:0:0:0:
448,192,36848,1,0,0:0:0:0:
320,192,37027,1,0,0:0:0:0:
64,192,37205,1,0,0:0:0:0:
448,192,37205,128,0,37562:0:0:0:0:
64,192,37384,1,0,0:0:0:0:
320,192,37741,1,0,0:0:0:0:
448,192,37801,1,0,0:0:0:0:
64,192,38009,1,0,0:0:0:0:
320,192,38455,1,0,0:0:0:0:
448,192,38515,1,0,0:0:0:0:
192,192,38693,128,0,38991:0:0:0:0:
448,192,38991,1,0,0:0:0:0:
192,192,39170,1,0,0:0:0:0:
320,192,39348,1,0,0:0:0:0:
64,192,39527,1,0,0:0:0:0:
192,192,39705,1,0,0:0:0:0:
448,192,39884,1,0,0:0:0:0:
192,192,40062,1,0,0:0:0:0:
320,192,40241,1,0,0:0:0:0:
320,192,40420,1,0,0:0:0:0:
64,192,40598,1,0,0:0:0:0:
192,192,40777,128,0,41134:0:0:0:0:
448,192,41134,1,0,0:0:0:0:
64,192,41312,1,0,0:0:0:0:
320,192,41491,1,0,0:0:0:0:
192,192,41670,1,0,0:0:0:0:
64,192,41848,1,0,0:0:0:0:
320,192,42027,128,0,42384:0:0:0:0:
448,192,42384,128,0,42652:0:0:0:0:
64,192,42920,1,0,0:0:0:0:
320,192,42920,1,0,0:0:0:0:
64,192,43098,1,0,0:0:0:0:
192,192,43098,1,0,0:0:0:0:
320,192,43277,1,0,0:0:0:0:
448,192,43455,1,0,0:0:0:0:
64,192,43812,1,0,0:0:0:0:
192,192,43991,1,0,0:0:0:0:
448,192,44170,1,0,0:0:0:0:
64,192,44527,1,0,0:0:0:0:
320,192,44705,1,0,0:0:0:0:
448,192,44884,1,0,0:0:0:0:
192,192,45241,1,0,0:0:0:0:
320,192,45420,1,0,0:0:0:0:
448,192,45598,1,0,0:0:0:0:
448,192,45777,1,0,0:0:0:0:
448,192,45955,1,0,0:0:0:0:
64,192,46134,1,0,0:0:0:0:
64,192,46312,1,0,0:0:0:0:
192,192,46491,1,0,0:0:0:0:
192,192,46670,1,0,0:0:0:0:
64,192,46848,1,0,0:0:0:0:
64,192,47027,1,0,0:0:0:0:
320,192,47205,1,0,0:0:0:0:
320,192,47384,1,0,0:0:0:0:
192,192,47562,1,0,0:0:0:0:
320,192,47920,1,0,0:0:0:0:
192,192,48098,1,0,0:0:0:0:
320,192,48277,1,0,0:0:0:0:
192,192,48455,1,0,0:0:0:0:
64,192,48634,1,0,0:0:0:0:
320,192,48634,1,0,0:0:0:0:
320,192,48812,1,0,0:0:0:0:
64,192,48812,1,0,0:0:0:0:
320,192,48991,1,0,0:0:0:0:
192,192,49170,1,0,0:0:0:0:
448,192,49348,1,0,0:0:0:0:
192,192,49527,1,0,0:0:0:0:
320,192,49527,1,0,0:0:0:0:
192,192,49884,1,0,0:0:0:0:
448,192,49884,1,0,0:0:0:0:
320,192,50062,1,0,0:0:0:0:
320,192,50241,1,0,0:0:0:0:
320,192,50420,1,0,0:0:0:0:
448,192,50598,1,0,0:0:0:0:
192,192,50777,1,0,0:0:0:0:
64,192,50955,1,0,0:0:0:0:
320,192,51491,1,0,0:0:0:0:
320,192,51610,1,0,0:0:0:0:
320,192,51729,1,0,0:0:0:0:
320,192,51848,1,0,0:0:0:0:
320,192,51967,1,0,0:0:0:0:
320,192,52086,1,0,0:0:0:0:
192,192,52205,1,0,0:0:0:0:
448,192,52384,1,0,0:0:0:0:
192,192,52741,1,0,0:0:0:0:
320,192,52920,1,0,0:0:0:0:
320,192,53039,1,0,0:0:0:0:
320,192,53158,1,0,0:0:0:0:
320,192,53277,1,0,0:0:0:0:
320,192,53396,1,0,0:0:0:0:
448,192,53545,1,0,0:0:0:0:
192,192,53693,1,0,0:0:0:0:
320,192,53753,1,0,0:0:0:0:
64,192,53872,1,0,0:0:0:0:
192,192,54348,1,0,0:0:0:0:
320,192,54348,1,0,0:0:0:0:
64,192,54527,1,0,0:0:0:0:
320,192,54527,1,0,0:0:0:0:
448,192,54884,1,0,0:0:0:0:
64,192,55241,1,0,0:0:0:0:
192,192,55241,1,0,0:0:0:0:
320,192,55598,1,0,0:0:0:0:
448,192,55598,1,0,0:0:0:0:
192,192,55955,1,0,0:0:0:0:
320,192,56312,1,0,0:0:0:0:
320,192,56670,1,0,0:0:0:0:
448,192,57027,1,0,0:0:0:0:
192,192,57384,128,0,58812:0:0:0:0:
320,192,58812,128,0,59527:0:0:0:0:
64,192,59527,1,0,0:0:0:0:
192,192,59616,1,0,0:0:0:0:
64,192,59705,1,0,0:0:0:0:
320,192,59795,1,0,0:0:0:0:
192,192,59884,1,0,0:0:0:0:
448,192,59973,1,0,0:0:0:0:
320,192,60062,1,0,0:0:0:0:
192,192,60062,1,0,0:0:0:0:
64,192,60062,1,0,0:0:0:0:
448,192,60241,1,0,0:0:0:0:
64,192,60420,1,0,0:0:0:0:
192,192,60420,1,0,0:0:0:0:
64,192,60598,1,0,0:0:0:0:
320,192,60598,1,0,0:0:0:0:
448,192,60598,1,0,0:0:0:0:
192,192,60777,1,0,0:0:0:0:
64,192,60955,1,0,0:0:0:0:
192,192,61134,1,0,0:0:0:0:
448,192,61134,1,0,0:0:0:0:
320,192,61312,1,0,0:0:0:0:
448,192,61312,1,0,0:0:0:0:
64,192,61491,1,0,0:0:0:0:
448,192,61551,1,0,0:0:0:0:
192,192,61610,1,0,0:0:0:0:
320,192,61670,1,0,0:0:0:0:
64,192,61729,1,0,0:0:0:0:
192,192,61789,1,0,0:0:0:0:
448,192,61848,1,0,0:0:0:0:
64,192,61908,1,0,0:0:0:0:
320,192,61967,1,0,0:0:0:0:
192,192,62027,1,0,0:0:0:0:
448,192,62086,1,0,0:0:0:0:
320,192,62146,1,0,0:0:0:0:
64,192,62205,1,0,0:0:0:0:
448,192,62295,1,0,0:0:0:0:
64,192,62384,1,0,0:0:0:0:
448,192,62473,1,0,0:0:0:0:
320,192,62562,1,0,0:0:0:0:
64,192,62920,1,0,0:0:0:0:
192,192,62920,1,0,0:0:0:0:
448,192,63009,1,0,0:0:0:0:
192,192,63098,1,0,0:0:0:0:
320,192,63187,1,0,0:0:0:0:
64,192,63277,1,0,0:0:0:0:
320,192,63366,1,0,0:0:0:0:
192,192,63478,1,0,0:0:0:0:
448,192,63545,1,0,0:0:0:0:
320,192,63634,1,0,0:0:0:0:
64,192,63723,1,0,0:0:0:0:
192,192,63812,1,0,0:0:0:0:
320,192,63902,1,0,0:0:0:0:
64,192,64013,1,0,0:0:0:0:
192,192,64080,1,0,0:0:0:0:
448,192,64170,1,0,0:0:0:0:
320,192,64259,1,0,0:0:0:0:
64,192,64348,1,0,0:0:0:0:
448,192,64437,1,0,0:0:0:0:
192,192,64549,1,0,0:0:0:0:
320,192,64616,1,0,0:0:0:0:
192,192,64705,1,0,0:0:0:0:
64,192,64795,1,0,0:0:0:0:
320,192,64884,1,0,0:0:0:0:
448,192,64973,1,0,0:0:0:0:
320,192,65062,1,0,0:0:0:0:
192,192,65152,1,0,0:0:0:0:
320,192,65241,1,0,0:0:0:0:
192,192,65330,1,0,0:0:0:0:
64,192,65420,1,0,0:0:0:0:
448,192,65509,1,0,0:0:0:0:
192,192,65598,1,0,0:0:0:0:
448,192,65687,1,0,0:0:0:0:
64,192,65777,1,0,0:0:0:0:
320,192,65777,128,0,66491:0:0:0:0:
64,192,66491,1,0,0:0:0:0:
192,192,66670,1,0,0:0:0:0:
320,192,66848,1,0,0:0:0:0:
448,192,67027,1,0,0:0:0:0:
64,192,67205,128,0,67384:0:0:0:0:
448,192,67384,128,0,67741:0:0:0:0:
192,192,67741,128,0,68277:0:0:0:0:
64,192,68455,1,0,0:0:0:0:
320,192,68545,1,0,0:0:0:0:
64,192,68634,1,0,0:0:0:0:
192,192,68634,1,0,0:0:0:0:
320,192,68812,1,0,0:0:0:0:
192,192,69170,1,0,0:0:0:0:
320,192,69259,1,0,0:0:0:0:
448,192,69348,128,0,69884:0:0:0:0:
64,192,69884,1,0,0:0:0:0:
192,192,69973,1,0,0:0:0:0:
320,192,70062,1,0,0:0:0:0:
448,192,70420,1,0,0:0:0:0:
192,192,70598,1,0,0:0:0:0:
320,192,70777,1,0,0:0:0:0:
64,192,70955,1,0,0:0:0:0:
448,192,71134,1,0,0:0:0:0:
192,192,71312,128,0,71848:0:0:0:0:
320,192,71491,1,0,0:0:0:0:
448,192,71491,1,0,0:0:0:0:
64,192,71848,1,0,0:0:0:0:
448,192,71937,1,0,0:0:0:0:
192,192,72027,1,0,0:0:0:0:
64,192,72116,1,0,0:0:0:0:
192,192,72205,1,0,0:0:0:0:
320,192,72295,1,0,0:0:0:0:
64,192,72384,1,0,0:0:0:0:
320,192,72473,1,0,0:0:0:0:
448,192,72562,1,0,0:0:0:0:
192,192,72652,1,0,0:0:0:0:
448,192,72741,1,0,0:0:0:0:
320,192,72830,1,0,0:0:0:0:
192,192,72920,1,0,0:0:0:0:
320,192,73009,1,0,0:0:0:0:
64,192,73098,1,0,0:0:0:0:
448,192,73187,1,0,0:0:0:0:
320,192,73277,1,0,0:0:0:0:
448,192,73366,1,0,0:0:0:0:
192,192,73455,1,0,0:0:0:0:
64,192,73545,1,0,0:0:0:0:
448,192,73634,1,0,0:0:0:0:
64,192,73723,1,0,0:0:0:0:
320,192,73812,1,0,0:0:0:0:
192,192,73902,1,0,0:0:0:0:
64,192,73991,1,0,0:0:0:0:
192,192,74080,1,0,0:0:0:0:
448,192,74170,1,0,0:0:0:0:
64,192,74259,1,0,0:0:0:0:
192,192,74348,1,0,0:0:0:0:
320,192,74348,1,0,0:0:0:0:
448,192,74437,1,0,0:0:0:0:
320,192,74527,1,0,0:0:0:0:
192,192,74616,1,0,0:0:0:0:
64,192,74705,1,0,0:0:0:0:
320,192,74795,1,0,0:0:0:0:
192,192,74884,1,0,0:0:0:0:
64,192,74973,1,0,0:0:0:0:
448,192,75062,1,0,0:0:0:0:
192,192,75152,1,0,0:0:0:0:
64,192,75241,1,0,0:0:0:0:
448,192,75330,1,0,0:0:0:0:
320,192,75420,1,0,0:0:0:0:
64,192,75509,1,0,0:0:0:0:
448,192,75598,1,0,0:0:0:0:
320,192,75687,1,0,0:0:0:0:
192,192,75777,1,0,0:0:0:0:
448,192,75866,1,0,0:0:0:0:
320,192,75955,1,0,0:0:0:0:
192,192,76045,1,0,0:0:0:0:
64,192,76134,1,0,0:0:0:0:
320,192,76223,1,0,0:0:0:0:
192,192,76312,1,0,0:0:0:0:
64,192,76402,1,0,0:0:0:0:
448,192,76491,1,0,0:0:0:0:
192,192,76580,1,0,0:0:0:0:
64,192,76670,1,0,0:0:0:0:
448,192,76759,1,0,0:0:0:0:
320,192,76848,1,0,0:0:0:0:
64,192,76937,1,0,0:0:0:0:
448,192,77027,1,0,0:0:0:0:
320,192,77116,1,0,0:0:0:0:
64,192,77205,1,0,0:0:0:0:
192,192,77205,1,0,0:0:0:0:
448,192,77384,1,0,0:0:0:0:
320,192,77562,1,0,0:0:0:0:
192,192,77741,1,0,0:0:0:0:
448,192,77920,1,0,0:0:0:0:
320,192,78098,1,0,0:0:0:0:
64,192,78277,1,0,0:0:0:0:
448,192,78455,1,0,0:0:0:0:
192,192,78634,1,0,0:0:0:0:
64,192,78812,1,0,0:0:0:0:
448,192,78991,1,0,0:0:0:0:
320,192,79170,1,0,0:0:0:0:
64,192,79348,128,0,80062:0:0:0:0:
192,192,79348,1,0,0:0:0:0:
320,192,80062,1,0,0:0:0:0:
448,192,80062,1,0,0:0:0:0:
192,192,80152,1,0,0:0:0:0:
320,192,80241,1,0,0:0:0:0:
64,192,80330,1,0,0:0:0:0:
192,192,80420,1,0,0:0:0:0:
320,192,80509,1,0,0:0:0:0:
448,192,80598,1,0,0:0:0:0:
320,192,80687,1,0,0:0:0:0:
192,192,80777,1,0,0:0:0:0:
64,192,80866,1,0,0:0:0:0:
320,192,80955,1,0,0:0:0:0:
192,192,81045,1,0,0:0:0:0:
448,192,81134,1,0,0:0:0:0:
192,192,81223,1,0,0:0:0:0:
64,192,81312,1,0,0:0:0:0:
320,192,81402,1,0,0:0:0:0:
448,192,81491,1,0,0:0:0:0:
192,192,81580,1,0,0:0:0:0:
320,192,81670,1,0,0:0:0:0:
64,192,81759,1,0,0:0:0:0:
192,192,81848,1,0,0:0:0:0:
320,192,81937,1,0,0:0:0:0:
448,192,82027,1,0,0:0:0:0:
320,192,82116,1,0,0:0:0:0:
192,192,82205,1,0,0:0:0:0:
64,192,82295,1,0,0:0:0:0:
320,192,82384,1,0,0:0:0:0:
192,192,82473,1,0,0:0:0:0:
448,192,82562,1,0,0:0:0:0:
192,192,82652,1,0,0:0:0:0:
64,192,82741,1,0,0:0:0:0:
320,192,82830,1,0,0:0:0:0:
64,192,82920,1,0,0:0:0:0:
448,192,82920,1,0,0:0:0:0:
192,192,83009,1,0,0:0:0:0:
320,192,83098,1,0,0:0:0:0:
64,192,83187,1,0,0:0:0:0:
192,192,83277,1,0,0:0:0:0:
320,192,83366,1,0,0:0:0:0:
448,192,83455,1,0,0:0:0:0:
320,192,83545,1,0,0:0:0:0:
192,192,83634,1,0,0:0:0:0:
64,192,83723,1,0,0:0:0:0:
320,192,83812,1,0,0:0:0:0:
192,192,83902,1,0,0:0:0:0:
448,192,83991,1,0,0:0:0:0:
192,192,84080,1,0,0:0:0:0:
64,192,84170,1,0,0:0:0:0:
320,192,84259,1,0,0:0:0:0:
448,192,84348,1,0,0:0:0:0:
320,192,84437,1,0,0:0:0:0:
64,192,84527,1,0,0:0:0:0:
192,192,84616,1,0,0:0:0:0:
320,192,84705,1,0,0:0:0:0:
64,192,84795,1,0,0:0:0:0:
448,192,84884,1,0,0:0:0:0:
192,192,84973,1,0,0:0:0:0:
64,192,85062,1,0,0:0:0:0:
448,192,85152,1,0,0:0:0:0:
320,192,85241,1,0,0:0:0:0:
192,192,85330,1,0,0:0:0:0:
448,192,85420,1,0,0:0:0:0:
320,192,85509,1,0,0:0:0:0:
64,192,85598,1,0,0:0:0:0:
192,192,85777,1,0,0:0:0:0:
320,192,85777,1,0,0:0:0:0:
448,192,85777,1,0,0:0:0:0:
64,192,85955,1,0,0:0:0:0:
192,192,86045,1,0,0:0:0:0:
64,192,86134,1,0,0:0:0:0:
448,192,86134,1,0,0:0:0:0:
320,192,86312,1,0,0:0:0:0:
64,192,86491,1,0,0:0:0:0:
192,192,86491,1,0,0:0:0:0:
320,192,86580,1,0,0:0:0:0:
192,192,86670,1,0,0:0:0:0:
64,192,86848,1,0,0:0:0:0:
320,192,86848,1,0,0:0:0:0:
448,192,87027,1,0,0:0:0:0:
192,192,87205,1,0,0:0:0:0:
320,192,87205,1,0,0:0:0:0:
64,192,87384,1,0,0:0:0:0:
192,192,87473,1,0,0:0:0:0:
448,192,87562,1,0,0:0:0:0:
64,192,87562,1,0,0:0:0:0:
320,192,87741,1,0,0:0:0:0:
192,192,87920,1,0,0:0:0:0:
448,192,87920,1,0,0:0:0:0:
64,192,88009,1,0,0:0:0:0:
320,192,88098,1,0,0:0:0:0:
64,192,88277,1,0,0:0:0:0:
192,192,88277,1,0,0:0:0:0:
448,192,88366,1,0,0:0:0:0:
320,192,88455,1,0,0:0:0:0:
64,192,88545,1,0,0:0:0:0:
192,192,88634,1,0,0:0:0:0:
320,192,88634,1,0,0:0:0:0:
64,192,88812,1,0,0:0:0:0:
192,192,88902,1,0,0:0:0:0:
64,192,88991,1,0,0:0:0:0:
448,192,88991,1,0,0:0:0:0:
320,192,89170,1,0,0:0:0:0:
64,192,89348,1,0,0:0:0:0:
192,192,89348,1,0,0:0:0:0:
320,192,89437,1,0,0:0:0:0:
192,192,89527,1,0,0:0:0:0:
64,192,89705,1,0,0:0:0:0:
320,192,89705,1,0,0:0:0:0:
448,192,89884,1,0,0:0:0:0:
320,192,90062,1,0,0:0:0:0:
192,192,90062,1,0,0:0:0:0:
64,192,90241,1,0,0:0:0:0:
192,192,90330,1,0,0:0:0:0:
64,192,90420,1,0,0:0:0:0:
448,192,90420,1,0,0:0:0:0:
320,192,90598,1,0,0:0:0:0:
192,192,90777,1,0,0:0:0:0:
448,192,90777,1,0,0:0:0:0:
64,192,90866,1,0,0:0:0:0:
320,192,90955,1,0,0:0:0:0:
64,192,91134,1,0,0:0:0:0:
192,192,91134,1,0,0:0:0:0:
320,192,91223,1,0,0:0:0:0:
64,192,91312,1,0,0:0:0:0:
448,192,91402,1,0,0:0:0:0:
192,192,91491,1,0,0:0:0:0:
320,192,91491,1,0,0:0:0:0:
448,192,91670,1,0,0:0:0:0:
320,192,91759,1,0,0:0:0:0:
64,192,91848,1,0,0:0:0:0:
448,192,91848,1,0,0:0:0:0:
192,192,92027,1,0,0:0:0:0:
64,192,92205,1,0,0:0:0:0:
320,192,92205,1,0,0:0:0:0:
192,192,92295,1,0,0:0:0:0:
320,192,92384,1,0,0:0:0:0:
192,192,92562,1,0,0:0:0:0:
448,192,92562,1,0,0:0:0:0:
64,192,92741,1,0,0:0:0:0:
192,192,92920,1,0,0:0:0:0:
320,192,92920,1,0,0:0:0:0:
448,192,93098,1,0,0:0:0:0:
320,192,93187,1,0,0:0:0:0:
64,192,93277,1,0,0:0:0:0:
448,192,93277,1,0,0:0:0:0:
192,192,93455,1,0,0:0:0:0:
64,192,93634,1,0,0:0:0:0:
320,192,93634,1,0,0:0:0:0:
448,192,93723,1,0,0:0:0:0:
192,192,93812,1,0,0:0:0:0:
320,192,93991,1,0,0:0:0:0:
448,192,93991,1,0,0:0:0:0:
192,192,94080,1,0,0:0:0:0:
64,192,94170,1,0,0:0:0:0:
448,192,94259,1,0,0:0:0:0:
192,192,94348,1,0,0:0:0:0:
320,192,94348,1,0,0:0:0:0:
448,192,94527,1,0,0:0:0:0:
320,192,94616,1,0,0:0:0:0:
64,192,94705,1,0,0:0:0:0:
448,192,94705,1,0,0:0:0:0:
192,192,94884,1,0,0:0:0:0:
320,192,94884,1,0,0:0:0:0:
192,192,95062,1,0,0:0:0:0:
64,192,95062,1,0,0:0:0:0:
448,192,95152,1,0,0:0:0:0:
64,192,95241,1,0,0:0:0:0:
320,192,95241,1,0,0:0:0:0:
192,192,95420,1,0,0:0:0:0:
448,192,95420,1,0,0:0:0:0:
64,192,95598,1,0,0:0:0:0:
448,192,95598,1,0,0:0:0:0:
192,192,95777,1,0,0:0:0:0:
448,192,95866,1,0,0:0:0:0:
192,192,95955,1,0,0:0:0:0:
320,192,96045,1,0,0:0:0:0:
64,192,96134,1,0,0:0:0:0:
448,192,96223,1,0,0:0:0:0:
64,192,96312,1,0,0:0:0:0:
448,192,96402,1,0,0:0:0:0:
192,192,96491,1,0,0:0:0:0:
64,192,96580,1,0,0:0:0:0:
320,192,96670,1,0,0:0:0:0:
192,192,96759,1,0,0:0:0:0:
448,192,96848,1,0,0:0:0:0:
192,192,96937,1,0,0:0:0:0:
320,192,97027,1,0,0:0:0:0:
64,192,97116,1,0,0:0:0:0:
192,192,97205,1,0,0:0:0:0:
320,192,97205,1,0,0:0:0:0:
448,192,97205,1,0,0:0:0:0:
320,192,97562,1,0,0:0:0:0:
64,192,97741,1,0,0:0:0:0:
192,192,97741,128,0,98098:0:0:0:0:
448,192,97741,1,0,0:0:0:0:
448,192,98098,1,0,0:0:0:0:
320,192,98187,1,0,0:0:0:0:
448,192,98277,1,0,0:0:0:0:
192,192,98366,1,0,0:0:0:0:
320,192,98455,1,0,0:0:0:0:
192,192,98545,1,0,0:0:0:0:
64,192,98634,1,0,0:0:0:0:
448,192,98723,1,0,0:0:0:0:
192,192,98812,1,0,0:0:0:0:
320,192,98902,1,0,0:0:0:0:
64,192,98991,1,0,0:0:0:0:
448,192,99080,1,0,0:0:0:0:
320,192,99170,1,0,0:0:0:0:
64,192,99259,1,0,0:0:0:0:
192,192,99348,1,0,0:0:0:0:
320,192,99348,1,0,0:0:0:0:
64,192,99437,1,0,0:0:0:0:
448,192,99527,1,0,0:0:0:0:
320,192,99616,1,0,0:0:0:0:
192,192,99705,1,0,0:0:0:0:
320,192,99795,1,0,0:0:0:0:
64,192,99884,1,0,0:0:0:0:
448,192,99973,1,0,0:0:0:0:
320,192,100062,1,0,0:0:0:0:
192,192,100062,1,0,0:0:0:0:
64,192,100062,1,0,0:0:0:0:
448,192,100420,1,0,0:0:0:0:
64,192,100598,1,0,0:0:0:0:
64,192,100955,1,0,0:0:0:0:
448,192,101134,1,0,0:0:0:0:
448,192,101312,1,0,0:0:0:0:
64,192,101491,1,0,0:0:0:0:
448,192,101848,1,0,0:0:0:0:
64,192,102027,1,0,0:0:0:0:
64,192,102384,1,0,0:0:0:0:
448,192,102562,1,0,0:0:0:0:
448,192,102741,1,0,0:0:0:0:
64,192,102920,1,0,0:0:0:0:
320,192,102920,1,0,0:0:0:0:
448,192,103277,1,0,0:0:0:0:
64,192,103455,1,0,0:0:0:0:
192,192,103455,1,0,0:0:0:0:
64,192,103812,1,0,0:0:0:0:
448,192,103991,1,0,0:0:0:0:
64,192,104170,1,0,0:0:0:0:
64,192,104348,1,0,0:0:0:0:
448,192,104705,1,0,0:0:0:0:
64,192,104884,1,0,0:0:0:0:
448,192,105152,1,0,0:0:0:0:
320,192,105241,1,0,0:0:0:0:
64,192,105330,1,0,0:0:0:0:
448,192,105420,1,0,0:0:0:0:
64,192,105598,1,0,0:0:0:0:
64,192,105777,1,0,0:0:0:0:
320,192,105777,1,0,0:0:0:0:
64,192,106045,1,0,0:0:0:0:
448,192,106134,1,0,0:0:0:0:
192,192,106312,1,0,0:0:0:0:
64,192,106312,1,0,0:0:0:0:
64,192,106670,1,0,0:0:0:0:
448,192,106848,1,0,0:0:0:0:
64,192,107027,1,0,0:0:0:0:
192,192,107205,1,0,0:0:0:0:
448,192,107205,1,0,0:0:0:0:
64,192,107384,1,0,0:0:0:0:
64,192,107473,1,0,0:0:0:0:
448,192,107562,1,0,0:0:0:0:
320,192,107562,1,0,0:0:0:0:
64,192,107741,1,0,0:0:0:0:
448,192,107920,1,0,0:0:0:0:
320,192,108098,1,0,0:0:0:0:
448,192,108277,1,0,0:0:0:0:
320,192,108366,1,0,0:0:0:0:
448,192,108455,1,0,0:0:0:0:
320,192,108545,1,0,0:0:0:0:
64,192,108634,1,0,0:0:0:0:
192,192,108634,1,0,0:0:0:0:
64,192,108902,1,0,0:0:0:0:
448,192,108991,1,0,0:0:0:0:
64,192,109170,1,0,0:0:0:0:
320,192,109170,1,0,0:0:0:0:
64,192,109527,1,0,0:0:0:0:
448,192,109705,1,0,0:0:0:0:
64,192,109884,1,0,0:0:0:0:
448,192,110062,1,0,0:0:0:0:
192,192,110062,1,0,0:0:0:0:
64,192,110241,1,0,0:0:0:0:
320,192,110330,1,0,0:0:0:0:
448,192,110330,1,0,0:0:0:0:
64,192,110509,1,0,0:0:0:0:
448,192,110598,1,0,0:0:0:0:
320,192,110777,1,0,0:0:0:0:
192,192,110866,1,0,0:0:0:0:
448,192,110955,1,0,0:0:0:0:
64,192,111045,1,0,0:0:0:0:
192,192,111134,1,0,0:0:0:0:
320,192,111223,1,0,0:0:0:0:
64,192,111312,1,0,0:0:0:0:
320,192,111402,1,0,0:0:0:0:
64,192,111491,1,0,0:0:0:0:
192,192,111491,1,0,0:0:0:0:
64,192,111759,1,0,0:0:0:0:
448,192,111848,1,0,0:0:0:0:
64,192,112027,1,0,0:0:0:0:
320,192,112027,1,0,0:0:0:0:
64,192,112384,1,0,0:0:0:0:
448,192,112562,1,0,0:0:0:0:
64,192,112741,1,0,0:0:0:0:
192,192,112920,1,0,0:0:0:0:
448,192,112920,1,0,0:0:0:0:
64,192,113098,1,0,0:0:0:0:
448,192,113187,1,0,0:0:0:0:
320,192,113187,1,0,0:0:0:0:
64,192,113366,1,0,0:0:0:0:
192,192,113455,1,0,0:0:0:0:
320,192,113455,1,0,0:0:0:0:
448,192,113723,1,0,0:0:0:0:
320,192,113812,1,0,0:0:0:0:
64,192,113902,1,0,0:0:0:0:
192,192,113991,1,0,0:0:0:0:
448,192,114080,1,0,0:0:0:0:
320,192,114170,1,0,0:0:0:0:
448,192,114259,1,0,0:0:0:0:
192,192,114348,1,0,0:0:0:0:
64,192,114437,1,0,0:0:0:0:
320,192,114527,1,0,0:0:0:0:
192,192,114616,1,0,0:0:0:0:
320,192,114705,1,0,0:0:0:0:
448,192,114705,1,0,0:0:0:0:
192,192,114884,1,0,0:0:0:0:
448,192,114884,1,0,0:0:0:0:
64,192,115062,1,0,0:0:0:0:
448,192,115152,1,0,0:0:0:0:
64,192,115330,1,0,0:0:0:0:
320,192,115420,1,0,0:0:0:0:
192,192,115479,1,0,0:0:0:0:
64,192,115509,1,0,0:0:0:0:
448,192,115598,1,0,0:0:0:0:
320,192,115687,1,0,0:0:0:0:
64,192,115777,1,0,0:0:0:0:
192,192,115777,1,0,0:0:0:0:
320,192,115866,1,0,0:0:0:0:
64,192,115955,1,0,0:0:0:0:
192,192,116045,1,0,0:0:0:0:
320,192,116134,1,0,0:0:0:0:
192,192,116223,1,0,0:0:0:0:
448,192,116312,1,0,0:0:0:0:
64,192,116402,1,0,0:0:0:0:
192,192,116491,1,0,0:0:0:0:
64,192,116580,1,0,0:0:0:0:
448,192,116670,1,0,0:0:0:0:
320,192,116759,1,0,0:0:0:0:
192,192,116848,1,0,0:0:0:0:
448,192,116848,1,0,0:0:0:0:
64,192,117027,1,0,0:0:0:0:
64,192,117205,1,0,0:0:0:0:
320,192,117205,1,0,0:0:0:0:
64,192,117473,1,0,0:0:0:0:
448,192,117562,1,0,0:0:0:0:
64,192,117741,1,0,0:0:0:0:
192,192,117741,1,0,0:0:0:0:
192,192,118098,1,0,0:0:0:0:
320,192,118098,1,0,0:0:0:0:
448,192,118277,1,0,0:0:0:0:
64,192,118455,1,0,0:0:0:0:
192,192,118634,1,0,0:0:0:0:
448,192,118634,1,0,0:0:0:0:
64,192,118812,1,0,0:0:0:0:
320,192,118902,1,0,0:0:0:0:
448,192,118902,1,0,0:0:0:0:
64,192,119080,1,0,0:0:0:0:
192,192,119170,1,0,0:0:0:0:
320,192,119170,1,0,0:0:0:0:
64,192,119437,1,0,0:0:0:0:
320,192,119527,1,0,0:0:0:0:
192,192,119616,1,0,0:0:0:0:
448,192,119705,1,0,0:0:0:0:
320,192,119795,1,0,0:0:0:0:
448,192,119884,1,0,0:0:0:0:
320,192,119973,1,0,0:0:0:0:
192,192,120062,1,0,0:0:0:0:
64,192,120062,1,0,0:0:0:0:
64,192,120330,1,0,0:0:0:0:
320,192,120420,1,0,0:0:0:0:
448,192,120420,1,0,0:0:0:0:
64,192,120598,1,0,0:0:0:0:
192,192,120777,1,0,0:0:0:0:
448,192,120777,1,0,0:0:0:0:
64,192,120955,1,0,0:0:0:0:
192,192,121134,1,0,0:0:0:0:
320,192,121134,1,0,0:0:0:0:
64,192,121312,1,0,0:0:0:0:
448,192,121491,1,0,0:0:0:0:
64,192,121670,1,0,0:0:0:0:
448,192,121759,1,0,0:0:0:0:
64,192,121937,1,0,0:0:0:0:
448,192,122027,1,0,0:0:0:0:
320,192,122205,1,0,0:0:0:0:
192,192,122295,1,0,0:0:0:0:
448,192,122384,1,0,0:0:0:0:
320,192,122473,1,0,0:0:0:0:
64,192,122562,1,0,0:0:0:0:
320,192,122652,1,0,0:0:0:0:
192,192,122741,1,0,0:0:0:0:
448,192,122830,1,0,0:0:0:0:
64,192,122920,1,0,0:0:0:0:
192,192,122920,1,0,0:0:0:0:
320,192,122920,1,0,0:0:0:0:
64,192,123277,1,0,0:0:0:0:
192,192,123455,1,0,0:0:0:0:
320,192,123455,1,0,0:0:0:0:
448,192,123455,1,0,0:0:0:0:
320,192,123812,1,0,0:0:0:0:
64,192,123991,1,0,0:0:0:0:
448,192,123991,1,0,0:0:0:0:
192,192,124170,1,0,0:0:0:0:
64,192,124348,1,0,0:0:0:0:
320,192,124348,1,0,0:0:0:0:
448,192,124348,1,0,0:0:0:0:
448,192,124527,1,0,0:0:0:0:
320,192,124705,1,0,0:0:0:0:
448,192,124705,1,0,0:0:0:0:
192,192,124884,1,0,0:0:0:0:
448,192,124884,1,0,0:0:0:0:
64,192,125062,1,0,0:0:0:0:
320,192,125152,1,0,0:0:0:0:
192,192,125241,1,0,0:0:0:0:
448,192,125330,1,0,0:0:0:0:
64,192,125420,1,0,0:0:0:0:
320,192,125509,1,0,0:0:0:0:
192,192,125598,1,0,0:0:0:0:
448,192,125687,1,0,0:0:0:0:
64,192,125777,1,0,0:0:0:0:
192,192,125777,1,0,0:0:0:0:
320,192,125844,128,0,126022:0:0:0:0:
64,192,126022,1,0,0:0:0:0:
192,192,126134,1,0,0:0:0:0:
448,192,126312,1,0,0:0:0:0:
192,192,126491,1,0,0:0:0:0:
64,192,126670,1,0,0:0:0:0:
192,192,126848,1,0,0:0:0:0:
320,192,126915,128,0,127094:0:0:0:0:
448,192,127094,1,0,0:0:0:0:
192,192,127205,1,0,0:0:0:0:
320,192,127272,128,0,127384:0:0:0:0:
64,192,127384,1,0,0:0:0:0:
192,192,127451,1,0,0:0:0:0:
64,192,127562,1,0,0:0:0:0:
320,192,127741,1,0,0:0:0:0:
448,192,127920,1,0,0:0:0:0:
64,192,128098,1,0,0:0:0:0:
192,192,128277,1,0,0:0:0:0:
320,192,128344,128,0,128634:0:0:0:0:
192,192,128634,1,0,0:0:0:0:
320,192,128701,128,0,128879:0:0:0:0:
64,192,128879,1,0,0:0:0:0:
192,192,128991,1,0,0:0:0:0:
448,192,129170,1,0,0:0:0:0:
192,192,129348,1,0,0:0:0:0:
64,192,129527,1,0,0:0:0:0:
192,192,129705,1,0,0:0:0:0:
320,192,129772,128,0,129951:0:0:0:0:
448,192,129951,1,0,0:0:0:0:
192,192,130062,1,0,0:0:0:0:
320,192,130129,128,0,130241:0:0:0:0:
64,192,130241,1,0,0:0:0:0:
192,192,130308,1,0,0:0:0:0:
64,192,130420,1,0,0:0:0:0:
320,192,130598,1,0,0:0:0:0:
448,192,130777,1,0,0:0:0:0:
64,192,130955,1,0,0:0:0:0:
448,192,131134,1,0,0:0:0:0:
320,192,131312,1,0,0:0:0:0:
192,192,131312,1,0,0:0:0:0:
64,192,131491,1,0,0:0:0:0:
448,192,131491,1,0,0:0:0:0:
320,192,131603,1,0,0:0:0:0:
192,192,131714,1,0,0:0:0:0:
64,192,131848,1,0,0:0:0:0:
192,192,131960,1,0,0:0:0:0:
448,192,132071,1,0,0:0:0:0:
320,192,132138,1,0,0:0:0:0:
64,192,132205,1,0,0:0:0:0:
192,192,132317,1,0,0:0:0:0:
448,192,132384,1,0,0:0:0:0:
320,192,132429,1,0,0:0:0:0:
192,192,132496,1,0,0:0:0:0:
448,192,132562,1,0,0:0:0:0:
64,192,132741,1,0,0:0:0:0:
320,192,132830,1,0,0:0:0:0:
448,192,132920,1,0,0:0:0:0:
320,192,133031,1,0,0:0:0:0:
192,192,133143,1,0,0:0:0:0:
64,192,133277,1,0,0:0:0:0:
192,192,133388,1,0,0:0:0:0:
448,192,133500,1,0,0:0:0:0:
320,192,133567,1,0,0:0:0:0:
64,192,133634,1,0,0:0:0:0:
192,192,133746,1,0,0:0:0:0:
448,192,133812,1,0,0:0:0:0:
320,192,133857,1,0,0:0:0:0:
192,192,133924,1,0,0:0:0:0:
448,192,133991,1,0,0:0:0:0:
64,192,134170,1,0,0:0:0:0:
320,192,134259,1,0,0:0:0:0:
448,192,134348,1,0,0:0:0:0:
320,192,134460,1,0,0:0:0:0:
192,192,134571,1,0,0:0:0:0:
64,192,134705,1,0,0:0:0:0:
320,192,134817,1,0,0:0:0:0:
448,192,134884,1,0,0:0:0:0:
320,192,134996,1,0,0:0:0:0:
192,192,135107,1,0,0:0:0:0:
64,192,135241,1,0,0:0:0:0:
320,192,135353,1,0,0:0:0:0:
448,192,135420,1,0,0:0:0:0:
320,192,135531,1,0,0:0:0:0:
192,192,135643,1,0,0:0:0:0:
64,192,135710,1,0,0:0:0:0:
448,192,135777,1,0,0:0:0:0:
192,192,135955,1,0,0:0:0:0:
448,192,136134,1,0,0:0:0:0:
192,192,136312,1,0,0:0:0:0:
64,192,136491,1,0,0:0:0:0:
320,192,136558,1,0,0:0:0:0:
448,192,136670,1,0,0:0:0:0:
320,192,136848,128,0,137205:0:0:0:0:
64,192,137205,1,0,0:0:0:0:
192,192,137205,1,0,0:0:0:0:
320,192,137317,1,0,0:0:0:0:
192,192,137384,1,0,0:0:0:0:
64,192,137496,1,0,0:0:0:0:
320,192,137562,1,0,0:0:0:0:
192,192,137674,1,0,0:0:0:0:
448,192,137741,1,0,0:0:0:0:
320,192,137853,1,0,0:0:0:0:
64,192,137920,1,0,0:0:0:0:
192,192,138031,1,0,0:0:0:0:
320,192,138098,1,0,0:0:0:0:
64,192,138210,1,0,0:0:0:0:
448,192,138277,1,0,0:0:0:0:
192,192,138388,1,0,0:0:0:0:
320,192,138455,1,0,0:0:0:0:
64,192,138567,1,0,0:0:0:0:
192,192,138634,1,0,0:0:0:0:
64,192,138746,1,0,0:0:0:0:
448,192,138812,1,0,0:0:0:0:
320,192,138924,1,0,0:0:0:0:
192,192,138991,1,0,0:0:0:0:
64,192,139103,1,0,0:0:0:0:
448,192,139170,1,0,0:0:0:0:
320,192,139281,1,0,0:0:0:0:
64,192,139348,1,0,0:0:0:0:
448,192,139460,1,0,0:0:0:0:
192,192,139527,1,0,0:0:0:0:
64,192,139638,1,0,0:0:0:0:
320,192,139705,1,0,0:0:0:0:
192,192,139817,1,0,0:0:0:0:
448,192,139884,1,0,0:0:0:0:
64,192,139996,1,0,0:0:0:0:
320,192,140062,1,0,0:0:0:0:
192,192,140174,1,0,0:0:0:0:
448,192,140241,1,0,0:0:0:0:
64,192,140353,1,0,0:0:0:0:
192,192,140420,1,0,0:0:0:0:
64,192,140531,1,0,0:0:0:0:
448,192,140598,1,0,0:0:0:0:
320,192,140710,1,0,0:0:0:0:
192,192,140777,1,0,0:0:0:0:
64,192,140888,1,0,0:0:0:0:
320,192,140955,1,0,0:0:0:0:
64,192,141067,1,0,0:0:0:0:
448,192,141134,1,0,0:0:0:0:
192,192,141246,1,0,0:0:0:0:
320,192,141312,1,0,0:0:0:0:
64,192,141424,1,0,0:0:0:0:
192,192,141491,1,0,0:0:0:0:
64,192,141603,1,0,0:0:0:0:
448,192,141670,1,0,0:0:0:0:
192,192,141781,1,0,0:0:0:0:
320,192,141848,1,0,0:0:0:0:
64,192,141960,1,0,0:0:0:0:
448,192,142027,1,0,0:0:0:0:
192,192,142138,1,0,0:0:0:0:
320,192,142205,1,0,0:0:0:0:
448,192,142317,1,0,0:0:0:0:
320,192,142384,1,0,0:0:0:0:
64,192,142496,1,0,0:0:0:0:
192,192,142562,1,0,0:0:0:0:
320,192,142674,1,0,0:0:0:0:
64,192,142741,1,0,0:0:0:0:
192,192,142853,1,0,0:0:0:0:
64,192,142920,1,0,0:0:0:0:
448,192,142920,1,0,0:0:0:0:
320,192,143098,1,0,0:0:0:0:
448,192,143098,1,0,0:0:0:0:
192,192,143277,1,0,0:0:0:0:
448,192,143455,1,0,0:0:0:0:
192,192,143634,1,0,0:0:0:0:
320,192,143812,1,0,0:0:0:0:
64,192,143812,1,0,0:0:0:0:
448,192,143991,1,0,0:0:0:0:
192,192,144170,1,0,0:0:0:0:
320,192,144170,1,0,0:0:0:0:
448,192,144348,1,0,0:0:0:0:
64,192,144527,1,0,0:0:0:0:
320,192,144705,1,0,0:0:0:0:
448,192,144884,1,0,0:0:0:0:
192,192,145062,1,0,0:0:0:0:
320,192,145129,1,0,0:0:0:0:
192,192,145196,1,0,0:0:0:0:
64,192,145263,1,0,0:0:0:0:
192,192,145420,1,0,0:0:0:0:
64,192,145777,1,0,0:0:0:0:
192,192,145888,1,0,0:0:0:0:
320,192,145955,1,0,0:0:0:0:
448,192,146067,1,0,0:0:0:0:
64,192,146134,1,0,0:0:0:0:
192,192,146246,1,0,0:0:0:0:
320,192,146312,1,0,0:0:0:0:
448,192,146424,1,0,0:0:0:0:
64,192,146491,1,0,0:0:0:0:
320,192,146603,1,0,0:0:0:0:
192,192,146670,1,0,0:0:0:0:
448,192,146781,1,0,0:0:0:0:
64,192,146848,1,0,0:0:0:0:
320,192,146960,1,0,0:0:0:0:
192,192,147027,1,0,0:0:0:0:
448,192,147138,1,0,0:0:0:0:
64,192,147205,1,0,0:0:0:0:
192,192,147317,1,0,0:0:0:0:
448,192,147384,1,0,0:0:0:0:
64,192,147496,1,0,0:0:0:0:
320,192,147562,1,0,0:0:0:0:
448,192,147674,1,0,0:0:0:0:
192,192,147741,1,0,0:0:0:0:
320,192,147853,1,0,0:0:0:0:
448,192,147920,128,0,148634:0:0:0:0:
64,192,148634,1,0,0:0:0:0:
192,192,148634,1,0,0:0:0:0:
320,192,148634,1,0,0:0:0:0:
192,192,148991,1,0,0:0:0:0:
64,192,149170,1,0,0:0:0:0:
320,192,149170,1,0,0:0:0:0:
448,192,149170,1,0,0:0:0:0:
192,192,149527,1,0,0:0:0:0:
320,192,149705,1,0,0:0:0:0:
448,192,149705,1,0,0:0:0:0:
192,192,149884,1,0,0:0:0:0:
320,192,149973,1,0,0:0:0:0:
64,192,150062,1,0,0:0:0:0:
448,192,150152,1,0,0:0:0:0:
192,192,150241,1,0,0:0:0:0:
64,192,150330,1,0,0:0:0:0:
448,192,150420,1,0,0:0:0:0:
192,192,150509,1,0,0:0:0:0:
320,192,150598,1,0,0:0:0:0:
64,192,150687,1,0,0:0:0:0:
192,192,150777,1,0,0:0:0:0:
448,192,150836,1,0,0:0:0:0:
320,192,150896,1,0,0:0:0:0:
192,192,150955,1,0,0:0:0:0:
448,192,151045,1,0,0:0:0:0:
64,192,151134,1,0,0:0:0:0:
320,192,151223,1,0,0:0:0:0:
192,192,151312,1,0,0:0:0:0:
448,192,151402,1,0,0:0:0:0:
64,192,151491,1,0,0:0:0:0:
192,192,151491,1,0,0:0:0:0:
320,192,151491,128,0,152384:0:0:0:0:
192,192,152562,1,0,0:0:0:0:
64,192,152741,128,0,153098:0:0:0:0:
320,192,153098,1,0,0:0:0:0:
192,192,153277,1,0,0:0:0:0:
320,192,153455,1,0,0:0:0:0:
448,192,153634,128,0,153991:0:0:0:0:
64,192,153991,1,0,0:0:0:0:
192,192,154170,1,0,0:0:0:0:
192,192,154348,1,0,0:0:0:0:
320,192,154527,1,0,0:0:0:0:
192,192,154705,1,0,0:0:0:0:
320,192,154884,1,0,0:0:0:0:
192,192,155062,1,0,0:0:0:0:
320,192,155241,1,0,0:0:0:0:
192,192,155420,1,0,0:0:0:0:
320,192,155598,1,0,0:0:0:0:
192,192,155777,128,0,156134:0:0:0:0:
448,192,156134,1,0,0:0:0:0:
64,192,156312,128,0,156580:0:0:0:0:
320,192,157205,1,0,0:0:0:0:
448,192,157205,1,0,0:0:0:0:
192,192,157473,128,0,157741:0:0:0:0:
448,192,157741,128,0,157964:0:0:0:0:
320,192,157964,128,0,158277:0:0:0:0:
64,192,158277,128,0,158634:0:0:0:0:
448,192,158634,128,0,158812:0:0:0:0:
192,192,158991,1,0,0:0:0:0:
320,192,159170,1,0,0:0:0:0:
192,192,159348,1,0,0:0:0:0:
64,192,159527,1,0,0:0:0:0:
448,192,159705,1,0,0:0:0:0:
192,192,159884,1,0,0:0:0:0:
320,192,160062,128,0,160375:0:0:0:0:
192,192,160375,128,0,160598:0:0:0:0:
64,192,161312,1,0,0:0:0:0:
192,192,161402,1,0,0:0:0:0:
320,192,161491,1,0,0:0:0:0:
64,192,161670,1,0,0:0:0:0:
448,192,161848,1,0,0:0:0:0:
192,192,162027,1,0,0:0:0:0:
320,192,162205,1,0,0:0:0:0:
64,192,162384,1,0,0:0:0:0:
448,192,162562,128,0,162741:0:0:0:0:
320,192,162741,128,0,162920:0:0:0:0:
192,192,162920,1,0,0:0:0:0:
448,192,162920,128,0,163991:0:0:0:0:
320,192,163991,128,0,164170:0:0:0:0:
192,192,164170,128,0,164437:0:0:0:0:
320,192,164884,1,0,0:0:0:0:
192,192,165241,1,0,0:0:0:0:
64,192,165420,1,0,0:0:0:0:
448,192,165598,128,0,166134:0:0:0:0:
320,192,166312,1,0,0:0:0:0:
448,192,166491,1,0,0:0:0:0:
192,192,166670,128,0,166848:0:0:0:0:
64,192,166848,1,0,0:0:0:0:
320,192,167027,128,0,167205:0:0:0:0:
320,192,167741,1,0,0:0:0:0:
64,192,167920,1,0,0:0:0:0:
320,192,168098,1,0,0:0:0:0:
448,192,168098,1,0,0:0:0:0:
320,192,168277,1,0,0:0:0:0:
64,192,168455,1,0,0:0:0:0:
192,192,168634,1,0,0:0:0:0:
320,192,168634,128,0,168812:0:0:0:0:
448,192,169170,1,0,0:0:0:0:
320,192,169348,1,0,0:0:0:0:
192,192,169527,1,0,0:0:0:0:
448,192,169705,1,0,0:0:0:0:
320,192,169884,1,0,0:0:0:0:
192,192,170062,1,0,0:0:0:0:
64,192,170241,1,0,0:0:0:0:
320,192,170420,128,0,170598:0:0:0:0:
64,192,170777,1,0,0:0:0:0:
448,192,170955,1,0,0:0:0:0:
64,192,171134,1,0,0:0:0:0:
192,192,171670,1,0,0:0:0:0:
192,192,171848,1,0,0:0:0:0:
64,192,172027,1,0,0:0:0:0:
192,192,172205,1,0,0:0:0:0:
192,192,172384,1,0,0:0:0:0:
64,192,172562,1,0,0:0:0:0:
192,192,172741,1,0,0:0:0:0:
320,192,172920,1,0,0:0:0:0:
448,192,172920,1,0,0:0:0:0:
320,192,173098,1,0,0:0:0:0:
320,192,173277,1,0,0:0:0:0:
192,192,173455,1,0,0:0:0:0:
320,192,173634,1,0,0:0:0:0:
448,192,173812,1,0,0:0:0:0:
320,192,173991,1,0,0:0:0:0:
64,192,174170,1,0,0:0:0:0:
192,192,174348,1,0,0:0:0:0:
320,192,174348,1,0,0:0:0:0:
448,192,174348,1,0,0:0:0:0:
320,192,174616,1,0,0:0:0:0:
64,192,174705,1,0,0:0:0:0:
192,192,174705,1,0,0:0:0:0:
64,192,174884,1,0,0:0:0:0:
320,192,174884,1,0,0:0:0:0:
448,192,174884,1,0,0:0:0:0:
192,192,175241,1,0,0:0:0:0:
320,192,175420,1,0,0:0:0:0:
448,192,175420,1,0,0:0:0:0:
192,192,175598,1,0,0:0:0:0:
320,192,175687,1,0,0:0:0:0:
64,192,175777,1,0,0:0:0:0:
192,192,175777,1,0,0:0:0:0:
448,192,175777,1,0,0:0:0:0:
320,192,175955,1,0,0:0:0:0:
192,192,176134,1,0,0:0:0:0:
64,192,176491,1,0,0:0:0:0:
448,192,176491,1,0,0:0:0:0:
192,192,176670,1,0,0:0:0:0:
448,192,176670,1,0,0:0:0:0:
64,192,176848,1,0,0:0:0:0:
320,192,176848,1,0,0:0:0:0:
64,192,177027,1,0,0:0:0:0:
192,192,177027,1,0,0:0:0:0:
320,192,177205,1,0,0:0:0:0:
448,192,177205,128,0,177920:0:0:0:0:
192,192,177920,1,0,0:0:0:0:
448,192,178009,128,0,178455:0:0:0:0:
448,192,178634,1,0,0:0:0:0:
320,192,178812,1,0,0:0:0:0:
192,192,178991,1,0,0:0:0:0:
320,192,179170,1,0,0:0:0:0:
192,192,179348,1,0,0:0:0:0:
64,192,179527,1,0,0:0:0:0:
192,192,179705,1,0,0:0:0:0:
64,192,179884,1,0,0:0:0:0:
448,192,179884,1,0,0:0:0:0:
320,192,180062,1,0,0:0:0:0:
192,192,180062,1,0,0:0:0:0:
448,192,180241,1,0,0:0:0:0:
320,192,180420,1,0,0:0:0:0:
192,192,180598,1,0,0:0:0:0:
320,192,180777,1,0,0:0:0:0:
192,192,180955,1,0,0:0:0:0:
64,192,181134,1,0,0:0:0:0:
448,192,181312,1,0,0:0:0:0:
320,192,181357,128,0,181670:0:0:0:0:
64,192,181670,1,0,0:0:0:0:
192,192,181759,1,0,0:0:0:0:
320,192,181848,1,0,0:0:0:0:
448,192,181937,1,0,0:0:0:0:
64,192,182027,1,0,0:0:0:0:
320,192,182116,1,0,0:0:0:0:
192,192,182205,1,0,0:0:0:0:
448,192,182295,1,0,0:0:0:0:
64,192,182384,1,0,0:0:0:0:
192,192,182473,1,0,0:0:0:0:
320,192,182562,1,0,0:0:0:0:
448,192,182652,1,0,0:0:0:0:
192,192,182741,1,0,0:0:0:0:
320,192,182741,1,0,0:0:0:0:
64,192,182830,1,0,0:0:0:0:
192,192,182920,1,0,0:0:0:0:
448,192,182920,128,0,184170:0:0:0:0:
64,192,184170,1,0,0:0:0:0:
320,192,184348,128,0,184527:0:0:0:0:
192,192,184527,128,0,184616:0:0:0:0:
320,192,184616,128,0,184795:0:0:0:0:
192,192,184795,128,0,184884:0:0:0:0:
320,192,184884,128,0,185062:0:0:0:0:
192,192,185062,128,0,185152:0:0:0:0:
320,192,185152,128,0,185777:0:0:0:0:
64,192,185777,1,0,0:0:0:0:
448,192,185777,1,0,0:0:0:0:
320,192,185866,1,0,0:0:0:0:
192,192,185955,1,0,0:0:0:0:
320,192,186045,1,0,0:0:0:0:
192,192,186134,1,0,0:0:0:0:
64,192,186223,1,0,0:0:0:0:
448,192,186312,1,0,0:0:0:0:
320,192,186402,1,0,0:0:0:0:
64,192,186491,1,0,0:0:0:0:
320,192,186580,1,0,0:0:0:0:
192,192,186670,1,0,0:0:0:0:
64,192,186759,1,0,0:0:0:0:
448,192,186848,1,0,0:0:0:0:
320,192,186937,1,0,0:0:0:0:
192,192,187027,1,0,0:0:0:0:
320,192,187116,1,0,0:0:0:0:
192,192,187205,128,0,187741:0:0:0:0:
320,192,187741,1,0,0:0:0:0:
64,192,187875,1,0,0:0:0:0:
448,192,188009,128,0,188455:0:0:0:0:
192,192,188634,1,0,0:0:0:0:
320,192,188634,1,0,0:0:0:0:
448,192,188693,1,0,0:0:0:0:
64,192,188753,1,0,0:0:0:0:
192,192,188812,1,0,0:0:0:0:
320,192,188872,1,0,0:0:0:0:
64,192,188932,1,0,0:0:0:0:
448,192,188991,1,0,0:0:0:0:
192,192,189051,1,0,0:0:0:0:
320,192,189110,1,0,0:0:0:0:
64,192,189170,1,0,0:0:0:0:
192,192,189229,1,0,0:0:0:0:
448,192,189289,1,0,0:0:0:0:
320,192,189348,1,0,0:0:0:0:
64,192,189408,1,0,0:0:0:0:
192,192,189467,1,0,0:0:0:0:
448,192,189527,1,0,0:0:0:0:
64,192,189586,1,0,0:0:0:0:
320,192,189646,1,0,0:0:0:0:
192,192,189705,1,0,0:0:0:0:
448,192,189765,1,0,0:0:0:0:
64,192,189824,1,0,0:0:0:0:
192,192,189884,1,0,0:0:0:0:
320,192,189943,1,0,0:0:0:0:
64,192,190003,1,0,0:0:0:0:
448,192,190062,1,0,0:0:0:0:
192,192,190122,1,0,0:0:0:0:
320,192,190182,1,0,0:0:0:0:
64,192,190241,1,0,0:0:0:0:
192,192,190301,1,0,0:0:0:0:
448,192,190360,1,0,0:0:0:0:
320,192,190420,1,0,0:0:0:0:
64,192,190479,1,0,0:0:0:0:
192,192,190539,1,0,0:0:0:0:
448,192,190598,1,0,0:0:0:0:
64,192,190658,1,0,0:0:0:0:
320,192,190717,1,0,0:0:0:0:
192,192,190777,1,0,0:0:0:0:
448,192,190836,1,0,0:0:0:0:
64,192,190896,1,0,0:0:0:0:
192,192,190955,1,0,0:0:0:0:
320,192,191015,1,0,0:0:0:0:
64,192,191074,1,0,0:0:0:0:
448,192,191134,1,0,0:0:0:0:
192,192,191193,1,0,0:0:0:0:
320,192,191253,1,0,0:0:0:0:
64,192,191312,1,0,0:0:0:0:
192,192,191402,1,0,0:0:0:0:
448,192,191491,128,0,192116:0:0:0:0:
192,192,192116,1,0,0:0:0:0:
320,192,192205,128,0,192562:0:0:0:0:
448,192,192562,1,0,0:0:0:0:
320,192,192741,1,0,0:0:0:0:
192,192,192920,1,0,0:0:0:0:
320,192,193098,1,0,0:0:0:0:
192,192,193277,1,0,0:0:0:0:
64,192,193455,128,0,194348:0:0:0:0:
320,192,193991,1,0,0:0:0:0:
448,192,193991,1,0,0:0:0:0:
192,192,194348,1,0,0:0:0:0:
320,192,194348,1,0,0:0:0:0:
448,192,194437,1,0,0:0:0:0:
192,192,194527,1,0,0:0:0:0:
64,192,194616,1,0,0:0:0:0:
320,192,194705,1,0,0:0:0:0:
448,192,194795,1,0,0:0:0:0:
192,192,194884,1,0,0:0:0:0:
64,192,194973,1,0,0:0:0:0:
320,192,195062,1,0,0:0:0:0:
448,192,195152,1,0,0:0:0:0:
192,192,195241,1,0,0:0:0:0:
64,192,195330,1,0,0:0:0:0:
192,192,195420,1,0,0:0:0:0:
64,192,195509,1,0,0:0:0:0:
192,192,195598,1,0,0:0:0:0:
64,192,195687,1,0,0:0:0:0:
320,192,195777,1,0,0:0:0:0:
448,192,195866,1,0,0:0:0:0:
64,192,195955,1,0,0:0:0:0:
320,192,196045,1,0,0:0:0:0:
192,192,196134,1,0,0:0:0:0:
448,192,196193,1,0,0:0:0:0:
320,192,196253,1,0,0:0:0:0:
192,192,196312,1,0,0:0:0:0:
64,192,196402,1,0,0:0:0:0:
320,192,196491,1,0,0:0:0:0:
448,192,196580,1,0,0:0:0:0:
64,192,196670,1,0,0:0:0:0:
192,192,196759,1,0,0:0:0:0:
320,192,196848,1,0,0:0:0:0:
448,192,196937,1,0,0:0:0:0:
192,192,197027,1,0,0:0:0:0:
320,192,197116,1,0,0:0:0:0:
448,192,197205,1,0,0:0:0:0:
64,192,197295,1,0,0:0:0:0:
320,192,197384,1,0,0:0:0:0:
192,192,197473,1,0,0:0:0:0:
448,192,197562,1,0,0:0:0:0:
320,192,197652,1,0,0:0:0:0:
448,192,197741,1,0,0:0:0:0:
192,192,197801,1,0,0:0:0:0:
64,192,197860,1,0,0:0:0:0:
320,192,197920,1,0,0:0:0:0:
192,192,198009,1,0,0:0:0:0:
448,192,198098,1,0,0:0:0:0:
64,192,198158,1,0,0:0:0:0:
192,192,198217,1,0,0:0:0:0:
320,192,198277,1,0,0:0:0:0:
64,192,198336,1,0,0:0:0:0:
192,192,198396,1,0,0:0:0:0:
448,192,198455,1,0,0:0:0:0:
320,192,198634,128,0,199170:0:0:0:0:
64,192,199170,1,0,0:0:0:0:
192,192,199170,1,0,0:0:0:0:
448,192,199348,128,0,199884:0:0:0:0:
320,192,200062,1,0,0:0:0:0:
192,192,200062,128,0,201402:0:0:0:0:
192,192,201491,128,0,202205:0:0:0:0:
64,192,202205,128,0,202920:0:0:0:0:
192,192,202920,1,0,0:0:0:0:
448,192,202920,128,0,204348:0:0:0:0:
320,192,204348,128,0,205062:0:0:0:0:
64,192,205062,128,0,205598:0:0:0:0:
192,192,205598,1,0,0:0:0:0:
320,192,205598,1,0,0:0:0:0:
64,192,205777,1,0,0:0:0:0:
448,192,205777,1,0,0:0:0:0:
192,192,205866,1,0,0:0:0:0:
320,192,205955,1,0,0:0:0:0:
192,192,206045,1,0,0:0:0:0:
64,192,206134,1,0,0:0:0:0:
448,192,206134,1,0,0:0:0:0:
320,192,206223,1,0,0:0:0:0:
192,192,206312,1,0,0:0:0:0:
320,192,206402,1,0,0:0:0:0:
64,192,206491,1,0,0:0:0:0:
448,192,206491,1,0,0:0:0:0:
192,192,206580,1,0,0:0:0:0:
320,192,206670,1,0,0:0:0:0:
192,192,206759,1,0,0:0:0:0:
64,192,206848,1,0,0:0:0:0:
448,192,206848,1,0,0:0:0:0:
320,192,206937,1,0,0:0:0:0:
192,192,207027,1,0,0:0:0:0:
448,192,207116,1,0,0:0:0:0:
64,192,207205,1,0,0:0:0:0:
320,192,207205,1,0,0:0:0:0:
192,192,207295,1,0,0:0:0:0:
448,192,207384,1,0,0:0:0:0:
192,192,207473,1,0,0:0:0:0:
320,192,207562,1,0,0:0:0:0:
64,192,207562,1,0,0:0:0:0:
448,192,207652,1,0,0:0:0:0:
192,192,207741,1,0,0:0:0:0:
448,192,207830,1,0,0:0:0:0:
64,192,207920,1,0,0:0:0:0:
320,192,207920,1,0,0:0:0:0:
192,192,208009,1,0,0:0:0:0:
448,192,208098,1,0,0:0:0:0:
192,192,208187,1,0,0:0:0:0:
64,192,208277,1,0,0:0:0:0:
320,192,208277,1,0,0:0:0:0:
448,192,208366,1,0,0:0:0:0:
192,192,208455,1,0,0:0:0:0:
64,192,208545,1,0,0:0:0:0:
192,192,208634,1,0,0:0:0:0:
320,192,208634,1,0,0:0:0:0:
448,192,208723,1,0,0:0:0:0:
64,192,208812,1,0,0:0:0:0:
448,192,208902,1,0,0:0:0:0:
192,192,208991,1,0,0:0:0:0:
320,192,208991,1,0,0:0:0:0:
64,192,209080,1,0,0:0:0:0:
448,192,209170,1,0,0:0:0:0:
64,192,209259,1,0,0:0:0:0:
192,192,209348,1,0,0:0:0:0:
320,192,209348,1,0,0:0:0:0:
448,192,209437,1,0,0:0:0:0:
64,192,209527,1,0,0:0:0:0:
448,192,209616,1,0,0:0:0:0:
192,192,209705,1,0,0:0:0:0:
320,192,209705,1,0,0:0:0:0:
64,192,209795,1,0,0:0:0:0:
448,192,209884,1,0,0:0:0:0:
64,192,209973,1,0,0:0:0:0:
192,192,210062,1,0,0:0:0:0:
320,192,210152,1,0,0:0:0:0:
448,192,210241,1,0,0:0:0:0:
320,192,210330,1,0,0:0:0:0:
64,192,210420,1,0,0:0:0:0:
192,192,210509,1,0,0:0:0:0:
320,192,210598,1,0,0:0:0:0:
192,192,210687,1,0,0:0:0:0:
448,192,210777,1,0,0:0:0:0:
64,192,210866,1,0,0:0:0:0:
192,192,210955,1,0,0:0:0:0:
64,192,211045,1,0,0:0:0:0:
448,192,211134,1,0,0:0:0:0:
320,192,211223,1,0,0:0:0:0:
192,192,211312,1,0,0:0:0:0:
448,192,211402,1,0,0:0:0:0:
64,192,211491,1,0,0:0:0:0:
192,192,211491,1,0,0:0:0:0:
320,192,211491,1,0,0:0:0:0:
448,192,211670,1,0,0:0:0:0:
320,192,211729,1,0,0:0:0:0:
192,192,211789,1,0,0:0:0:0:
64,192,211848,1,0,0:0:0:0:
192,192,212027,1,0,0:0:0:0:
320,192,212027,1,0,0:0:0:0:
448,192,212027,1,0,0:0:0:0:
64,192,212384,1,0,0:0:0:0:
448,192,212562,1,0,0:0:0:0:
448,192,212741,1,0,0:0:0:0:
192,192,212920,1,0,0:0:0:0:
320,192,213009,1,0,0:0:0:0:
64,192,213098,1,0,0:0:0:0:
320,192,213187,1,0,0:0:0:0:
192,192,213277,1,0,0:0:0:0:
64,192,213366,1,0,0:0:0:0:
320,192,213455,1,0,0:0:0:0:
448,192,213545,1,0,0:0:0:0:
192,192,213634,1,0,0:0:0:0:
320,192,213634,1,0,0:0:0:0:
448,192,213812,1,0,0:0:0:0:
192,192,213812,1,0,0:0:0:0:
64,192,213991,1,0,0:0:0:0:
448,192,214080,1,0,0:0:0:0:
64,192,214170,1,0,0:0:0:0:
320,192,214259,1,0,0:0:0:0:
192,192,214348,1,0,0:0:0:0:
448,192,214348,128,0,215598:0:0:0:0:
320,192,215598,1,0,0:0:0:0:
192,192,215732,1,0,0:0:0:0:
320,192,215866,128,0,216312:0:0:0:0:
64,192,216312,1,0,0:0:0:0:
192,192,216372,1,0,0:0:0:0:
448,192,216402,1,0,0:0:0:0:
320,192,216491,1,0,0:0:0:0:
192,192,216551,128,0,217027:0:0:0:0:
448,192,217027,1,0,0:0:0:0:
320,192,217116,1,0,0:0:0:0:
64,192,217205,128,0,217562:0:0:0:0:
320,192,217562,1,0,0:0:0:0:
448,192,217741,1,0,0:0:0:0:
192,192,217808,1,0,0:0:0:0:
64,192,217830,1,0,0:0:0:0:
320,192,217920,1,0,0:0:0:0:
448,192,218098,1,0,0:0:0:0:
320,192,218187,1,0,0:0:0:0:
192,192,218277,1,0,0:0:0:0:
64,192,218366,1,0,0:0:0:0:
192,192,218545,1,0,0:0:0:0:
320,192,218946,1,0,0:0:0:0:
192,192,219884,1,0,0:0:0:0:
320,192,220018,1,0,0:0:0:0:
64,192,220062,1,0,0:0:0:0:
448,192,220107,1,0,0:0:0:0:
320,192,220174,1,0,0:0:0:0:
192,192,220241,1,0,0:0:0:0:
448,192,220330,1,0,0:0:0:0:
64,192,220420,1,0,0:0:0:0:
192,192,220487,1,0,0:0:0:0:
320,192,220554,1,0,0:0:0:0:
64,192,220643,1,0,0:0:0:0:
448,192,220732,1,0,0:0:0:0:
320,192,220821,1,0,0:0:0:0:
192,192,220955,1,0,0:0:0:0:
320,192,221000,1,0,0:0:0:0:
448,192,221089,1,0,0:0:0:0:
320,192,221179,1,0,0:0:0:0:
192,192,221246,1,0,0:0:0:0:
64,192,221357,1,0,0:0:0:0:
192,192,221402,1,0,0:0:0:0:
320,192,221491,1,0,0:0:0:0:
448,192,221580,1,0,0:0:0:0:
64,192,221655,1,0,0:0:0:0:
192,192,221737,1,0,0:0:0:0:
448,192,221818,1,0,0:0:0:0:
192,192,221893,1,0,0:0:0:0:
64,192,221982,1,0,0:0:0:0:
448,192,222049,1,0,0:0:0:0:
320,192,222161,1,0,0:0:0:0:
192,192,222205,1,0,0:0:0:0:
64,192,222272,1,0,0:0:0:0:
320,192,222384,1,0,0:0:0:0:
192,192,222473,1,0,0:0:0:0:
320,192,222562,1,0,0:0:0:0:
64,192,222622,1,0,0:0:0:0:
448,192,222682,1,0,0:0:0:0:
192,192,222741,1,0,0:0:0:0:
320,192,222860,1,0,0:0:0:0:
448,192,222890,1,0,0:0:0:0:
64,192,222920,128,0,223254:0:0:0:0:
448,192,223254,1,0,0:0:0:0:
320,192,223321,1,0,0:0:0:0:
192,192,223388,1,0,0:0:0:0:
64,192,223455,1,0,0:0:0:0:
448,192,223545,1,0,0:0:0:0:
192,192,223589,1,0,0:0:0:0:
320,192,223634,1,0,0:0:0:0:
448,192,223812,1,0,0:0:0:0:
64,192,223857,1,0,0:0:0:0:
192,192,223924,1,0,0:0:0:0:
320,192,223976,1,0,0:0:0:0:
192,192,224036,128,0,224348:0:0:0:0:
448,192,224348,1,0,0:0:0:0:
320,192,224408,1,0,0:0:0:0:
192,192,224467,1,0,0:0:0:0:
64,192,224527,1,0,0:0:0:0:
448,192,224705,1,0,0:0:0:0:
192,192,224750,1,0,0:0:0:0:
320,192,224795,1,0,0:0:0:0:
448,192,224943,1,0,0:0:0:0:
64,192,225003,1,0,0:0:0:0:
192,192,225062,1,0,0:0:0:0:
320,192,225107,128,0,225420:0:0:0:0:
448,192,225420,1,0,0:0:0:0:
64,192,225509,1,0,0:0:0:0:
320,192,225598,1,0,0:0:0:0:
192,192,225687,1,0,0:0:0:0:
64,192,225777,128,0,226201:0:0:0:0:
448,192,225777,1,0,0:0:0:0:
320,192,225955,1,0,0:0:0:0:
448,192,225955,1,0,0:0:0:0:
448,192,226201,1,0,0:0:0:0:
320,192,226312,1,0,0:0:0:0:
192,192,226312,1,0,0:0:0:0:
448,192,226670,1,0,0:0:0:0:
320,192,226848,1,0,0:0:0:0:
192,192,226908,1,0,0:0:0:0:
64,192,226967,1,0,0:0:0:0:
448,192,227086,1,0,0:0:0:0:
320,192,227146,1,0,0:0:0:0:
64,192,227176,1,0,0:0:0:0:
192,192,227205,128,0,227562:0:0:0:0:
64,192,227562,1,0,0:0:0:0:
448,192,228098,1,0,0:0:0:0:
320,192,228158,1,0,0:0:0:0:
192,192,228217,1,0,0:0:0:0:
64,192,228277,1,0,0:0:0:0:
448,192,228336,1,0,0:0:0:0:
192,192,228396,1,0,0:0:0:0:
320,192,228455,1,0,0:0:0:0:
64,192,228515,1,0,0:0:0:0:
448,192,228574,1,0,0:0:0:0:
192,192,228604,1,0,0:0:0:0:
320,192,228634,128,0,228991:0:0:0:0:
192,192,228991,1,0,0:0:0:0:
320,192,229527,1,0,0:0:0:0:
192,192,229586,1,0,0:0:0:0:
448,192,229646,1,0,0:0:0:0:
64,192,229705,1,0,0:0:0:0:
320,192,229765,1,0,0:0:0:0:
192,192,229824,1,0,0:0:0:0:
448,192,229884,1,0,0:0:0:0:
64,192,229943,1,0,0:0:0:0:
192,192,230003,1,0,0:0:0:0:
320,192,230033,1,0,0:0:0:0:
448,192,230062,128,0,230420:0:0:0:0:
320,192,230420,1,0,0:0:0:0:
448,192,230955,1,0,0:0:0:0:
64,192,231134,1,0,0:0:0:0:
192,192,231312,1,0,0:0:0:0:
320,192,231372,1,0,0:0:0:0:
448,192,231432,1,0,0:0:0:0:
64,192,231491,1,0,0:0:0:0:
192,192,231491,1,0,0:0:0:0:
320,192,231670,1,0,0:0:0:0:
192,192,231729,1,0,0:0:0:0:
64,192,231789,1,0,0:0:0:0:
448,192,231908,1,0,0:0:0:0:
64,192,232027,128,0,232384:0:0:0:0:
320,192,232027,1,0,0:0:0:0:
448,192,232384,1,0,0:0:0:0:
320,192,232443,1,0,0:0:0:0:
192,192,232503,1,0,0:0:0:0:
64,192,232562,1,0,0:0:0:0:
320,192,232741,128,0,233098:0:0:0:0:
192,192,233098,1,0,0:0:0:0:
64,192,233158,1,0,0:0:0:0:
448,192,233247,1,0,0:0:0:0:
320,192,233336,1,0,0:0:0:0:
192,192,233455,128,0,233812:0:0:0:0:
320,192,233812,1,0,0:0:0:0:
192,192,233991,1,0,0:0:0:0:
64,192,234170,1,0,0:0:0:0:
320,192,234348,1,0,0:0:0:0:
448,192,234378,1,0,0:0:0:0:
192,192,234557,1,0,0:0:0:0:
64,192,234586,1,0,0:0:0:0:
448,192,234705,1,0,0:0:0:0:
192,192,234884,1,0,0:0:0:0:
320,192,234943,1,0,0:0:0:0:
192,192,235062,1,0,0:0:0:0:
64,192,235241,1,0,0:0:0:0:
448,192,235420,1,0,0:0:0:0:
192,192,235598,1,0,0:0:0:0:
448,192,235777,1,0,0:0:0:0:
320,192,235807,128,0,236134:0:0:0:0:
320,192,236491,1,0,0:0:0:0:
192,192,236670,1,0,0:0:0:0:
64,192,236714,1,0,0:0:0:0:
448,192,236759,1,0,0:0:0:0:
320,192,236848,1,0,0:0:0:0:
448,192,237027,1,0,0:0:0:0:
192,192,237205,1,0,0:0:0:0:
320,192,237205,1,0,0:0:0:0:
64,192,237354,1,0,0:0:0:0:
320,192,237384,1,0,0:0:0:0:
448,192,237384,1,0,0:0:0:0:
192,192,237473,1,0,0:0:0:0:
448,192,237562,1,0,0:0:0:0:
192,192,237652,1,0,0:0:0:0:
448,192,237741,1,0,0:0:0:0:
192,192,237830,1,0,0:0:0:0:
64,192,237920,1,0,0:0:0:0:
448,192,238009,1,0,0:0:0:0:
320,192,238054,1,0,0:0:0:0:
64,192,238098,1,0,0:0:0:0:
192,192,238098,1,0,0:0:0:0:
448,192,238158,1,0,0:0:0:0:
320,192,238247,1,0,0:0:0:0:
192,192,238336,1,0,0:0:0:0:
64,192,238396,1,0,0:0:0:0:
320,192,238455,1,0,0:0:0:0:
448,192,238455,1,0,0:0:0:0:
192,192,238515,1,0,0:0:0:0:
448,192,238634,1,0,0:0:0:0:
64,192,238723,1,0,0:0:0:0:
320,192,238812,1,0,0:0:0:0:
64,192,238902,1,0,0:0:0:0:
448,192,238991,1,0,0:0:0:0:
192,192,239051,1,0,0:0:0:0:
320,192,239110,1,0,0:0:0:0:
64,192,239170,1,0,0:0:0:0:
448,192,239229,1,0,0:0:0:0:
320,192,239289,1,0,0:0:0:0:
192,192,239348,1,0,0:0:0:0:
64,192,239408,1,0,0:0:0:0:
448,192,239467,1,0,0:0:0:0:
192,192,239527,1,0,0:0:0:0:
320,192,239586,1,0,0:0:0:0:
64,192,239646,1,0,0:0:0:0:
448,192,239705,1,0,0:0:0:0:
192,192,239795,1,0,0:0:0:0:
320,192,239884,1,0,0:0:0:0:
64,192,239973,1,0,0:0:0:0:
192,192,240062,1,0,0:0:0:0:
448,192,240092,1,0,0:0:0:0:
320,192,240152,1,0,0:0:0:0:
64,192,240241,1,0,0:0:0:0:
192,192,240420,1,0,0:0:0:0:
448,192,240449,1,0,0:0:0:0:
320,192,240539,1,0,0:0:0:0:
64,192,240598,1,0,0:0:0:0:
448,192,240658,1,0,0:0:0:0:
320,192,240717,1,0,0:0:0:0:
192,192,240777,1,0,0:0:0:0:
64,192,240836,1,0,0:0:0:0:
448,192,240955,1,0,0:0:0:0:
192,192,241015,1,0,0:0:0:0:
320,192,241074,1,0,0:0:0:0:
64,192,241134,1,0,0:0:0:0:
448,192,241253,1,0,0:0:0:0:
320,192,241312,1,0,0:0:0:0:
192,192,241372,1,0,0:0:0:0:
448,192,241432,1,0,0:0:0:0:
64,192,241491,1,0,0:0:0:0:
320,192,241580,1,0,0:0:0:0:
192,192,241670,1,0,0:0:0:0:
64,192,241759,1,0,0:0:0:0:
192,192,242027,1,0,0:0:0:0:
320,192,242205,1,0,0:0:0:0:
64,192,242384,1,0,0:0:0:0:
320,192,242562,1,0,0:0:0:0:
448,192,242741,1,0,0:0:0:0:
64,192,242920,1,0,0:0:0:0:
192,192,242920,1,0,0:0:0:0:
320,192,243158,1,0,0:0:0:0:
192,192,243277,1,0,0:0:0:0:
64,192,243455,1,0,0:0:0:0:
448,192,243455,1,0,0:0:0:0:
320,192,243515,1,0,0:0:0:0:
320,192,243812,1,0,0:0:0:0:
192,192,243812,1,0,0:0:0:0:
64,192,243902,1,0,0:0:0:0:
320,192,243991,1,0,0:0:0:0:
192,192,244170,1,0,0:0:0:0:
448,192,244170,1,0,0:0:0:0:
64,192,244348,1,0,0:0:0:0:
320,192,244527,1,0,0:0:0:0:
192,192,244705,1,0,0:0:0:0:
320,192,244884,1,0,0:0:0:0:
448,192,244943,1,0,0:0:0:0:
64,192,245241,1,0,0:0:0:0:
448,192,245330,1,0,0:0:0:0:
192,192,245420,1,0,0:0:0:0:
320,192,245598,1,0,0:0:0:0:
64,192,245777,1,0,0:0:0:0:
448,192,245777,1,0,0:0:0:0:
192,192,245955,1,0,0:0:0:0:
192,192,246134,1,0,0:0:0:0:
64,192,246312,1,0,0:0:0:0:
192,192,246491,1,0,0:0:0:0:
320,192,246670,128,0,246848:0:0:0:0:
192,192,247027,1,0,0:0:0:0:
320,192,247205,1,0,0:0:0:0:
448,192,247429,1,0,0:0:0:0:
320,192,247696,1,0,0:0:0:0:
448,192,247920,1,0,0:0:0:0:
192,192,248187,1,0,0:0:0:0:
64,192,248366,1,0,0:0:0:0:
192,192,248634,1,0,0:0:0:0:
320,192,248634,1,0,0:0:0:0:
448,192,248634,128,0,248991:0:0:0:0:
64,192,248991,1,0,0:0:0:0:
192,192,248991,1,0,0:0:0:0:
64,192,249170,1,0,0:0:0:0:
320,192,249170,1,0,0:0:0:0:
448,192,249170,128,0,249884:0:0:0:0:
192,192,249884,1,0,0:0:0:0:
64,192,249973,1,0,0:0:0:0:
320,192,250062,128,0,250420:0:0:0:0:
192,192,250420,1,0,0:0:0:0:
320,192,250598,128,0,250955:0:0:0:0:
192,192,251312,1,0,0:0:0:0:
320,192,251402,1,0,0:0:0:0:
448,192,251491,1,0,0:0:0:0:
64,192,251551,1,0,0:0:0:0:
192,192,251610,1,0,0:0:0:0:
320,192,251670,1,0,0:0:0:0:
448,192,251729,1,0,0:0:0:0:
64,192,251789,1,0,0:0:0:0:
192,192,251848,1,0,0:0:0:0:
320,192,251908,1,0,0:0:0:0:
64,192,251967,1,0,0:0:0:0:
448,192,252027,1,0,0:0:0:0:
320,192,252086,1,0,0:0:0:0:
192,192,252146,1,0,0:0:0:0:
64,192,252205,1,0,0:0:0:0:
448,192,252265,1,0,0:0:0:0:
320,192,252324,1,0,0:0:0:0:
192,192,252384,1,0,0:0:0:0:
448,192,252443,1,0,0:0:0:0:
64,192,252503,1,0,0:0:0:0:
320,192,252562,1,0,0:0:0:0:
192,192,252652,1,0,0:0:0:0:
320,192,252741,1,0,0:0:0:0:
192,192,252830,1,0,0:0:0:0:
64,192,252920,1,0,0:0:0:0:
448,192,252920,1,0,0:0:0:0:
320,192,253009,1,0,0:0:0:0:
448,192,253098,1,0,0:0:0:0:
320,192,253187,1,0,0:0:0:0:
64,192,253277,1,0,0:0:0:0:
192,192,253277,1,0,0:0:0:0:
448,192,253366,1,0,0:0:0:0:
64,192,253455,1,0,0:0:0:0:
320,192,253455,1,0,0:0:0:0:
448,192,253545,1,0,0:0:0:0:
192,192,253634,1,0,0:0:0:0:
64,192,253723,1,0,0:0:0:0:
192,192,253812,1,0,0:0:0:0:
320,192,253902,1,0,0:0:0:0:
64,192,253991,1,0,0:0:0:0:
320,192,254080,1,0,0:0:0:0:
192,192,254170,1,0,0:0:0:0:
64,192,254259,1,0,0:0:0:0:
192,192,254348,1,0,0:0:0:0:
320,192,254348,1,0,0:0:0:0:
448,192,254348,1,0,0:0:0:0:
64,192,254705,1,0,0:0:0:0:
192,192,254705,1,0,0:0:0:0:
64,192,254884,1,0,0:0:0:0:
320,192,254884,1,0,0:0:0:0:
448,192,254884,1,0,0:0:0:0:
192,192,255241,1,0,0:0:0:0:
320,192,255241,1,0,0:0:0:0:
64,192,255420,1,0,0:0:0:0:
64,192,255598,1,0,0:0:0:0:
448,192,255598,1,0,0:0:0:0:
320,192,255777,1,0,0:0:0:0:
192,192,255866,1,0,0:0:0:0:
448,192,255955,1,0,0:0:0:0:
320,192,256045,1,0,0:0:0:0:
64,192,256134,1,0,0:0:0:0:
192,192,256223,1,0,0:0:0:0:
64,192,256312,1,0,0:0:0:0:
320,192,256402,1,0,0:0:0:0:
192,192,256491,1,0,0:0:0:0:
320,192,256580,1,0,0:0:0:0:
64,192,256670,1,0,0:0:0:0:
192,192,256759,1,0,0:0:0:0:
448,192,256848,1,0,0:0:0:0:
320,192,256937,1,0,0:0:0:0:
192,192,257027,1,0,0:0:0:0:
448,192,257116,1,0,0:0:0:0:
64,192,257205,1,0,0:0:0:0:
192,192,257205,1,0,0:0:0:0:
320,192,257205,128,0,257741:0:0:0:0:
192,192,257741,128,0,257920:0:0:0:0:
320,192,257920,128,0,258277:0:0:0:0:
64,192,258277,1,0,0:0:0:0:
448,192,258396,1,0,0:0:0:0:
64,192,258515,1,0,0:0:0:0:
320,192,258634,1,0,0:0:0:0:
192,192,258753,1,0,0:0:0:0:
448,192,258872,1,0,0:0:0:0:
192,192,258991,1,0,0:0:0:0:
320,192,259110,1,0,0:0:0:0:
64,192,259229,1,0,0:0:0:0:
192,192,259348,128,0,260062:0:0:0:0:
448,192,260062,1,0,0:0:0:0:
320,192,260152,1,0,0:0:0:0:
192,192,260241,1,0,0:0:0:0:
64,192,260330,1,0,0:0:0:0:
448,192,260420,1,0,0:0:0:0:
64,192,260509,1,0,0:0:0:0:
192,192,260598,1,0,0:0:0:0:
320,192,260687,1,0,0:0:0:0:
448,192,260777,1,0,0:0:0:0:
64,192,260866,1,0,0:0:0:0:
192,192,260955,1,0,0:0:0:0:
320,192,261045,1,0,0:0:0:0:
192,192,261134,1,0,0:0:0:0:
64,192,261223,1,0,0:0:0:0:
448,192,261312,1,0,0:0:0:0:
320,192,261402,1,0,0:0:0:0:
192,192,261491,1,0,0:0:0:0:
320,192,261580,1,0,0:0:0:0:
448,192,261670,1,0,0:0:0:0:
64,192,261759,1,0,0:0:0:0:
192,192,261848,1,0,0:0:0:0:
320,192,261937,1,0,0:0:0:0:
64,192,262027,1,0,0:0:0:0:
192,192,262116,1,0,0:0:0:0:
448,192,262205,128,0,262920:0:0:0:0:
192,192,262920,1,0,0:0:0:0:
320,192,262920,1,0,0:0:0:0:
64,192,263277,1,0,0:0:0:0:
320,192,263455,128,0,264170:0:0:0:0:
192,192,264348,1,0,0:0:0:0:
64,192,264705,1,0,0:0:0:0:
192,192,264884,128,0,265777:0:0:0:0:
320,192,265777,1,0,0:0:0:0:
448,192,265777,1,0,0:0:0:0:
64,192,265866,1,0,0:0:0:0:
320,192,265955,1,0,0:0:0:0:
192,192,266045,1,0,0:0:0:0:
448,192,266134,1,0,0:0:0:0:
192,192,266223,1,0,0:0:0:0:
64,192,266312,1,0,0:0:0:0:
192,192,266402,1,0,0:0:0:0:
320,192,266491,1,0,0:0:0:0:
448,192,266580,1,0,0:0:0:0:
320,192,266670,1,0,0:0:0:0:
192,192,266759,1,0,0:0:0:0:
64,192,266848,1,0,0:0:0:0:
448,192,266937,1,0,0:0:0:0:
192,192,267027,1,0,0:0:0:0:
320,192,267116,1,0,0:0:0:0:
448,192,267205,128,0,267384:0:0:0:0:
192,192,267562,1,0,0:0:0:0:
448,192,267801,128,0,268634:0:0:0:0:
64,192,268634,1,0,0:0:0:0:
192,192,268634,1,0,0:0:0:0:
320,192,268708,1,0,0:0:0:0:
64,192,268783,1,0,0:0:0:0:
320,192,268857,1,0,0:0:0:0:
64,192,268932,1,0,0:0:0:0:
320,192,269006,1,0,0:0:0:0:
64,192,269080,1,0,0:0:0:0:
320,192,269155,1,0,0:0:0:0:
64,192,269229,1,0,0:0:0:0:
320,192,269304,1,0,0:0:0:0:
64,192,269378,1,0,0:0:0:0:
320,192,269452,1,0,0:0:0:0:
64,192,269527,1,0,0:0:0:0:
320,192,269601,1,0,0:0:0:0:
64,192,269676,1,0,0:0:0:0:
448,192,269750,1,0,0:0:0:0:
192,192,269824,1,0,0:0:0:0:
448,192,269899,1,0,0:0:0:0:
192,192,269973,1,0,0:0:0:0:
64,192,270063,1,0,0:0:0:0:
448,192,270137,1,0,0:0:0:0:
64,192,270211,1,0,0:0:0:0:
448,192,270286,1,0,0:0:0:0:
64,192,270360,1,0,0:0:0:0:
448,192,270435,1,0,0:0:0:0:
64,192,270509,1,0,0:0:0:0:
448,192,270583,1,0,0:0:0:0:
64,192,270658,1,0,0:0:0:0:
448,192,270732,1,0,0:0:0:0:
64,192,270807,1,0,0:0:0:0:
448,192,270881,1,0,0:0:0:0:
64,192,270955,1,0,0:0:0:0:
448,192,271030,1,0,0:0:0:0:
64,192,271104,1,0,0:0:0:0:
192,192,271179,1,0,0:0:0:0:
320,192,271253,1,0,0:0:0:0:
192,192,271327,1,0,0:0:0:0:
320,192,271402,1,0,0:0:0:0:
448,192,271491,1,0,0:0:0:0:
64,192,271566,1,0,0:0:0:0:
320,192,271640,1,0,0:0:0:0:
192,192,271722,1,0,0:0:0:0:
320,192,271804,1,0,0:0:0:0:
192,192,271885,1,0,0:0:0:0:
320,192,271967,1,0,0:0:0:0:
192,192,272049,1,0,0:0:0:0:
320,192,272131,1,0,0:0:0:0:
192,192,272213,1,0,0:0:0:0:
320,192,272295,128,0,272741:0:0:0:0:
192,192,272920,1,0,0:0:0:0:
320,192,273009,1,0,0:0:0:0:
192,192,273098,1,0,0:0:0:0:
64,192,273187,1,0,0:0:0:0:
192,192,273277,1,0,0:0:0:0:
64,192,273366,1,0,0:0:0:0:
320,192,273455,1,0,0:0:0:0:
448,192,273545,1,0,0:0:0:0:
320,192,273634,1,0,0:0:0:0:
192,192,273723,1,0,0:0:0:0:
320,192,273812,1,0,0:0:0:0:
192,192,273902,1,0,0:0:0:0:
64,192,273991,1,0,0:0:0:0:
192,192,274080,1,0,0:0:0:0:
64,192,274170,1,0,0:0:0:0:
448,192,274259,1,0,0:0:0:0:
320,192,274348,1,0,0:0:0:0:
448,192,274437,1,0,0:0:0:0:
64,192,274527,1,0,0:0:0:0:
192,192,274616,1,0,0:0:0:0:
448,192,274705,1,0,0:0:0:0:
64,192,274795,1,0,0:0:0:0:
320,192,274884,1,0,0:0:0:0:
64,192,274973,1,0,0:0:0:0:
448,192,275062,1,0,0:0:0:0:
192,192,275152,1,0,0:0:0:0:
320,192,275241,1,0,0:0:0:0:
64,192,275330,1,0,0:0:0:0:
192,192,275420,1,0,0:0:0:0:
64,192,275509,1,0,0:0:0:0:
320,192,275598,1,0,0:0:0:0:
192,192,275687,1,0,0:0:0:0:
448,192,275777,128,0,276491:0:0:0:0:
64,192,276491,128,0,277205:0:0:0:0:
320,192,277027,1,0,0:0:0:0:
448,192,277027,1,0,0:0:0:0:
192,192,277205,128,0,278634:0:0:0:0:
448,192,277205,1,0,0:0:0:0:
320,192,277562,1,0,0:0:0:0:
64,192,277562,1,0,0:0:0:0:
320,192,277920,1,0,0:0:0:0:
448,192,277920,1,0,0:0:0:0:
64,192,278277,1,0,0:0:0:0:
448,192,278277,1,0,0:0:0:0:
320,192,278634,1,0,0:0:0:0:
448,192,278634,1,0,0:0:0:0:
64,192,278723,1,0,0:0:0:0:
192,192,278812,1,0,0:0:0:0:
448,192,278902,1,0,0:0:0:0:
320,192,278946,1,0,0:0:0:0:
64,192,278991,1,0,0:0:0:0:
448,192,279080,1,0,0:0:0:0:
192,192,279170,1,0,0:0:0:0:
320,192,279259,1,0,0:0:0:0:
64,192,279304,1,0,0:0:0:0:
448,192,279348,1,0,0:0:0:0:
192,192,279437,1,0,0:0:0:0:
64,192,279527,1,0,0:0:0:0:
320,192,279571,1,0,0:0:0:0:
448,192,279616,1,0,0:0:0:0:
192,192,279705,1,0,0:0:0:0:
320,192,279795,1,0,0:0:0:0:
64,192,279884,1,0,0:0:0:0:
192,192,279973,1,0,0:0:0:0:
320,192,280018,1,0,0:0:0:0:
448,192,280062,128,0,281312:0:0:0:0:
64,192,280062,1,0,0:0:0:0:
64,192,280420,1,0,0:0:0:0:
192,192,280598,1,0,0:0:0:0:
320,192,280598,1,0,0:0:0:0:
320,192,280955,1,0,0:0:0:0:
64,192,281134,1,0,0:0:0:0:
64,192,281312,1,0,0:0:0:0:
192,192,281491,1,0,0:0:0:0:
448,192,281491,128,0,282384:0:0:0:0:
64,192,281848,1,0,0:0:0:0:
192,192,282027,1,0,0:0:0:0:
320,192,282116,1,0,0:0:0:0:
64,192,282205,1,0,0:0:0:0:
320,192,282295,1,0,0:0:0:0:
192,192,282384,1,0,0:0:0:0:
64,192,282473,1,0,0:0:0:0:
320,192,282562,1,0,0:0:0:0:
192,192,282652,1,0,0:0:0:0:
448,192,282741,1,0,0:0:0:0:
64,192,282830,1,0,0:0:0:0:
192,192,282920,1,0,0:0:0:0:
320,192,282920,128,0,283098:0:0:0:0:
448,192,282920,1,0,0:0:0:0:
64,192,283277,1,0,0:0:0:0:
448,192,283277,128,0,283455:0:0:0:0:
192,192,283455,1,0,0:0:0:0:
320,192,283634,128,0,283812:0:0:0:0:
192,192,283812,1,0,0:0:0:0:
64,192,283991,1,0,0:0:0:0:
448,192,283991,128,0,284170:0:0:0:0:
64,192,284170,1,0,0:0:0:0:
192,192,284348,1,0,0:0:0:0:
320,192,284348,1,0,0:0:0:0:
448,192,284437,1,0,0:0:0:0:
320,192,284527,1,0,0:0:0:0:
64,192,284586,1,0,0:0:0:0:
192,192,284646,1,0,0:0:0:0:
448,192,284705,1,0,0:0:0:0:
320,192,284795,1,0,0:0:0:0:
64,192,284884,1,0,0:0:0:0:
192,192,284884,1,0,0:0:0:0:
448,192,284884,1,0,0:0:0:0:
320,192,285062,128,0,285241:0:0:0:0:
192,192,285241,1,0,0:0:0:0:
64,192,285420,1,0,0:0:0:0:
448,192,285420,128,0,285598:0:0:0:0:
192,192,285598,1,0,0:0:0:0:
64,192,285687,1,0,0:0:0:0:
192,192,285777,1,0,0:0:0:0:
320,192,285777,1,0,0:0:0:0:
448,192,285836,1,0,0:0:0:0:
64,192,285896,1,0,0:0:0:0:
320,192,285955,1,0,0:0:0:0:
64,192,286134,1,0,0:0:0:0:
192,192,286134,1,0,0:0:0:0:
320,192,286312,1,0,0:0:0:0:
448,192,286372,1,0,0:0:0:0:
192,192,286432,1,0,0:0:0:0:
64,192,286491,1,0,0:0:0:0:
320,192,286580,1,0,0:0:0:0:
192,192,286670,1,0,0:0:0:0:
448,192,286729,1,0,0:0:0:0:
64,192,286789,1,0,0:0:0:0:
320,192,286848,1,0,0:0:0:0:
192,192,286937,1,0,0:0:0:0:
448,192,287027,1,0,0:0:0:0:
64,192,287116,1,0,0:0:0:0:
192,192,287205,1,0,0:0:0:0:
448,192,287324,1,0,0:0:0:0:
320,192,287384,1,0,0:0:0:0:
192,192,287443,1,0,0:0:0:0:
64,192,287503,1,0,0:0:0:0:
448,192,287562,1,0,0:0:0:0:
192,192,287652,1,0,0:0:0:0:
320,192,287741,1,0,0:0:0:0:
448,192,287741,1,0,0:0:0:0:
64,192,287801,128,0,288098:0:0:0:0:
320,192,288098,1,0,0:0:0:0:
192,192,288187,1,0,0:0:0:0:
448,192,288277,1,0,0:0:0:0:
192,192,288366,1,0,0:0:0:0:
320,192,288455,1,0,0:0:0:0:
64,192,288545,1,0,0:0:0:0:
192,192,288634,1,0,0:0:0:0:
320,192,288634,1,0,0:0:0:0:
448,192,288634,128,0,288812:0:0:0:0:
192,192,288812,1,0,0:0:0:0:
64,192,288812,1,0,0:0:0:0:
64,192,288991,1,0,0:0:0:0:
320,192,288991,1,0,0:0:0:0:
192,192,289170,1,0,0:0:0:0:
448,192,289170,128,0,289348:0:0:0:0:
192,192,289348,1,0,0:0:0:0:
64,192,289527,1,0,0:0:0:0:
320,192,289527,128,0,290062:0:0:0:0:
192,192,289705,1,0,0:0:0:0:
64,192,289795,1,0,0:0:0:0:
448,192,289884,1,0,0:0:0:0:
64,192,289973,1,0,0:0:0:0:
448,192,290062,128,0,290241:0:0:0:0:
192,192,290062,1,0,0:0:0:0:
192,192,290241,1,0,0:0:0:0:
64,192,290420,1,0,0:0:0:0:
320,192,290420,1,0,0:0:0:0:
64,192,290598,1,0,0:0:0:0:
192,192,290598,1,0,0:0:0:0:
448,192,290598,128,0,291134:0:0:0:0:
320,192,290777,1,0,0:0:0:0:
64,192,290955,1,0,0:0:0:0:
320,192,291134,1,0,0:0:0:0:
192,192,291223,1,0,0:0:0:0:
320,192,291312,1,0,0:0:0:0:
192,192,291402,1,0,0:0:0:0:
64,192,291491,1,0,0:0:0:0:
448,192,291491,1,0,0:0:0:0:
320,192,291580,1,0,0:0:0:0:
192,192,291670,1,0,0:0:0:0:
448,192,291759,1,0,0:0:0:0:
192,192,291848,1,0,0:0:0:0:
320,192,291848,1,0,0:0:0:0:
64,192,291937,1,0,0:0:0:0:
320,192,292027,1,0,0:0:0:0:
192,192,292116,1,0,0:0:0:0:
64,192,292205,1,0,0:0:0:0:
448,192,292205,1,0,0:0:0:0:
320,192,292295,1,0,0:0:0:0:
192,192,292384,1,0,0:0:0:0:
448,192,292473,1,0,0:0:0:0:
320,192,292562,1,0,0:0:0:0:
192,192,292562,1,0,0:0:0:0:
64,192,292652,1,0,0:0:0:0:
320,192,292741,1,0,0:0:0:0:
192,192,292830,1,0,0:0:0:0:
448,192,292920,1,0,0:0:0:0:
64,192,293009,1,0,0:0:0:0:
320,192,293098,1,0,0:0:0:0:
192,192,293158,1,0,0:0:0:0:
448,192,293187,1,0,0:0:0:0:
64,192,293232,1,0,0:0:0:0:
320,192,293277,1,0,0:0:0:0:
192,192,293336,1,0,0:0:0:0:
64,192,293455,128,0,294348:0:0:0:0:
320,192,293455,128,0,294348:0:0:0:0:
448,192,293455,128,0,294348:0:0:0:0:
