osu file format v14

[General]
AudioFilename: audio110.mp3
AudioLeadIn: 0
PreviewTime: -1
Countdown: 0
SampleSet: None
StackLeniency: 0.7
Mode: 3
LetterboxInBreaks: 0
SpecialStyle: 0
WidescreenStoryboard: 0

[Editor]
DistanceSpacing: 0.4
BeatDivisor: 4
GridSize: 32
TimelineZoom: 2.1

[Metadata]
Title:HONESTY
TitleUnicode:HONESTY
Artist:GYZE
ArtistUnicode:GYZE
Creator:Curiossity
Version:truthfulness [1.1x]
Source:
Tags:black bride melodic death metal
BeatmapID:1954838
BeatmapSetID:935692

[Difficulty]
HPDrainRate:8
CircleSize:4
OverallDifficulty:8
ApproachRate:5
SliderMultiplier:1.4
SliderTickRate:1

[Events]
//Background and Video events
0,0,"sillyalbumcoverxd.jpg",0,0
//Break Periods
//Storyboard Layer 0 (Background)
//Storyboard Layer 1 (Fail)
//Storyboard Layer 2 (Pass)
//Storyboard Layer 3 (Foreground)
//Storyboard Sound Samples

[TimingPoints]
745,294.840294840295,4,2,0,50,1,0

[HitObjects]
64,192,302,5,0,0:0:0:0:
192,192,302,1,0,0:0:0:0:
320,192,351,1,0,0:0:0:0:
448,192,351,1,0,0:0:0:0:
192,192,401,1,0,0:0:0:0:
64,192,401,1,0,0:0:0:0:
320,192,450,1,0,0:0:0:0:
448,192,450,1,0,0:0:0:0:
64,192,745,1,0,0:0:0:0:
192,192,745,1,0,0:0:0:0:
448,192,745,1,0,0:0:0:0:
320,192,818,1,0,0:0:0:0:
192,192,892,1,0,0:0:0:0:
64,192,892,1,0,0:0:0:0:
448,192,966,1,0,0:0:0:0:
320,192,1039,1,0,0:0:0:0:
192,192,1039,1,0,0:0:0:0:
64,192,1113,1,0,0:0:0:0:
320,192,1187,1,0,0:0:0:0:
448,192,1187,1,0,0:0:0:0:
192,192,1260,1,0,0:0:0:0:
64,192,1334,1,0,0:0:0:0:
320,192,1408,1,0,0:0:0:0:
192,192,1481,1,0,0:0:0:0:
448,192,1481,1,0,0:0:0:0:
320,192,1555,1,0,0:0:0:0:
448,192,1628,1,0,0:0:0:0:
64,192,1628,1,0,0:0:0:0:
192,192,1703,1,0,0:0:0:0:
64,192,1777,1,0,0:0:0:0:
320,192,1777,1,0,0:0:0:0:
192,192,1850,1,0,0:0:0:0:
320,192,1924,1,0,0:0:0:0:
448,192,1998,1,0,0:0:0:0:
192,192,2071,1,0,0:0:0:0:
448,192,2145,1,0,0:0:0:0:
320,192,2218,1,0,0:0:0:0:
64,192,2218,1,0,0:0:0:0:
192,192,2292,1,0,0:0:0:0:
320,192,2366,1,0,0:0:0:0:
448,192,2366,1,0,0:0:0:0:
64,192,2439,1,0,0:0:0:0:
192,192,2513,1,0,0:0:0:0:
320,192,2588,1,0,0:0:0:0:
64,192,2661,1,0,0:0:0:0:
448,192,2661,1,0,0:0:0:0:
192,192,2735,1,0,0:0:0:0:
448,192,2808,1,0,0:0:0:0:
320,192,2882,1,0,0:0:0:0:
192,192,2956,1,0,0:0:0:0:
448,192,3029,1,0,0:0:0:0:
320,192,3103,1,0,0:0:0:0:
192,192,3103,1,0,0:0:0:0:
64,192,3177,1,0,0:0:0:0:
320,192,3250,1,0,0:0:0:0:
448,192,3250,1,0,0:0:0:0:
192,192,3324,1,0,0:0:0:0:
64,192,3398,1,0,0:0:0:0:
448,192,3398,1,0,0:0:0:0:
320,192,3471,1,0,0:0:0:0:
192,192,3546,1,0,0:0:0:0:
64,192,3546,1,0,0:0:0:0:
448,192,3619,1,0,0:0:0:0:
192,192,3693,1,0,0:0:0:0:
320,192,3767,1,0,0:0:0:0:
64,192,3840,1,0,0:0:0:0:
448,192,3840,1,0,0:0:0:0:
192,192,3914,1,0,0:0:0:0:
320,192,3988,1,0,0:0:0:0:
448,192,3988,1,0,0:0:0:0:
192,192,4061,1,0,0:0:0:0:
64,192,4135,1,0,0:0:0:0:
320,192,4135,1,0,0:0:0:0:
448,192,4208,1,0,0:0:0:0:
192,192,4282,1,0,0:0:0:0:
320,192,4356,1,0,0:0:0:0:
64,192,4430,1,0,0:0:0:0:
320,192,4504,1,0,0:0:0:0:
192,192,4578,1,0,0:0:0:0:
64,192,4651,1,0,0:0:0:0:
320,192,4725,1,0,0:0:0:0:
448,192,4725,1,0,0:0:0:0:
192,192,4798,1,0,0:0:0:0:
448,192,4872,1,0,0:0:0:0:
320,192,4946,1,0,0:0:0:0:
64,192,5019,1,0,0:0:0:0:
192,192,5093,1,0,0:0:0:0:
448,192,5167,1,0,0:0:0:0:
192,192,5240,1,0,0:0:0:0:
320,192,5315,1,0,0:0:0:0:
448,192,5388,1,0,0:0:0:0:
192,192,5462,1,0,0:0:0:0:
64,192,5462,1,0,0:0:0:0:
320,192,5536,1,0,0:0:0:0:
448,192,5609,1,0,0:0:0:0:
192,192,5609,1,0,0:0:0:0:
64,192,5683,1,0,0:0:0:0:
320,192,5757,1,0,0:0:0:0:
448,192,5757,1,0,0:0:0:0:
64,192,5830,1,0,0:0:0:0:
192,192,5904,1,0,0:0:0:0:
320,192,5904,1,0,0:0:0:0:
448,192,5978,1,0,0:0:0:0:
192,192,6051,1,0,0:0:0:0:
320,192,6125,1,0,0:0:0:0:
64,192,6198,1,0,0:0:0:0:
448,192,6198,1,0,0:0:0:0:
192,192,6273,1,0,0:0:0:0:
320,192,6347,1,0,0:0:0:0:
448,192,6347,1,0,0:0:0:0:
64,192,6420,1,0,0:0:0:0:
192,192,6494,1,0,0:0:0:0:
320,192,6494,1,0,0:0:0:0:
448,192,6568,1,0,0:0:0:0:
192,192,6641,1,0,0:0:0:0:
320,192,6715,1,0,0:0:0:0:
64,192,6788,1,0,0:0:0:0:
320,192,6862,1,0,0:0:0:0:
192,192,6936,1,0,0:0:0:0:
448,192,6936,1,0,0:0:0:0:
64,192,7009,1,0,0:0:0:0:
320,192,7083,1,0,0:0:0:0:
448,192,7083,1,0,0:0:0:0:
192,192,7158,1,0,0:0:0:0:
64,192,7231,1,0,0:0:0:0:
320,192,7305,1,0,0:0:0:0:
192,192,7378,1,0,0:0:0:0:
64,192,7378,1,0,0:0:0:0:
448,192,7452,1,0,0:0:0:0:
320,192,7526,1,0,0:0:0:0:
64,192,7599,1,0,0:0:0:0:
192,192,7673,1,0,0:0:0:0:
64,192,7747,1,0,0:0:0:0:
320,192,7820,5,0,0:0:0:0:
448,192,7820,1,0,0:0:0:0:
192,192,7894,1,0,0:0:0:0:
448,192,7968,1,0,0:0:0:0:
192,192,8042,1,0,0:0:0:0:
320,192,8116,1,0,0:0:0:0:
448,192,8116,1,0,0:0:0:0:
192,192,8189,1,0,0:0:0:0:
448,192,8263,1,0,0:0:0:0:
192,192,8337,1,0,0:0:0:0:
320,192,8410,1,0,0:0:0:0:
448,192,8410,1,0,0:0:0:0:
64,192,8484,1,0,0:0:0:0:
448,192,8558,1,0,0:0:0:0:
64,192,8631,1,0,0:0:0:0:
320,192,8705,1,0,0:0:0:0:
448,192,8705,1,0,0:0:0:0:
64,192,8778,1,0,0:0:0:0:
448,192,8852,1,0,0:0:0:0:
64,192,8926,1,0,0:0:0:0:
320,192,9000,1,0,0:0:0:0:
448,192,9000,1,0,0:0:0:0:
192,192,9074,1,0,0:0:0:0:
320,192,9148,1,0,0:0:0:0:
192,192,9221,1,0,0:0:0:0:
320,192,9295,1,0,0:0:0:0:
448,192,9295,1,0,0:0:0:0:
192,192,9368,1,0,0:0:0:0:
64,192,9442,1,0,0:0:0:0:
448,192,9442,1,0,0:0:0:0:
320,192,9516,1,0,0:0:0:0:
192,192,9589,1,0,0:0:0:0:
448,192,9663,1,0,0:0:0:0:
192,192,9737,1,0,0:0:0:0:
64,192,9737,1,0,0:0:0:0:
320,192,9810,1,0,0:0:0:0:
448,192,9885,1,0,0:0:0:0:
64,192,9885,1,0,0:0:0:0:
192,192,9958,1,0,0:0:0:0:
448,192,10032,1,0,0:0:0:0:
320,192,10106,1,0,0:0:0:0:
192,192,10179,1,0,0:0:0:0:
64,192,10179,1,0,0:0:0:0:
448,192,10253,1,0,0:0:0:0:
320,192,10327,1,0,0:0:0:0:
64,192,10327,1,0,0:0:0:0:
192,192,10400,1,0,0:0:0:0:
320,192,10474,1,0,0:0:0:0:
448,192,10474,1,0,0:0:0:0:
192,192,10548,1,0,0:0:0:0:
64,192,10621,1,0,0:0:0:0:
448,192,10621,1,0,0:0:0:0:
320,192,10695,1,0,0:0:0:0:
192,192,10769,1,0,0:0:0:0:
448,192,10843,1,0,0:0:0:0:
320,192,10917,1,0,0:0:0:0:
192,192,10917,1,0,0:0:0:0:
64,192,10990,1,0,0:0:0:0:
320,192,11064,1,0,0:0:0:0:
448,192,11064,1,0,0:0:0:0:
192,192,11138,1,0,0:0:0:0:
64,192,11211,1,0,0:0:0:0:
448,192,11211,1,0,0:0:0:0:
320,192,11285,1,0,0:0:0:0:
64,192,11358,1,0,0:0:0:0:
192,192,11432,1,0,0:0:0:0:
320,192,11506,1,0,0:0:0:0:
64,192,11579,1,0,0:0:0:0:
320,192,11653,1,0,0:0:0:0:
448,192,11653,1,0,0:0:0:0:
192,192,11728,1,0,0:0:0:0:
64,192,11801,1,0,0:0:0:0:
448,192,11801,1,0,0:0:0:0:
320,192,11875,1,0,0:0:0:0:
64,192,11948,1,0,0:0:0:0:
192,192,12022,1,0,0:0:0:0:
320,192,12096,1,0,0:0:0:0:
448,192,12096,1,0,0:0:0:0:
64,192,12169,1,0,0:0:0:0:
320,192,12243,1,0,0:0:0:0:
192,192,12317,1,0,0:0:0:0:
64,192,12390,1,0,0:0:0:0:
320,192,12464,1,0,0:0:0:0:
192,192,12538,1,0,0:0:0:0:
64,192,12538,1,0,0:0:0:0:
448,192,12612,1,0,0:0:0:0:
320,192,12686,1,0,0:0:0:0:
192,192,12686,1,0,0:0:0:0:
64,192,12759,1,0,0:0:0:0:
320,192,12833,1,0,0:0:0:0:
448,192,12833,1,0,0:0:0:0:
192,192,12907,1,0,0:0:0:0:
64,192,12980,1,0,0:0:0:0:
448,192,12980,1,0,0:0:0:0:
320,192,13054,1,0,0:0:0:0:
64,192,13128,1,0,0:0:0:0:
192,192,13201,1,0,0:0:0:0:
320,192,13275,1,0,0:0:0:0:
448,192,13275,1,0,0:0:0:0:
64,192,13348,1,0,0:0:0:0:
192,192,13422,1,0,0:0:0:0:
320,192,13422,1,0,0:0:0:0:
448,192,13497,1,0,0:0:0:0:
192,192,13570,1,0,0:0:0:0:
64,192,13570,1,0,0:0:0:0:
320,192,13644,1,0,0:0:0:0:
448,192,13718,1,0,0:0:0:0:
192,192,13791,1,0,0:0:0:0:
448,192,13865,1,0,0:0:0:0:
320,192,13938,1,0,0:0:0:0:
192,192,14012,1,0,0:0:0:0:
448,192,14086,1,0,0:0:0:0:
192,192,14159,1,0,0:0:0:0:
64,192,14159,1,0,0:0:0:0:
320,192,14233,1,0,0:0:0:0:
64,192,14307,1,0,0:0:0:0:
192,192,14380,1,0,0:0:0:0:
448,192,14455,1,0,0:0:0:0:
192,192,14528,1,0,0:0:0:0:
320,192,14602,1,0,0:0:0:0:
448,192,14676,1,0,0:0:0:0:
192,192,14749,1,0,0:0:0:0:
448,192,14823,1,0,0:0:0:0:
64,192,14897,1,0,0:0:0:0:
320,192,14897,1,0,0:0:0:0:
192,192,14970,1,0,0:0:0:0:
64,192,15044,1,0,0:0:0:0:
448,192,15044,1,0,0:0:0:0:
320,192,15118,1,0,0:0:0:0:
192,192,15191,1,0,0:0:0:0:
448,192,15191,1,0,0:0:0:0:
320,192,15265,1,0,0:0:0:0:
192,192,15339,1,0,0:0:0:0:
64,192,15339,1,0,0:0:0:0:
448,192,15413,1,0,0:0:0:0:
64,192,15487,1,0,0:0:0:0:
192,192,15560,1,0,0:0:0:0:
320,192,15634,1,0,0:0:0:0:
448,192,15634,1,0,0:0:0:0:
192,192,15708,1,0,0:0:0:0:
448,192,15781,1,0,0:0:0:0:
64,192,15781,1,0,0:0:0:0:
320,192,15855,1,0,0:0:0:0:
192,192,15928,1,0,0:0:0:0:
64,192,15928,1,0,0:0:0:0:
448,192,16002,1,0,0:0:0:0:
320,192,16076,1,0,0:0:0:0:
192,192,16149,1,0,0:0:0:0:
448,192,16224,1,0,0:0:0:0:
192,192,16298,1,0,0:0:0:0:
320,192,16371,1,0,0:0:0:0:
64,192,16371,1,0,0:0:0:0:
448,192,16445,1,0,0:0:0:0:
192,192,16518,1,0,0:0:0:0:
64,192,16518,1,0,0:0:0:0:
448,192,16592,1,0,0:0:0:0:
320,192,16666,1,0,0:0:0:0:
192,192,16739,1,0,0:0:0:0:
64,192,16813,1,0,0:0:0:0:
320,192,16813,1,0,0:0:0:0:
448,192,16887,1,0,0:0:0:0:
64,192,16960,1,0,0:0:0:0:
192,192,17034,1,0,0:0:0:0:
448,192,17108,1,0,0:0:0:0:
64,192,17182,1,0,0:0:0:0:
320,192,17256,1,0,0:0:0:0:
448,192,17256,1,0,0:0:0:0:
192,192,17329,1,0,0:0:0:0:
320,192,17403,1,0,0:0:0:0:
192,192,17477,1,0,0:0:0:0:
320,192,17550,1,0,0:0:0:0:
448,192,17550,1,0,0:0:0:0:
192,192,17624,1,0,0:0:0:0:
320,192,17698,1,0,0:0:0:0:
192,192,17771,1,0,0:0:0:0:
320,192,17845,1,0,0:0:0:0:
448,192,17845,1,0,0:0:0:0:
64,192,17918,1,0,0:0:0:0:
320,192,17992,1,0,0:0:0:0:
64,192,18067,1,0,0:0:0:0:
320,192,18140,1,0,0:0:0:0:
448,192,18140,1,0,0:0:0:0:
64,192,18214,1,0,0:0:0:0:
320,192,18288,1,0,0:0:0:0:
64,192,18361,1,0,0:0:0:0:
320,192,18435,1,0,0:0:0:0:
448,192,18435,1,0,0:0:0:0:
192,192,18508,1,0,0:0:0:0:
448,192,18582,5,0,0:0:0:0:
64,192,18656,1,0,0:0:0:0:
192,192,18656,1,0,0:0:0:0:
320,192,18729,1,0,0:0:0:0:
64,192,18803,1,0,0:0:0:0:
320,192,18877,1,0,0:0:0:0:
448,192,18877,1,0,0:0:0:0:
192,192,18951,1,0,0:0:0:0:
448,192,19025,1,0,0:0:0:0:
64,192,19098,1,0,0:0:0:0:
192,192,19098,1,0,0:0:0:0:
320,192,19172,1,0,0:0:0:0:
64,192,19246,1,0,0:0:0:0:
320,192,19319,1,0,0:0:0:0:
448,192,19319,1,0,0:0:0:0:
192,192,19319,1,0,0:0:0:0:
448,192,19467,1,0,0:0:0:0:
320,192,19467,1,0,0:0:0:0:
192,192,19467,1,0,0:0:0:0:
320,192,19614,5,0,0:0:0:0:
448,192,19614,1,0,0:0:0:0:
64,192,19688,1,0,0:0:0:0:
320,192,19761,1,0,0:0:0:0:
448,192,19761,1,0,0:0:0:0:
192,192,19835,1,0,0:0:0:0:
448,192,19909,1,0,0:0:0:0:
320,192,19909,1,0,0:0:0:0:
64,192,19909,1,0,0:0:0:0:
64,192,20351,1,0,0:0:0:0:
192,192,20351,1,0,0:0:0:0:
64,192,20498,1,0,0:0:0:0:
320,192,20498,1,0,0:0:0:0:
448,192,20498,1,0,0:0:0:0:
64,192,20646,1,0,0:0:0:0:
192,192,20646,1,0,0:0:0:0:
192,192,20794,1,0,0:0:0:0:
64,192,20794,1,0,0:0:0:0:
448,192,20868,1,0,0:0:0:0:
192,192,20941,1,0,0:0:0:0:
64,192,20941,1,0,0:0:0:0:
320,192,21015,1,0,0:0:0:0:
192,192,21088,1,0,0:0:0:0:
64,192,21088,1,0,0:0:0:0:
448,192,21088,1,0,0:0:0:0:
192,192,21236,1,0,0:0:0:0:
64,192,21236,1,0,0:0:0:0:
320,192,21383,1,0,0:0:0:0:
448,192,21383,1,0,0:0:0:0:
320,192,21530,1,0,0:0:0:0:
192,192,21530,1,0,0:0:0:0:
192,192,21678,1,0,0:0:0:0:
64,192,21678,1,0,0:0:0:0:
448,192,21678,1,0,0:0:0:0:
320,192,21826,1,0,0:0:0:0:
448,192,21826,1,0,0:0:0:0:
192,192,21973,1,0,0:0:0:0:
64,192,21973,1,0,0:0:0:0:
448,192,22047,1,0,0:0:0:0:
192,192,22120,1,0,0:0:0:0:
64,192,22120,1,0,0:0:0:0:
320,192,22194,1,0,0:0:0:0:
192,192,22268,1,0,0:0:0:0:
64,192,22268,1,0,0:0:0:0:
448,192,22268,1,0,0:0:0:0:
320,192,22710,1,0,0:0:0:0:
448,192,22710,1,0,0:0:0:0:
448,192,22858,1,0,0:0:0:0:
192,192,22858,1,0,0:0:0:0:
64,192,22858,1,0,0:0:0:0:
320,192,23005,1,0,0:0:0:0:
448,192,23005,1,0,0:0:0:0:
320,192,23152,1,0,0:0:0:0:
448,192,23152,1,0,0:0:0:0:
64,192,23226,1,0,0:0:0:0:
320,192,23299,1,0,0:0:0:0:
448,192,23299,1,0,0:0:0:0:
192,192,23373,1,0,0:0:0:0:
320,192,23447,1,0,0:0:0:0:
448,192,23447,1,0,0:0:0:0:
64,192,23447,1,0,0:0:0:0:
320,192,23595,1,0,0:0:0:0:
448,192,23595,1,0,0:0:0:0:
192,192,23742,1,0,0:0:0:0:
64,192,23742,1,0,0:0:0:0:
192,192,23889,1,0,0:0:0:0:
320,192,23889,1,0,0:0:0:0:
320,192,24037,1,0,0:0:0:0:
448,192,24037,1,0,0:0:0:0:
64,192,24037,1,0,0:0:0:0:
64,192,24184,1,0,0:0:0:0:
192,192,24184,1,0,0:0:0:0:
448,192,24331,1,0,0:0:0:0:
320,192,24331,1,0,0:0:0:0:
64,192,24406,1,0,0:0:0:0:
320,192,24479,1,0,0:0:0:0:
448,192,24479,1,0,0:0:0:0:
192,192,24553,1,0,0:0:0:0:
320,192,24627,1,0,0:0:0:0:
448,192,24627,1,0,0:0:0:0:
64,192,24627,1,0,0:0:0:0:
64,192,25068,1,0,0:0:0:0:
192,192,25068,1,0,0:0:0:0:
320,192,25216,1,0,0:0:0:0:
448,192,25216,1,0,0:0:0:0:
64,192,25216,1,0,0:0:0:0:
192,192,25364,1,0,0:0:0:0:
64,192,25364,1,0,0:0:0:0:
64,192,25511,1,0,0:0:0:0:
192,192,25511,1,0,0:0:0:0:
448,192,25585,1,0,0:0:0:0:
192,192,25658,1,0,0:0:0:0:
64,192,25658,1,0,0:0:0:0:
320,192,25732,1,0,0:0:0:0:
192,192,25806,1,0,0:0:0:0:
64,192,25806,1,0,0:0:0:0:
448,192,25806,1,0,0:0:0:0:
64,192,25953,1,0,0:0:0:0:
192,192,25953,1,0,0:0:0:0:
320,192,26100,1,0,0:0:0:0:
448,192,26100,1,0,0:0:0:0:
192,192,26248,1,0,0:0:0:0:
320,192,26248,1,0,0:0:0:0:
192,192,26396,1,0,0:0:0:0:
64,192,26396,1,0,0:0:0:0:
448,192,26396,1,0,0:0:0:0:
320,192,26543,1,0,0:0:0:0:
448,192,26543,128,0,27869:0:0:0:0:
64,192,26838,1,0,0:0:0:0:
192,192,26838,1,0,0:0:0:0:
64,192,26985,1,0,0:0:0:0:
192,192,26985,1,0,0:0:0:0:
320,192,26985,1,0,0:0:0:0:
320,192,27133,1,0,0:0:0:0:
320,192,27280,1,0,0:0:0:0:
192,192,27280,1,0,0:0:0:0:
64,192,27280,1,0,0:0:0:0:
64,192,27428,1,0,0:0:0:0:
64,192,27575,1,0,0:0:0:0:
192,192,27575,1,0,0:0:0:0:
320,192,27575,1,0,0:0:0:0:
192,192,27722,1,0,0:0:0:0:
64,192,27869,128,0,29049:0:0:0:0:
320,192,27869,1,0,0:0:0:0:
192,192,27869,1,0,0:0:0:0:
320,192,28017,1,0,0:0:0:0:
192,192,28165,1,0,0:0:0:0:
320,192,28165,1,0,0:0:0:0:
448,192,28165,1,0,0:0:0:0:
192,192,28312,1,0,0:0:0:0:
192,192,28459,1,0,0:0:0:0:
320,192,28459,1,0,0:0:0:0:
448,192,28459,1,0,0:0:0:0:
448,192,28607,1,0,0:0:0:0:
192,192,28754,1,0,0:0:0:0:
320,192,28754,1,0,0:0:0:0:
448,192,28754,1,0,0:0:0:0:
320,192,28901,1,0,0:0:0:0:
448,192,28901,1,0,0:0:0:0:
192,192,28901,1,0,0:0:0:0:
320,192,29049,1,0,0:0:0:0:
448,192,29049,1,0,0:0:0:0:
192,192,29123,1,0,0:0:0:0:
448,192,29197,1,0,0:0:0:0:
320,192,29197,1,0,0:0:0:0:
64,192,29270,1,0,0:0:0:0:
320,192,29344,1,0,0:0:0:0:
448,192,29344,1,0,0:0:0:0:
192,192,29344,1,0,0:0:0:0:
320,192,29786,1,0,0:0:0:0:
448,192,29786,1,0,0:0:0:0:
320,192,29934,1,0,0:0:0:0:
192,192,29934,1,0,0:0:0:0:
64,192,29934,1,0,0:0:0:0:
320,192,30081,1,0,0:0:0:0:
448,192,30081,1,0,0:0:0:0:
320,192,30228,1,0,0:0:0:0:
448,192,30228,1,0,0:0:0:0:
192,192,30302,1,0,0:0:0:0:
448,192,30376,1,0,0:0:0:0:
320,192,30376,1,0,0:0:0:0:
64,192,30449,1,0,0:0:0:0:
320,192,30523,1,0,0:0:0:0:
448,192,30523,1,0,0:0:0:0:
192,192,30523,1,0,0:0:0:0:
320,192,30670,1,0,0:0:0:0:
448,192,30670,1,0,0:0:0:0:
192,192,30818,1,0,0:0:0:0:
64,192,30818,1,0,0:0:0:0:
320,192,30966,1,0,0:0:0:0:
64,192,30966,1,0,0:0:0:0:
320,192,31113,1,0,0:0:0:0:
448,192,31113,1,0,0:0:0:0:
192,192,31113,1,0,0:0:0:0:
64,192,31260,1,0,0:0:0:0:
448,192,31260,1,0,0:0:0:0:
192,192,31408,1,0,0:0:0:0:
64,192,31408,1,0,0:0:0:0:
320,192,31481,1,0,0:0:0:0:
64,192,31555,1,0,0:0:0:0:
192,192,31555,1,0,0:0:0:0:
448,192,31628,1,0,0:0:0:0:
192,192,31703,1,0,0:0:0:0:
64,192,31703,1,0,0:0:0:0:
320,192,31703,1,0,0:0:0:0:
64,192,32145,1,0,0:0:0:0:
192,192,32145,1,0,0:0:0:0:
192,192,32292,1,0,0:0:0:0:
320,192,32292,1,0,0:0:0:0:
448,192,32292,1,0,0:0:0:0:
192,192,32439,1,0,0:0:0:0:
64,192,32439,1,0,0:0:0:0:
64,192,32588,1,0,0:0:0:0:
192,192,32588,1,0,0:0:0:0:
320,192,32661,1,0,0:0:0:0:
64,192,32735,1,0,0:0:0:0:
192,192,32735,1,0,0:0:0:0:
448,192,32808,1,0,0:0:0:0:
192,192,32882,1,0,0:0:0:0:
64,192,32882,1,0,0:0:0:0:
320,192,32882,1,0,0:0:0:0:
64,192,33029,1,0,0:0:0:0:
192,192,33029,1,0,0:0:0:0:
320,192,33177,1,0,0:0:0:0:
448,192,33177,1,0,0:0:0:0:
448,192,33324,1,0,0:0:0:0:
64,192,33324,1,0,0:0:0:0:
64,192,33471,1,0,0:0:0:0:
192,192,33471,1,0,0:0:0:0:
320,192,33471,1,0,0:0:0:0:
320,192,33619,1,0,0:0:0:0:
448,192,33619,1,0,0:0:0:0:
192,192,33767,1,0,0:0:0:0:
64,192,33767,1,0,0:0:0:0:
320,192,33840,1,0,0:0:0:0:
64,192,33914,1,0,0:0:0:0:
192,192,33914,1,0,0:0:0:0:
448,192,33988,1,0,0:0:0:0:
192,192,34061,1,0,0:0:0:0:
64,192,34061,1,0,0:0:0:0:
320,192,34061,1,0,0:0:0:0:
320,192,34504,1,0,0:0:0:0:
448,192,34504,1,0,0:0:0:0:
320,192,34651,1,0,0:0:0:0:
192,192,34651,1,0,0:0:0:0:
64,192,34651,1,0,0:0:0:0:
320,192,34798,1,0,0:0:0:0:
448,192,34798,1,0,0:0:0:0:
320,192,34946,1,0,0:0:0:0:
448,192,34946,1,0,0:0:0:0:
192,192,35019,1,0,0:0:0:0:
448,192,35093,1,0,0:0:0:0:
320,192,35093,1,0,0:0:0:0:
64,192,35167,1,0,0:0:0:0:
320,192,35240,1,0,0:0:0:0:
448,192,35240,1,0,0:0:0:0:
192,192,35240,1,0,0:0:0:0:
320,192,35388,1,0,0:0:0:0:
448,192,35388,1,0,0:0:0:0:
192,192,35536,1,0,0:0:0:0:
64,192,35536,1,0,0:0:0:0:
64,192,35683,1,0,0:0:0:0:
320,192,35683,1,0,0:0:0:0:
192,192,35830,1,0,0:0:0:0:
320,192,35830,1,0,0:0:0:0:
448,192,35830,1,0,0:0:0:0:
192,192,35978,1,0,0:0:0:0:
64,192,35978,128,0,37305:0:0:0:0:
320,192,36273,1,0,0:0:0:0:
448,192,36273,1,0,0:0:0:0:
448,192,36420,1,0,0:0:0:0:
320,192,36420,1,0,0:0:0:0:
192,192,36420,1,0,0:0:0:0:
192,192,36568,1,0,0:0:0:0:
192,192,36715,1,0,0:0:0:0:
320,192,36715,1,0,0:0:0:0:
448,192,36715,1,0,0:0:0:0:
448,192,36862,1,0,0:0:0:0:
448,192,37009,1,0,0:0:0:0:
320,192,37009,1,0,0:0:0:0:
192,192,37009,1,0,0:0:0:0:
320,192,37158,1,0,0:0:0:0:
448,192,37305,128,0,38484:0:0:0:0:
192,192,37305,1,0,0:0:0:0:
320,192,37305,1,0,0:0:0:0:
192,192,37452,1,0,0:0:0:0:
64,192,37599,1,0,0:0:0:0:
192,192,37599,1,0,0:0:0:0:
320,192,37599,1,0,0:0:0:0:
320,192,37747,1,0,0:0:0:0:
320,192,37894,1,0,0:0:0:0:
192,192,37894,1,0,0:0:0:0:
64,192,37894,1,0,0:0:0:0:
64,192,38042,1,0,0:0:0:0:
192,192,38189,1,0,0:0:0:0:
64,192,38189,1,0,0:0:0:0:
320,192,38189,1,0,0:0:0:0:
192,192,38337,1,0,0:0:0:0:
64,192,38337,1,0,0:0:0:0:
320,192,38337,1,0,0:0:0:0:
64,192,38484,1,0,0:0:0:0:
192,192,38484,1,0,0:0:0:0:
320,192,38558,1,0,0:0:0:0:
448,192,38558,1,0,0:0:0:0:
192,192,38631,1,0,0:0:0:0:
64,192,38631,1,0,0:0:0:0:
64,192,38778,1,0,0:0:0:0:
320,192,38778,1,0,0:0:0:0:
320,192,38926,1,0,0:0:0:0:
192,192,38926,1,0,0:0:0:0:
64,192,39074,1,0,0:0:0:0:
320,192,39074,1,0,0:0:0:0:
448,192,39074,1,0,0:0:0:0:
192,192,39148,1,0,0:0:0:0:
320,192,39221,1,0,0:0:0:0:
448,192,39221,1,0,0:0:0:0:
320,192,39368,1,0,0:0:0:0:
64,192,39368,1,0,0:0:0:0:
192,192,39516,1,0,0:0:0:0:
320,192,39516,1,0,0:0:0:0:
64,192,39663,1,0,0:0:0:0:
320,192,39663,1,0,0:0:0:0:
448,192,39663,1,0,0:0:0:0:
64,192,39810,1,0,0:0:0:0:
192,192,39810,1,0,0:0:0:0:
320,192,39885,1,0,0:0:0:0:
64,192,39958,1,0,0:0:0:0:
192,192,39958,1,0,0:0:0:0:
320,192,40032,1,0,0:0:0:0:
64,192,40106,1,0,0:0:0:0:
192,192,40106,1,0,0:0:0:0:
320,192,40179,1,0,0:0:0:0:
64,192,40253,1,0,0:0:0:0:
192,192,40253,1,0,0:0:0:0:
320,192,40327,1,0,0:0:0:0:
64,192,40400,1,0,0:0:0:0:
192,192,40400,1,0,0:0:0:0:
448,192,40474,1,0,0:0:0:0:
64,192,40548,1,0,0:0:0:0:
192,192,40548,1,0,0:0:0:0:
320,192,40621,1,0,0:0:0:0:
64,192,40695,1,0,0:0:0:0:
192,192,40695,1,0,0:0:0:0:
448,192,40769,1,0,0:0:0:0:
192,192,40843,1,0,0:0:0:0:
64,192,40843,1,0,0:0:0:0:
320,192,40843,1,0,0:0:0:0:
320,192,40990,1,0,0:0:0:0:
448,192,40990,1,0,0:0:0:0:
448,192,41138,1,0,0:0:0:0:
192,192,41138,1,0,0:0:0:0:
192,192,41285,1,0,0:0:0:0:
320,192,41285,1,0,0:0:0:0:
448,192,41432,1,0,0:0:0:0:
192,192,41432,1,0,0:0:0:0:
64,192,41432,1,0,0:0:0:0:
320,192,41506,1,0,0:0:0:0:
64,192,41579,1,0,0:0:0:0:
192,192,41579,1,0,0:0:0:0:
448,192,41728,1,0,0:0:0:0:
192,192,41728,1,0,0:0:0:0:
192,192,41875,1,0,0:0:0:0:
320,192,41875,1,0,0:0:0:0:
64,192,42022,1,0,0:0:0:0:
192,192,42022,1,0,0:0:0:0:
448,192,42022,1,0,0:0:0:0:
320,192,42169,1,0,0:0:0:0:
448,192,42169,1,0,0:0:0:0:
192,192,42243,1,0,0:0:0:0:
320,192,42317,1,0,0:0:0:0:
448,192,42317,1,0,0:0:0:0:
192,192,42390,1,0,0:0:0:0:
320,192,42464,1,0,0:0:0:0:
448,192,42464,1,0,0:0:0:0:
192,192,42538,1,0,0:0:0:0:
320,192,42612,1,0,0:0:0:0:
448,192,42612,1,0,0:0:0:0:
192,192,42686,1,0,0:0:0:0:
320,192,42759,1,0,0:0:0:0:
448,192,42759,1,0,0:0:0:0:
64,192,42833,1,0,0:0:0:0:
320,192,42907,1,0,0:0:0:0:
448,192,42907,1,0,0:0:0:0:
192,192,42980,1,0,0:0:0:0:
320,192,43054,1,0,0:0:0:0:
448,192,43054,1,0,0:0:0:0:
64,192,43128,1,0,0:0:0:0:
192,192,43201,1,0,0:0:0:0:
320,192,43201,1,0,0:0:0:0:
448,192,43201,1,0,0:0:0:0:
64,192,43348,1,0,0:0:0:0:
192,192,43348,1,0,0:0:0:0:
64,192,43497,1,0,0:0:0:0:
320,192,43497,1,0,0:0:0:0:
320,192,43644,1,0,0:0:0:0:
192,192,43644,1,0,0:0:0:0:
64,192,43791,1,0,0:0:0:0:
320,192,43791,1,0,0:0:0:0:
448,192,43791,1,0,0:0:0:0:
192,192,43865,1,0,0:0:0:0:
320,192,43938,1,0,0:0:0:0:
448,192,43938,1,0,0:0:0:0:
320,192,44086,1,0,0:0:0:0:
64,192,44086,1,0,0:0:0:0:
192,192,44233,1,0,0:0:0:0:
320,192,44233,1,0,0:0:0:0:
320,192,44380,1,0,0:0:0:0:
448,192,44380,1,0,0:0:0:0:
64,192,44380,1,0,0:0:0:0:
192,192,44528,1,0,0:0:0:0:
64,192,44528,1,0,0:0:0:0:
320,192,44602,1,0,0:0:0:0:
192,192,44676,1,0,0:0:0:0:
64,192,44676,1,0,0:0:0:0:
320,192,44749,1,0,0:0:0:0:
192,192,44823,1,0,0:0:0:0:
64,192,44823,1,0,0:0:0:0:
320,192,44897,1,0,0:0:0:0:
448,192,44970,1,0,0:0:0:0:
192,192,44970,1,0,0:0:0:0:
64,192,44970,1,0,0:0:0:0:
192,192,45118,1,0,0:0:0:0:
64,192,45118,1,0,0:0:0:0:
448,192,45118,1,0,0:0:0:0:
448,192,45265,1,0,0:0:0:0:
192,192,45265,1,0,0:0:0:0:
64,192,45265,1,0,0:0:0:0:
320,192,45413,1,0,0:0:0:0:
448,192,45413,128,0,46739:0:0:0:0:
192,192,45708,1,0,0:0:0:0:
64,192,45855,1,0,0:0:0:0:
320,192,45855,1,0,0:0:0:0:
192,192,45855,1,0,0:0:0:0:
64,192,46002,1,0,0:0:0:0:
320,192,46149,1,0,0:0:0:0:
64,192,46298,1,0,0:0:0:0:
64,192,46445,1,0,0:0:0:0:
192,192,46445,1,0,0:0:0:0:
320,192,46445,1,0,0:0:0:0:
192,192,46592,1,0,0:0:0:0:
64,192,46739,128,0,47918:0:0:0:0:
320,192,46739,1,0,0:0:0:0:
448,192,46887,1,0,0:0:0:0:
448,192,47034,1,0,0:0:0:0:
320,192,47034,1,0,0:0:0:0:
192,192,47034,1,0,0:0:0:0:
320,192,47182,1,0,0:0:0:0:
448,192,47329,1,0,0:0:0:0:
448,192,47477,1,0,0:0:0:0:
320,192,47477,1,0,0:0:0:0:
192,192,47477,1,0,0:0:0:0:
192,192,47771,1,0,0:0:0:0:
320,192,47771,1,0,0:0:0:0:
448,192,47771,1,0,0:0:0:0:
320,192,47918,1,0,0:0:0:0:
448,192,47918,1,0,0:0:0:0:
192,192,47992,1,0,0:0:0:0:
64,192,47992,1,0,0:0:0:0:
448,192,48067,1,0,0:0:0:0:
320,192,48067,1,0,0:0:0:0:
448,192,48214,1,0,0:0:0:0:
192,192,48214,1,0,0:0:0:0:
64,192,48361,1,0,0:0:0:0:
448,192,48361,1,0,0:0:0:0:
192,192,48508,1,0,0:0:0:0:
448,192,48508,1,0,0:0:0:0:
320,192,48508,1,0,0:0:0:0:
64,192,48582,1,0,0:0:0:0:
320,192,48656,1,0,0:0:0:0:
448,192,48656,1,0,0:0:0:0:
192,192,48803,1,0,0:0:0:0:
448,192,48803,1,0,0:0:0:0:
448,192,48951,1,0,0:0:0:0:
64,192,48951,1,0,0:0:0:0:
320,192,49098,1,0,0:0:0:0:
192,192,49098,1,0,0:0:0:0:
448,192,49098,1,0,0:0:0:0:
192,192,49246,1,0,0:0:0:0:
64,192,49246,1,0,0:0:0:0:
448,192,49319,1,0,0:0:0:0:
192,192,49393,1,0,0:0:0:0:
64,192,49393,1,0,0:0:0:0:
448,192,49467,1,0,0:0:0:0:
192,192,49540,1,0,0:0:0:0:
64,192,49540,1,0,0:0:0:0:
448,192,49614,1,0,0:0:0:0:
64,192,49688,1,0,0:0:0:0:
192,192,49688,1,0,0:0:0:0:
448,192,49761,1,0,0:0:0:0:
64,192,49835,1,0,0:0:0:0:
192,192,49835,1,0,0:0:0:0:
320,192,49909,1,0,0:0:0:0:
64,192,49983,1,0,0:0:0:0:
192,192,49983,1,0,0:0:0:0:
448,192,50057,1,0,0:0:0:0:
64,192,50130,1,0,0:0:0:0:
192,192,50130,1,0,0:0:0:0:
320,192,50204,1,0,0:0:0:0:
64,192,50278,1,0,0:0:0:0:
192,192,50278,1,0,0:0:0:0:
448,192,50278,1,0,0:0:0:0:
320,192,50425,1,0,0:0:0:0:
448,192,50425,1,0,0:0:0:0:
320,192,50572,1,0,0:0:0:0:
64,192,50572,1,0,0:0:0:0:
64,192,50719,1,0,0:0:0:0:
448,192,50719,1,0,0:0:0:0:
320,192,50868,1,0,0:0:0:0:
192,192,50868,1,0,0:0:0:0:
64,192,50868,1,0,0:0:0:0:
448,192,50941,1,0,0:0:0:0:
192,192,51015,1,0,0:0:0:0:
64,192,51015,1,0,0:0:0:0:
64,192,51162,1,0,0:0:0:0:
320,192,51162,1,0,0:0:0:0:
448,192,51309,1,0,0:0:0:0:
64,192,51309,1,0,0:0:0:0:
64,192,51457,1,0,0:0:0:0:
192,192,51457,1,0,0:0:0:0:
320,192,51457,1,0,0:0:0:0:
320,192,51604,1,0,0:0:0:0:
448,192,51604,1,0,0:0:0:0:
64,192,51678,1,0,0:0:0:0:
320,192,51752,1,0,0:0:0:0:
448,192,51752,1,0,0:0:0:0:
64,192,51826,1,0,0:0:0:0:
320,192,51899,1,0,0:0:0:0:
448,192,51899,1,0,0:0:0:0:
64,192,51973,1,0,0:0:0:0:
320,192,52047,1,0,0:0:0:0:
448,192,52047,1,0,0:0:0:0:
64,192,52120,1,0,0:0:0:0:
320,192,52194,1,0,0:0:0:0:
448,192,52194,1,0,0:0:0:0:
192,192,52268,1,0,0:0:0:0:
320,192,52341,1,0,0:0:0:0:
448,192,52341,1,0,0:0:0:0:
64,192,52415,1,0,0:0:0:0:
320,192,52488,1,0,0:0:0:0:
448,192,52488,1,0,0:0:0:0:
192,192,52562,1,0,0:0:0:0:
320,192,52637,1,0,0:0:0:0:
448,192,52637,1,0,0:0:0:0:
64,192,52637,1,0,0:0:0:0:
192,192,52784,1,0,0:0:0:0:
64,192,52784,1,0,0:0:0:0:
448,192,52931,1,0,0:0:0:0:
192,192,52931,1,0,0:0:0:0:
64,192,53078,1,0,0:0:0:0:
448,192,53078,1,0,0:0:0:0:
192,192,53226,1,0,0:0:0:0:
320,192,53226,1,0,0:0:0:0:
448,192,53226,1,0,0:0:0:0:
64,192,53299,1,0,0:0:0:0:
320,192,53373,1,0,0:0:0:0:
448,192,53373,1,0,0:0:0:0:
192,192,53521,1,0,0:0:0:0:
448,192,53521,1,0,0:0:0:0:
448,192,53668,1,0,0:0:0:0:
64,192,53668,1,0,0:0:0:0:
320,192,53816,1,0,0:0:0:0:
192,192,53816,1,0,0:0:0:0:
448,192,53816,1,0,0:0:0:0:
64,192,53963,1,0,0:0:0:0:
192,192,53963,1,0,0:0:0:0:
448,192,54037,1,0,0:0:0:0:
64,192,54110,1,0,0:0:0:0:
192,192,54110,1,0,0:0:0:0:
448,192,54184,1,0,0:0:0:0:
64,192,54258,1,0,0:0:0:0:
192,192,54258,1,0,0:0:0:0:
448,192,54331,1,0,0:0:0:0:
64,192,54406,1,0,0:0:0:0:
192,192,54406,1,0,0:0:0:0:
320,192,54406,1,0,0:0:0:0:
64,192,54553,1,0,0:0:0:0:
192,192,54553,1,0,0:0:0:0:
320,192,54553,1,0,0:0:0:0:
320,192,54700,1,0,0:0:0:0:
192,192,54700,1,0,0:0:0:0:
64,192,54700,1,0,0:0:0:0:
448,192,54848,1,0,0:0:0:0:
320,192,54848,128,0,56174:0:0:0:0:
64,192,55142,1,0,0:0:0:0:
64,192,55289,1,0,0:0:0:0:
192,192,55289,1,0,0:0:0:0:
448,192,55289,1,0,0:0:0:0:
448,192,55438,1,0,0:0:0:0:
64,192,55585,1,0,0:0:0:0:
448,192,55732,1,0,0:0:0:0:
448,192,55879,1,0,0:0:0:0:
192,192,55879,1,0,0:0:0:0:
64,192,55879,1,0,0:0:0:0:
64,192,56027,1,0,0:0:0:0:
192,192,56174,128,0,57058:0:0:0:0:
448,192,56174,1,0,0:0:0:0:
320,192,56322,1,0,0:0:0:0:
320,192,56469,1,0,0:0:0:0:
448,192,56469,1,0,0:0:0:0:
64,192,56469,1,0,0:0:0:0:
64,192,56617,1,0,0:0:0:0:
320,192,56764,1,0,0:0:0:0:
448,192,56911,1,0,0:0:0:0:
64,192,57058,1,0,0:0:0:0:
320,192,57058,1,0,0:0:0:0:
448,192,57058,1,0,0:0:0:0:
192,192,57207,1,0,0:0:0:0:
64,192,57207,1,0,0:0:0:0:
320,192,57280,1,0,0:0:0:0:
448,192,57354,128,0,58533:0:0:0:0:
64,192,57354,1,0,0:0:0:0:
192,192,57354,1,0,0:0:0:0:
64,192,57501,1,0,0:0:0:0:
64,192,57648,1,0,0:0:0:0:
192,192,57648,1,0,0:0:0:0:
64,192,57796,1,0,0:0:0:0:
192,192,57796,1,0,0:0:0:0:
64,192,57943,1,0,0:0:0:0:
192,192,57943,1,0,0:0:0:0:
64,192,58091,1,0,0:0:0:0:
192,192,58091,1,0,0:0:0:0:
64,192,58238,1,0,0:0:0:0:
192,192,58238,1,0,0:0:0:0:
64,192,58386,1,0,0:0:0:0:
192,192,58386,1,0,0:0:0:0:
64,192,58533,128,0,59712:0:0:0:0:
192,192,58533,128,0,59418:0:0:0:0:
320,192,58680,1,0,0:0:0:0:
448,192,58680,1,0,0:0:0:0:
320,192,58828,1,0,0:0:0:0:
448,192,58828,1,0,0:0:0:0:
320,192,58976,1,0,0:0:0:0:
448,192,58976,1,0,0:0:0:0:
320,192,59123,1,0,0:0:0:0:
448,192,59123,1,0,0:0:0:0:
320,192,59270,1,0,0:0:0:0:
448,192,59270,1,0,0:0:0:0:
448,192,59418,1,0,0:0:0:0:
448,192,59565,1,0,0:0:0:0:
320,192,59712,128,0,59860:0:0:0:0:
448,192,59712,1,0,0:0:0:0:
192,192,59860,128,0,60008:0:0:0:0:
64,192,59860,1,0,0:0:0:0:
320,192,60155,128,0,60892:0:0:0:0:
448,192,60155,1,0,0:0:0:0:
64,192,60302,1,0,0:0:0:0:
448,192,60302,1,0,0:0:0:0:
192,192,60302,1,0,0:0:0:0:
64,192,60597,1,0,0:0:0:0:
64,192,60892,1,0,0:0:0:0:
64,192,61187,1,0,0:0:0:0:
192,192,61187,128,0,61334:0:0:0:0:
64,192,61481,1,0,0:0:0:0:
448,192,61481,1,0,0:0:0:0:
192,192,61481,128,0,61628:0:0:0:0:
320,192,61777,128,0,61924:0:0:0:0:
64,192,62071,128,0,62513:0:0:0:0:
448,192,62071,1,0,0:0:0:0:
320,192,62366,1,0,0:0:0:0:
192,192,62513,128,0,62956:0:0:0:0:
448,192,62513,1,0,0:0:0:0:
320,192,62661,1,0,0:0:0:0:
448,192,62661,1,0,0:0:0:0:
64,192,62661,1,0,0:0:0:0:
320,192,62956,128,0,63103:0:0:0:0:
448,192,62956,1,0,0:0:0:0:
320,192,63250,128,0,63767:0:0:0:0:
448,192,63250,1,0,0:0:0:0:
448,192,63546,1,0,0:0:0:0:
64,192,63693,1,0,0:0:0:0:
192,192,63767,1,0,0:0:0:0:
64,192,63840,1,0,0:0:0:0:
320,192,63840,1,0,0:0:0:0:
448,192,63840,1,0,0:0:0:0:
192,192,63988,1,0,0:0:0:0:
320,192,63988,1,0,0:0:0:0:
192,192,64135,1,0,0:0:0:0:
64,192,64135,1,0,0:0:0:0:
448,192,64135,1,0,0:0:0:0:
192,192,64282,1,0,0:0:0:0:
64,192,64282,1,0,0:0:0:0:
448,192,64282,1,0,0:0:0:0:
448,192,64430,1,0,0:0:0:0:
320,192,64430,128,0,64578:0:0:0:0:
192,192,64578,128,0,64725:0:0:0:0:
64,192,64578,1,0,0:0:0:0:
320,192,64872,128,0,65609:0:0:0:0:
64,192,64872,1,0,0:0:0:0:
192,192,65019,1,0,0:0:0:0:
64,192,65019,1,0,0:0:0:0:
448,192,65019,1,0,0:0:0:0:
64,192,65315,1,0,0:0:0:0:
64,192,65609,1,0,0:0:0:0:
448,192,65904,1,0,0:0:0:0:
192,192,65904,128,0,66051:0:0:0:0:
64,192,66198,1,0,0:0:0:0:
448,192,66198,1,0,0:0:0:0:
192,192,66198,128,0,66347:0:0:0:0:
192,192,66494,128,0,66641:0:0:0:0:
320,192,66788,128,0,67231:0:0:0:0:
448,192,66788,1,0,0:0:0:0:
64,192,66788,1,0,0:0:0:0:
64,192,67083,1,0,0:0:0:0:
192,192,67231,128,0,67673:0:0:0:0:
448,192,67231,1,0,0:0:0:0:
64,192,67378,1,0,0:0:0:0:
320,192,67378,1,0,0:0:0:0:
448,192,67378,1,0,0:0:0:0:
320,192,67673,128,0,68558:0:0:0:0:
448,192,67673,1,0,0:0:0:0:
192,192,67968,1,0,0:0:0:0:
192,192,68263,1,0,0:0:0:0:
64,192,68263,1,0,0:0:0:0:
64,192,68558,1,0,0:0:0:0:
192,192,68558,1,0,0:0:0:0:
448,192,68558,1,0,0:0:0:0:
192,192,68705,1,0,0:0:0:0:
320,192,68705,1,0,0:0:0:0:
320,192,68852,1,0,0:0:0:0:
448,192,68852,1,0,0:0:0:0:
64,192,68852,1,0,0:0:0:0:
320,192,69000,1,0,0:0:0:0:
448,192,69000,1,0,0:0:0:0:
64,192,69000,1,0,0:0:0:0:
192,192,69148,1,0,0:0:0:0:
64,192,69148,128,0,69589:0:0:0:0:
320,192,69442,1,0,0:0:0:0:
192,192,69589,128,0,70032:0:0:0:0:
448,192,69589,1,0,0:0:0:0:
448,192,69737,1,0,0:0:0:0:
320,192,69737,1,0,0:0:0:0:
64,192,69737,1,0,0:0:0:0:
320,192,70032,128,0,70917:0:0:0:0:
448,192,70032,1,0,0:0:0:0:
64,192,70327,1,0,0:0:0:0:
64,192,70621,1,0,0:0:0:0:
192,192,70621,1,0,0:0:0:0:
64,192,70917,1,0,0:0:0:0:
192,192,70917,1,0,0:0:0:0:
448,192,70917,1,0,0:0:0:0:
320,192,71211,128,0,71506:0:0:0:0:
448,192,71211,1,0,0:0:0:0:
64,192,71358,1,0,0:0:0:0:
192,192,71432,1,0,0:0:0:0:
448,192,71506,128,0,71948:0:0:0:0:
64,192,71506,1,0,0:0:0:0:
192,192,71801,1,0,0:0:0:0:
320,192,71948,128,0,72390:0:0:0:0:
64,192,71948,1,0,0:0:0:0:
64,192,72096,1,0,0:0:0:0:
192,192,72096,1,0,0:0:0:0:
448,192,72096,1,0,0:0:0:0:
192,192,72390,128,0,72833:0:0:0:0:
64,192,72390,1,0,0:0:0:0:
448,192,72686,1,0,0:0:0:0:
448,192,72980,1,0,0:0:0:0:
320,192,72980,1,0,0:0:0:0:
192,192,73275,128,0,73422:0:0:0:0:
448,192,73275,1,0,0:0:0:0:
64,192,73275,1,0,0:0:0:0:
192,192,73570,128,0,73718:0:0:0:0:
64,192,73570,1,0,0:0:0:0:
320,192,73718,128,0,76224:0:0:0:0:
64,192,73865,1,0,0:0:0:0:
192,192,73865,1,0,0:0:0:0:
448,192,73865,1,0,0:0:0:0:
64,192,74159,1,0,0:0:0:0:
192,192,74159,1,0,0:0:0:0:
64,192,74307,1,0,0:0:0:0:
448,192,74307,1,0,0:0:0:0:
448,192,74455,1,0,0:0:0:0:
64,192,74602,1,0,0:0:0:0:
192,192,74676,1,0,0:0:0:0:
64,192,74749,1,0,0:0:0:0:
448,192,74749,1,0,0:0:0:0:
448,192,74897,1,0,0:0:0:0:
64,192,74897,1,0,0:0:0:0:
192,192,75044,1,0,0:0:0:0:
64,192,75191,1,0,0:0:0:0:
448,192,75191,1,0,0:0:0:0:
192,192,75487,1,0,0:0:0:0:
64,192,75634,1,0,0:0:0:0:
448,192,75634,1,0,0:0:0:0:
192,192,75781,1,0,0:0:0:0:
64,192,75928,1,0,0:0:0:0:
448,192,75928,1,0,0:0:0:0:
448,192,76076,1,0,0:0:0:0:
64,192,76076,1,0,0:0:0:0:
64,192,76224,1,0,0:0:0:0:
192,192,76224,1,0,0:0:0:0:
448,192,76224,1,0,0:0:0:0:
320,192,76371,1,0,0:0:0:0:
448,192,76371,1,0,0:0:0:0:
192,192,76445,1,0,0:0:0:0:
64,192,76445,1,0,0:0:0:0:
320,192,76518,1,0,0:0:0:0:
448,192,76518,1,0,0:0:0:0:
192,192,76592,1,0,0:0:0:0:
64,192,76592,1,0,0:0:0:0:
320,192,76666,1,0,0:0:0:0:
448,192,76666,1,0,0:0:0:0:
192,192,76739,1,0,0:0:0:0:
64,192,76739,1,0,0:0:0:0:
320,192,76813,1,0,0:0:0:0:
448,192,76813,1,0,0:0:0:0:
192,192,76887,1,0,0:0:0:0:
64,192,76887,1,0,0:0:0:0:
320,192,76960,1,0,0:0:0:0:
448,192,76960,1,0,0:0:0:0:
192,192,77034,1,0,0:0:0:0:
64,192,77034,1,0,0:0:0:0:
320,192,77108,1,0,0:0:0:0:
448,192,77108,1,0,0:0:0:0:
192,192,77182,1,0,0:0:0:0:
64,192,77182,1,0,0:0:0:0:
320,192,77256,1,0,0:0:0:0:
448,192,77256,1,0,0:0:0:0:
192,192,77329,1,0,0:0:0:0:
64,192,77329,1,0,0:0:0:0:
320,192,77403,1,0,0:0:0:0:
448,192,77403,1,0,0:0:0:0:
64,192,77477,1,0,0:0:0:0:
448,192,77550,1,0,0:0:0:0:
192,192,77624,1,0,0:0:0:0:
320,192,77698,1,0,0:0:0:0:
64,192,77771,1,0,0:0:0:0:
320,192,77845,1,0,0:0:0:0:
192,192,77918,1,0,0:0:0:0:
448,192,77992,1,0,0:0:0:0:
192,192,78067,1,0,0:0:0:0:
320,192,78140,1,0,0:0:0:0:
64,192,78214,1,0,0:0:0:0:
320,192,78288,1,0,0:0:0:0:
448,192,78288,1,0,0:0:0:0:
192,192,78361,1,0,0:0:0:0:
64,192,78361,1,0,0:0:0:0:
320,192,78435,1,0,0:0:0:0:
448,192,78435,1,0,0:0:0:0:
192,192,78508,1,0,0:0:0:0:
64,192,78508,1,0,0:0:0:0:
448,192,78582,128,0,78656:0:0:0:0:
320,192,78582,128,0,78656:0:0:0:0:
192,192,78656,1,0,0:0:0:0:
64,192,78729,1,0,0:0:0:0:
320,192,78803,1,0,0:0:0:0:
192,192,78877,1,0,0:0:0:0:
448,192,78877,1,0,0:0:0:0:
64,192,78877,1,0,0:0:0:0:
320,192,78951,1,0,0:0:0:0:
192,192,79025,1,0,0:0:0:0:
448,192,79098,1,0,0:0:0:0:
192,192,79172,1,0,0:0:0:0:
64,192,79172,1,0,0:0:0:0:
320,192,79246,1,0,0:0:0:0:
64,192,79319,1,0,0:0:0:0:
448,192,79393,1,0,0:0:0:0:
320,192,79467,1,0,0:0:0:0:
192,192,79467,1,0,0:0:0:0:
64,192,79467,1,0,0:0:0:0:
448,192,79540,1,0,0:0:0:0:
320,192,79614,1,0,0:0:0:0:
64,192,79688,1,0,0:0:0:0:
192,192,79761,1,0,0:0:0:0:
448,192,79761,1,0,0:0:0:0:
320,192,79835,1,0,0:0:0:0:
64,192,79909,1,0,0:0:0:0:
192,192,79983,1,0,0:0:0:0:
320,192,80057,1,0,0:0:0:0:
448,192,80057,1,0,0:0:0:0:
64,192,80057,1,0,0:0:0:0:
192,192,80130,1,0,0:0:0:0:
448,192,80204,1,0,0:0:0:0:
320,192,80278,1,0,0:0:0:0:
192,192,80351,1,0,0:0:0:0:
64,192,80351,1,0,0:0:0:0:
448,192,80425,1,0,0:0:0:0:
320,192,80498,1,0,0:0:0:0:
64,192,80572,1,0,0:0:0:0:
192,192,80646,1,0,0:0:0:0:
320,192,80646,1,0,0:0:0:0:
448,192,80646,1,0,0:0:0:0:
64,192,80719,1,0,0:0:0:0:
448,192,80794,1,0,0:0:0:0:
320,192,80868,1,0,0:0:0:0:
64,192,80941,128,0,81015:0:0:0:0:
192,192,80941,128,0,81015:0:0:0:0:
448,192,81015,1,0,0:0:0:0:
320,192,81088,1,0,0:0:0:0:
64,192,81162,1,0,0:0:0:0:
192,192,81236,1,0,0:0:0:0:
448,192,81236,1,0,0:0:0:0:
320,192,81236,1,0,0:0:0:0:
64,192,81309,1,0,0:0:0:0:
192,192,81383,1,0,0:0:0:0:
320,192,81457,1,0,0:0:0:0:
448,192,81530,1,0,0:0:0:0:
64,192,81530,1,0,0:0:0:0:
192,192,81604,1,0,0:0:0:0:
448,192,81678,1,0,0:0:0:0:
320,192,81752,1,0,0:0:0:0:
192,192,81826,1,0,0:0:0:0:
64,192,81826,1,0,0:0:0:0:
448,192,81826,1,0,0:0:0:0:
320,192,81899,1,0,0:0:0:0:
192,192,81973,1,0,0:0:0:0:
448,192,82047,1,0,0:0:0:0:
320,192,82120,1,0,0:0:0:0:
64,192,82120,1,0,0:0:0:0:
192,192,82194,1,0,0:0:0:0:
448,192,82268,1,0,0:0:0:0:
64,192,82341,1,0,0:0:0:0:
192,192,82415,1,0,0:0:0:0:
320,192,82415,1,0,0:0:0:0:
448,192,82415,1,0,0:0:0:0:
64,192,82488,1,0,0:0:0:0:
192,192,82562,1,0,0:0:0:0:
320,192,82637,1,0,0:0:0:0:
448,192,82710,1,0,0:0:0:0:
64,192,82710,1,0,0:0:0:0:
192,192,82784,1,0,0:0:0:0:
448,192,82858,1,0,0:0:0:0:
320,192,82931,1,0,0:0:0:0:
64,192,83005,1,0,0:0:0:0:
192,192,83005,1,0,0:0:0:0:
448,192,83005,1,0,0:0:0:0:
320,192,83078,1,0,0:0:0:0:
64,192,83152,1,0,0:0:0:0:
192,192,83226,1,0,0:0:0:0:
320,192,83299,128,0,83373:0:0:0:0:
448,192,83299,128,0,83373:0:0:0:0:
64,192,83373,1,0,0:0:0:0:
192,192,83447,1,0,0:0:0:0:
448,192,83521,1,0,0:0:0:0:
320,192,83595,1,0,0:0:0:0:
192,192,83595,1,0,0:0:0:0:
64,192,83595,1,0,0:0:0:0:
448,192,83668,1,0,0:0:0:0:
320,192,83742,1,0,0:0:0:0:
64,192,83816,1,0,0:0:0:0:
192,192,83889,1,0,0:0:0:0:
448,192,83889,1,0,0:0:0:0:
320,192,83963,1,0,0:0:0:0:
64,192,84037,1,0,0:0:0:0:
448,192,84110,1,0,0:0:0:0:
320,192,84184,1,0,0:0:0:0:
192,192,84184,1,0,0:0:0:0:
64,192,84184,1,0,0:0:0:0:
448,192,84258,1,0,0:0:0:0:
320,192,84331,1,0,0:0:0:0:
192,192,84406,1,0,0:0:0:0:
64,192,84479,1,0,0:0:0:0:
448,192,84479,1,0,0:0:0:0:
320,192,84553,1,0,0:0:0:0:
64,192,84627,1,0,0:0:0:0:
192,192,84700,1,0,0:0:0:0:
320,192,84774,1,0,0:0:0:0:
448,192,84774,1,0,0:0:0:0:
64,192,84774,1,0,0:0:0:0:
192,192,84848,1,0,0:0:0:0:
448,192,84921,1,0,0:0:0:0:
64,192,84995,1,0,0:0:0:0:
192,192,85068,1,0,0:0:0:0:
320,192,85068,1,0,0:0:0:0:
448,192,85142,1,0,0:0:0:0:
64,192,85216,1,0,0:0:0:0:
192,192,85289,1,0,0:0:0:0:
64,192,85364,1,0,0:0:0:0:
448,192,85364,1,0,0:0:0:0:
320,192,85364,1,0,0:0:0:0:
192,192,85438,1,0,0:0:0:0:
320,192,85511,1,0,0:0:0:0:
448,192,85585,1,0,0:0:0:0:
64,192,85658,128,0,85732:0:0:0:0:
192,192,85658,128,0,85732:0:0:0:0:
320,192,85732,1,0,0:0:0:0:
448,192,85806,1,0,0:0:0:0:
192,192,85879,1,0,0:0:0:0:
320,192,85953,1,0,0:0:0:0:
64,192,85953,1,0,0:0:0:0:
448,192,85953,1,0,0:0:0:0:
192,192,86027,1,0,0:0:0:0:
448,192,86100,1,0,0:0:0:0:
320,192,86174,1,0,0:0:0:0:
64,192,86248,1,0,0:0:0:0:
192,192,86248,1,0,0:0:0:0:
448,192,86322,1,0,0:0:0:0:
320,192,86396,1,0,0:0:0:0:
64,192,86469,1,0,0:0:0:0:
320,192,86543,1,0,0:0:0:0:
192,192,86543,1,0,0:0:0:0:
448,192,86543,1,0,0:0:0:0:
64,192,86617,1,0,0:0:0:0:
320,192,86690,1,0,0:0:0:0:
192,192,86764,1,0,0:0:0:0:
448,192,86838,1,0,0:0:0:0:
64,192,86838,1,0,0:0:0:0:
320,192,86911,1,0,0:0:0:0:
64,192,86985,1,0,0:0:0:0:
192,192,87058,1,0,0:0:0:0:
64,192,87133,1,0,0:0:0:0:
320,192,87133,1,0,0:0:0:0:
448,192,87133,1,0,0:0:0:0:
192,192,87207,1,0,0:0:0:0:
320,192,87280,1,0,0:0:0:0:
64,192,87354,1,0,0:0:0:0:
192,192,87428,1,0,0:0:0:0:
448,192,87428,1,0,0:0:0:0:
320,192,87501,1,0,0:0:0:0:
64,192,87575,1,0,0:0:0:0:
448,192,87648,1,0,0:0:0:0:
192,192,87722,1,0,0:0:0:0:
320,192,87722,1,0,0:0:0:0:
64,192,87722,1,0,0:0:0:0:
448,192,87796,1,0,0:0:0:0:
320,192,87869,1,0,0:0:0:0:
192,192,87943,1,0,0:0:0:0:
64,192,88017,128,0,88091:0:0:0:0:
448,192,88017,128,0,88091:0:0:0:0:
320,192,88091,1,0,0:0:0:0:
192,192,88165,1,0,0:0:0:0:
448,192,88238,1,0,0:0:0:0:
320,192,88312,1,0,0:0:0:0:
192,192,88312,1,0,0:0:0:0:
64,192,88312,1,0,0:0:0:0:
448,192,88386,1,0,0:0:0:0:
320,192,88459,1,0,0:0:0:0:
64,192,88533,1,0,0:0:0:0:
192,192,88607,1,0,0:0:0:0:
448,192,88607,1,0,0:0:0:0:
320,192,88680,1,0,0:0:0:0:
64,192,88754,1,0,0:0:0:0:
448,192,88828,1,0,0:0:0:0:
320,192,88901,1,0,0:0:0:0:
192,192,88901,1,0,0:0:0:0:
64,192,88901,1,0,0:0:0:0:
448,192,88976,1,0,0:0:0:0:
192,192,89049,1,0,0:0:0:0:
64,192,89123,1,0,0:0:0:0:
448,192,89197,1,0,0:0:0:0:
320,192,89197,1,0,0:0:0:0:
192,192,89270,1,0,0:0:0:0:
448,192,89344,1,0,0:0:0:0:
64,192,89418,1,0,0:0:0:0:
320,192,89491,1,0,0:0:0:0:
192,192,89491,1,0,0:0:0:0:
448,192,89491,1,0,0:0:0:0:
64,192,89565,1,0,0:0:0:0:
320,192,89638,1,0,0:0:0:0:
192,192,89712,1,0,0:0:0:0:
448,192,89786,1,0,0:0:0:0:
64,192,89786,1,0,0:0:0:0:
192,192,89860,1,0,0:0:0:0:
320,192,89934,1,0,0:0:0:0:
64,192,90008,1,0,0:0:0:0:
192,192,90081,1,0,0:0:0:0:
448,192,90081,1,0,0:0:0:0:
320,192,90081,1,0,0:0:0:0:
64,192,90155,1,0,0:0:0:0:
192,192,90228,1,0,0:0:0:0:
320,192,90302,1,0,0:0:0:0:
64,192,90376,128,0,90449:0:0:0:0:
448,192,90376,128,0,90449:0:0:0:0:
192,192,90449,1,0,0:0:0:0:
320,192,90523,1,0,0:0:0:0:
64,192,90597,1,0,0:0:0:0:
192,192,90670,1,0,0:0:0:0:
320,192,90670,1,0,0:0:0:0:
448,192,90670,1,0,0:0:0:0:
64,192,90744,1,0,0:0:0:0:
448,192,90818,1,0,0:0:0:0:
320,192,90892,1,0,0:0:0:0:
192,192,90966,1,0,0:0:0:0:
64,192,90966,1,0,0:0:0:0:
448,192,91039,1,0,0:0:0:0:
64,192,91113,1,0,0:0:0:0:
320,192,91187,1,0,0:0:0:0:
192,192,91260,1,0,0:0:0:0:
64,192,91260,1,0,0:0:0:0:
448,192,91260,1,0,0:0:0:0:
320,192,91334,1,0,0:0:0:0:
192,192,91408,1,0,0:0:0:0:
448,192,91481,1,0,0:0:0:0:
320,192,91555,1,0,0:0:0:0:
64,192,91555,1,0,0:0:0:0:
192,192,91628,1,0,0:0:0:0:
448,192,91703,1,0,0:0:0:0:
64,192,91777,1,0,0:0:0:0:
192,192,91850,1,0,0:0:0:0:
320,192,91850,1,0,0:0:0:0:
448,192,91850,1,0,0:0:0:0:
64,192,91924,1,0,0:0:0:0:
320,192,91998,1,0,0:0:0:0:
192,192,92071,1,0,0:0:0:0:
64,192,92145,1,0,0:0:0:0:
448,192,92145,1,0,0:0:0:0:
320,192,92218,1,0,0:0:0:0:
192,192,92292,1,0,0:0:0:0:
64,192,92366,1,0,0:0:0:0:
320,192,92439,1,0,0:0:0:0:
192,192,92439,1,0,0:0:0:0:
448,192,92439,1,0,0:0:0:0:
64,192,92513,1,0,0:0:0:0:
320,192,92588,1,0,0:0:0:0:
448,192,92661,1,0,0:0:0:0:
192,192,92735,1,0,0:0:0:0:
64,192,92735,1,0,0:0:0:0:
320,192,92808,1,0,0:0:0:0:
192,192,92882,1,0,0:0:0:0:
320,192,92956,1,0,0:0:0:0:
192,192,93029,1,0,0:0:0:0:
448,192,93029,1,0,0:0:0:0:
320,192,93103,1,0,0:0:0:0:
192,192,93177,1,0,0:0:0:0:
320,192,93250,1,0,0:0:0:0:
192,192,93324,1,0,0:0:0:0:
64,192,93324,1,0,0:0:0:0:
320,192,93398,1,0,0:0:0:0:
192,192,93471,1,0,0:0:0:0:
320,192,93546,1,0,0:0:0:0:
192,192,93619,1,0,0:0:0:0:
448,192,93619,1,0,0:0:0:0:
320,192,93693,1,0,0:0:0:0:
192,192,93767,1,0,0:0:0:0:
320,192,93840,1,0,0:0:0:0:
64,192,93914,1,0,0:0:0:0:
192,192,93914,1,0,0:0:0:0:
320,192,93988,1,0,0:0:0:0:
64,192,94061,1,0,0:0:0:0:
320,192,94135,1,0,0:0:0:0:
64,192,94208,1,0,0:0:0:0:
448,192,94208,1,0,0:0:0:0:
320,192,94282,1,0,0:0:0:0:
64,192,94356,1,0,0:0:0:0:
320,192,94430,1,0,0:0:0:0:
64,192,94504,1,0,0:0:0:0:
192,192,94504,1,0,0:0:0:0:
320,192,94578,1,0,0:0:0:0:
64,192,94651,1,0,0:0:0:0:
320,192,94725,1,0,0:0:0:0:
64,192,94798,1,0,0:0:0:0:
448,192,94798,1,0,0:0:0:0:
320,192,94872,1,0,0:0:0:0:
64,192,94946,1,0,0:0:0:0:
320,192,95019,1,0,0:0:0:0:
192,192,95093,1,0,0:0:0:0:
64,192,95093,1,0,0:0:0:0:
448,192,95167,1,0,0:0:0:0:
192,192,95240,1,0,0:0:0:0:
448,192,95315,1,0,0:0:0:0:
192,192,95388,1,0,0:0:0:0:
320,192,95388,1,0,0:0:0:0:
448,192,95462,1,0,0:0:0:0:
192,192,95536,1,0,0:0:0:0:
448,192,95609,1,0,0:0:0:0:
192,192,95683,1,0,0:0:0:0:
64,192,95683,1,0,0:0:0:0:
448,192,95757,1,0,0:0:0:0:
192,192,95830,1,0,0:0:0:0:
448,192,95904,1,0,0:0:0:0:
192,192,95978,1,0,0:0:0:0:
320,192,95978,1,0,0:0:0:0:
448,192,96051,1,0,0:0:0:0:
192,192,96125,1,0,0:0:0:0:
448,192,96198,1,0,0:0:0:0:
64,192,96273,1,0,0:0:0:0:
192,192,96273,1,0,0:0:0:0:
448,192,96347,1,0,0:0:0:0:
64,192,96420,1,0,0:0:0:0:
448,192,96494,1,0,0:0:0:0:
64,192,96568,1,0,0:0:0:0:
320,192,96568,1,0,0:0:0:0:
448,192,96641,1,0,0:0:0:0:
64,192,96715,1,0,0:0:0:0:
448,192,96788,1,0,0:0:0:0:
64,192,96862,1,0,0:0:0:0:
192,192,96862,1,0,0:0:0:0:
448,192,96936,1,0,0:0:0:0:
64,192,97009,1,0,0:0:0:0:
448,192,97083,1,0,0:0:0:0:
64,192,97158,1,0,0:0:0:0:
320,192,97158,1,0,0:0:0:0:
192,192,97231,1,0,0:0:0:0:
448,192,97305,1,0,0:0:0:0:
64,192,97378,1,0,0:0:0:0:
320,192,97452,1,0,0:0:0:0:
448,192,97452,1,0,0:0:0:0:
192,192,97526,1,0,0:0:0:0:
320,192,97599,1,0,0:0:0:0:
192,192,97673,1,0,0:0:0:0:
320,192,97747,1,0,0:0:0:0:
64,192,97747,1,0,0:0:0:0:
192,192,97820,1,0,0:0:0:0:
320,192,97894,1,0,0:0:0:0:
192,192,97968,1,0,0:0:0:0:
320,192,98042,1,0,0:0:0:0:
448,192,98042,1,0,0:0:0:0:
192,192,98116,1,0,0:0:0:0:
320,192,98189,1,0,0:0:0:0:
192,192,98263,1,0,0:0:0:0:
320,192,98337,1,0,0:0:0:0:
64,192,98337,1,0,0:0:0:0:
192,192,98410,1,0,0:0:0:0:
320,192,98484,1,0,0:0:0:0:
192,192,98558,1,0,0:0:0:0:
320,192,98631,1,0,0:0:0:0:
448,192,98631,1,0,0:0:0:0:
64,192,98705,1,0,0:0:0:0:
320,192,98778,1,0,0:0:0:0:
64,192,98852,1,0,0:0:0:0:
320,192,98926,1,0,0:0:0:0:
192,192,98926,1,0,0:0:0:0:
64,192,99000,1,0,0:0:0:0:
320,192,99074,1,0,0:0:0:0:
64,192,99148,1,0,0:0:0:0:
320,192,99221,1,0,0:0:0:0:
448,192,99221,1,0,0:0:0:0:
64,192,99295,1,0,0:0:0:0:
320,192,99368,1,0,0:0:0:0:
64,192,99442,1,0,0:0:0:0:
320,192,99516,1,0,0:0:0:0:
192,192,99516,1,0,0:0:0:0:
64,192,99589,1,0,0:0:0:0:
320,192,99663,1,0,0:0:0:0:
64,192,99737,1,0,0:0:0:0:
448,192,99810,1,0,0:0:0:0:
320,192,99810,1,0,0:0:0:0:
192,192,99885,1,0,0:0:0:0:
448,192,99958,1,0,0:0:0:0:
192,192,100032,1,0,0:0:0:0:
448,192,100106,1,0,0:0:0:0:
64,192,100106,1,0,0:0:0:0:
192,192,100179,1,0,0:0:0:0:
448,192,100253,1,0,0:0:0:0:
192,192,100327,1,0,0:0:0:0:
448,192,100400,1,0,0:0:0:0:
320,192,100400,1,0,0:0:0:0:
192,192,100474,1,0,0:0:0:0:
448,192,100548,1,0,0:0:0:0:
192,192,100621,1,0,0:0:0:0:
448,192,100695,1,0,0:0:0:0:
64,192,100695,1,0,0:0:0:0:
192,192,100769,1,0,0:0:0:0:
448,192,100843,1,0,0:0:0:0:
192,192,100917,1,0,0:0:0:0:
64,192,100990,1,0,0:0:0:0:
320,192,100990,1,0,0:0:0:0:
448,192,100990,1,0,0:0:0:0:
64,192,101138,1,0,0:0:0:0:
192,192,101138,1,0,0:0:0:0:
320,192,101211,1,0,0:0:0:0:
448,192,101211,1,0,0:0:0:0:
192,192,101285,1,0,0:0:0:0:
64,192,101285,1,0,0:0:0:0:
320,192,101358,1,0,0:0:0:0:
448,192,101358,1,0,0:0:0:0:
192,192,101432,1,0,0:0:0:0:
64,192,101432,1,0,0:0:0:0:
320,192,101506,1,0,0:0:0:0:
448,192,101506,1,0,0:0:0:0:
192,192,101579,1,0,0:0:0:0:
64,192,101579,1,0,0:0:0:0:
320,192,101653,1,0,0:0:0:0:
448,192,101653,1,0,0:0:0:0:
192,192,101728,1,0,0:0:0:0:
64,192,101728,1,0,0:0:0:0:
320,192,101801,1,0,0:0:0:0:
64,192,101875,1,0,0:0:0:0:
192,192,101875,1,0,0:0:0:0:
448,192,101875,1,0,0:0:0:0:
64,192,102169,1,0,0:0:0:0:
448,192,102169,1,0,0:0:0:0:
320,192,102169,1,0,0:0:0:0:
192,192,102243,1,0,0:0:0:0:
64,192,102317,1,0,0:0:0:0:
448,192,102317,1,0,0:0:0:0:
320,192,102390,1,0,0:0:0:0:
192,192,102464,1,0,0:0:0:0:
64,192,102464,1,0,0:0:0:0:
448,192,102464,1,0,0:0:0:0:
320,192,102538,1,0,0:0:0:0:
192,192,102612,1,0,0:0:0:0:
64,192,102612,1,0,0:0:0:0:
320,192,102686,1,0,0:0:0:0:
448,192,102759,1,0,0:0:0:0:
192,192,102833,1,0,0:0:0:0:
64,192,102907,1,0,0:0:0:0:
448,192,102907,1,0,0:0:0:0:
320,192,102980,1,0,0:0:0:0:
64,192,103054,1,0,0:0:0:0:
192,192,103054,1,0,0:0:0:0:
448,192,103054,1,0,0:0:0:0:
320,192,103128,1,0,0:0:0:0:
64,192,103201,1,0,0:0:0:0:
192,192,103275,1,0,0:0:0:0:
320,192,103348,1,0,0:0:0:0:
448,192,103348,1,0,0:0:0:0:
64,192,103348,1,0,0:0:0:0:
192,192,103422,1,0,0:0:0:0:
320,192,103497,1,0,0:0:0:0:
448,192,103570,1,0,0:0:0:0:
320,192,103644,1,0,0:0:0:0:
192,192,103644,1,0,0:0:0:0:
64,192,103644,1,0,0:0:0:0:
448,192,103718,1,0,0:0:0:0:
192,192,103791,1,0,0:0:0:0:
64,192,103791,1,0,0:0:0:0:
320,192,103865,1,0,0:0:0:0:
448,192,103938,1,0,0:0:0:0:
192,192,104012,1,0,0:0:0:0:
448,192,104086,1,0,0:0:0:0:
64,192,104086,1,0,0:0:0:0:
320,192,104159,1,0,0:0:0:0:
192,192,104233,1,0,0:0:0:0:
448,192,104307,1,0,0:0:0:0:
192,192,104380,1,0,0:0:0:0:
320,192,104455,1,0,0:0:0:0:
448,192,104528,1,0,0:0:0:0:
192,192,104528,1,0,0:0:0:0:
64,192,104528,1,0,0:0:0:0:
320,192,104602,1,0,0:0:0:0:
448,192,104676,1,0,0:0:0:0:
64,192,104676,1,0,0:0:0:0:
192,192,104749,1,0,0:0:0:0:
320,192,104823,1,0,0:0:0:0:
448,192,104823,1,0,0:0:0:0:
64,192,104823,1,0,0:0:0:0:
192,192,104897,1,0,0:0:0:0:
320,192,104970,1,0,0:0:0:0:
448,192,104970,1,0,0:0:0:0:
64,192,105044,1,0,0:0:0:0:
192,192,105118,1,0,0:0:0:0:
448,192,105191,1,0,0:0:0:0:
320,192,105265,1,0,0:0:0:0:
64,192,105265,1,0,0:0:0:0:
192,192,105339,1,0,0:0:0:0:
64,192,105413,1,0,0:0:0:0:
320,192,105413,1,0,0:0:0:0:
448,192,105413,1,0,0:0:0:0:
192,192,105487,1,0,0:0:0:0:
448,192,105560,1,0,0:0:0:0:
320,192,105634,1,0,0:0:0:0:
192,192,105708,1,0,0:0:0:0:
64,192,105708,1,0,0:0:0:0:
448,192,105708,1,0,0:0:0:0:
320,192,105781,1,0,0:0:0:0:
64,192,105855,1,0,0:0:0:0:
192,192,105928,1,0,0:0:0:0:
448,192,106002,1,0,0:0:0:0:
192,192,106076,1,0,0:0:0:0:
64,192,106149,1,0,0:0:0:0:
320,192,106149,1,0,0:0:0:0:
448,192,106224,1,0,0:0:0:0:
64,192,106298,1,0,0:0:0:0:
192,192,106371,1,0,0:0:0:0:
448,192,106445,1,0,0:0:0:0:
192,192,106518,1,0,0:0:0:0:
320,192,106592,1,0,0:0:0:0:
448,192,106666,1,0,0:0:0:0:
192,192,106739,1,0,0:0:0:0:
320,192,106813,1,0,0:0:0:0:
192,192,106887,1,0,0:0:0:0:
64,192,106887,1,0,0:0:0:0:
448,192,106887,1,0,0:0:0:0:
320,192,106960,1,0,0:0:0:0:
448,192,107034,1,0,0:0:0:0:
64,192,107034,1,0,0:0:0:0:
192,192,107108,1,0,0:0:0:0:
448,192,107182,1,0,0:0:0:0:
320,192,107182,1,0,0:0:0:0:
64,192,107182,1,0,0:0:0:0:
192,192,107256,1,0,0:0:0:0:
320,192,107329,1,0,0:0:0:0:
448,192,107329,1,0,0:0:0:0:
64,192,107403,1,0,0:0:0:0:
320,192,107477,1,0,0:0:0:0:
192,192,107550,1,0,0:0:0:0:
64,192,107624,1,0,0:0:0:0:
448,192,107624,1,0,0:0:0:0:
320,192,107698,1,0,0:0:0:0:
192,192,107771,1,0,0:0:0:0:
64,192,107771,1,0,0:0:0:0:
448,192,107771,1,0,0:0:0:0:
320,192,107845,1,0,0:0:0:0:
192,192,107918,1,0,0:0:0:0:
448,192,107992,1,0,0:0:0:0:
64,192,108067,1,0,0:0:0:0:
320,192,108067,1,0,0:0:0:0:
192,192,108067,1,0,0:0:0:0:
448,192,108140,1,0,0:0:0:0:
64,192,108214,1,0,0:0:0:0:
192,192,108288,1,0,0:0:0:0:
320,192,108361,1,0,0:0:0:0:
448,192,108361,1,0,0:0:0:0:
64,192,108361,1,0,0:0:0:0:
192,192,108435,1,0,0:0:0:0:
448,192,108508,1,0,0:0:0:0:
320,192,108508,1,0,0:0:0:0:
64,192,108582,1,0,0:0:0:0:
448,192,108656,1,0,0:0:0:0:
320,192,108729,1,0,0:0:0:0:
192,192,108803,1,0,0:0:0:0:
64,192,108803,1,0,0:0:0:0:
320,192,108877,1,0,0:0:0:0:
64,192,108951,1,0,0:0:0:0:
448,192,109025,1,0,0:0:0:0:
192,192,109098,1,0,0:0:0:0:
320,192,109172,1,0,0:0:0:0:
192,192,109246,1,0,0:0:0:0:
64,192,109246,1,0,0:0:0:0:
448,192,109246,1,0,0:0:0:0:
320,192,109319,1,0,0:0:0:0:
64,192,109393,1,0,0:0:0:0:
320,192,109467,1,0,0:0:0:0:
192,192,109540,1,0,0:0:0:0:
64,192,109540,1,0,0:0:0:0:
320,192,109614,1,0,0:0:0:0:
64,192,109688,1,0,0:0:0:0:
320,192,109761,1,0,0:0:0:0:
192,192,109835,1,0,0:0:0:0:
64,192,109835,1,0,0:0:0:0:
448,192,109909,1,0,0:0:0:0:
192,192,109983,1,0,0:0:0:0:
448,192,110057,1,0,0:0:0:0:
192,192,110130,1,0,0:0:0:0:
64,192,110130,1,0,0:0:0:0:
448,192,110204,1,0,0:0:0:0:
192,192,110278,1,0,0:0:0:0:
448,192,110351,1,0,0:0:0:0:
192,192,110425,1,0,0:0:0:0:
64,192,110425,1,0,0:0:0:0:
320,192,110498,1,0,0:0:0:0:
192,192,110572,1,0,0:0:0:0:
320,192,110646,1,0,0:0:0:0:
192,192,110719,1,0,0:0:0:0:
64,192,110719,1,0,0:0:0:0:
320,192,110794,1,0,0:0:0:0:
448,192,110868,1,0,0:0:0:0:
64,192,110868,1,0,0:0:0:0:
192,192,110941,1,0,0:0:0:0:
320,192,111015,1,0,0:0:0:0:
192,192,111088,1,0,0:0:0:0:
64,192,111162,1,0,0:0:0:0:
448,192,111162,1,0,0:0:0:0:
320,192,111236,1,0,0:0:0:0:
192,192,111309,1,0,0:0:0:0:
64,192,111309,1,0,0:0:0:0:
320,192,111383,1,0,0:0:0:0:
192,192,111457,1,0,0:0:0:0:
320,192,111530,1,0,0:0:0:0:
192,192,111604,1,0,0:0:0:0:
64,192,111604,1,0,0:0:0:0:
448,192,111604,1,0,0:0:0:0:
320,192,111678,1,0,0:0:0:0:
448,192,111752,1,0,0:0:0:0:
64,192,111752,1,0,0:0:0:0:
192,192,111826,1,0,0:0:0:0:
64,192,111899,1,0,0:0:0:0:
320,192,111899,1,0,0:0:0:0:
448,192,111899,1,0,0:0:0:0:
192,192,111973,1,0,0:0:0:0:
320,192,112047,1,0,0:0:0:0:
448,192,112047,1,0,0:0:0:0:
64,192,112120,1,0,0:0:0:0:
448,192,112194,1,0,0:0:0:0:
320,192,112268,1,0,0:0:0:0:
192,192,112341,1,0,0:0:0:0:
64,192,112341,1,0,0:0:0:0:
320,192,112415,1,0,0:0:0:0:
448,192,112488,1,0,0:0:0:0:
192,192,112488,1,0,0:0:0:0:
64,192,112488,1,0,0:0:0:0:
320,192,112562,1,0,0:0:0:0:
448,192,112637,1,0,0:0:0:0:
192,192,112710,1,0,0:0:0:0:
320,192,112784,1,0,0:0:0:0:
64,192,112784,1,0,0:0:0:0:
448,192,112784,1,0,0:0:0:0:
192,192,112858,1,0,0:0:0:0:
320,192,112931,1,0,0:0:0:0:
64,192,113005,1,0,0:0:0:0:
320,192,113078,1,0,0:0:0:0:
448,192,113078,1,0,0:0:0:0:
192,192,113078,1,0,0:0:0:0:
64,192,113152,1,0,0:0:0:0:
448,192,113226,1,0,0:0:0:0:
192,192,113226,1,0,0:0:0:0:
320,192,113299,1,0,0:0:0:0:
64,192,113373,1,0,0:0:0:0:
320,192,113447,1,0,0:0:0:0:
192,192,113521,1,0,0:0:0:0:
64,192,113521,1,0,0:0:0:0:
448,192,113595,1,0,0:0:0:0:
192,192,113668,1,0,0:0:0:0:
448,192,113742,1,0,0:0:0:0:
192,192,113816,1,0,0:0:0:0:
320,192,113889,1,0,0:0:0:0:
192,192,113963,1,0,0:0:0:0:
64,192,113963,1,0,0:0:0:0:
448,192,113963,1,0,0:0:0:0:
320,192,114037,1,0,0:0:0:0:
448,192,114110,1,0,0:0:0:0:
64,192,114110,1,0,0:0:0:0:
192,192,114184,1,0,0:0:0:0:
320,192,114258,1,0,0:0:0:0:
448,192,114258,1,0,0:0:0:0:
64,192,114258,1,0,0:0:0:0:
192,192,114331,1,0,0:0:0:0:
320,192,114406,1,0,0:0:0:0:
448,192,114406,1,0,0:0:0:0:
64,192,114479,1,0,0:0:0:0:
448,192,114553,1,0,0:0:0:0:
320,192,114627,1,0,0:0:0:0:
192,192,114700,1,0,0:0:0:0:
64,192,114700,1,0,0:0:0:0:
320,192,114774,1,0,0:0:0:0:
448,192,114848,1,0,0:0:0:0:
192,192,114848,1,0,0:0:0:0:
64,192,114848,1,0,0:0:0:0:
320,192,114921,1,0,0:0:0:0:
448,192,114995,1,0,0:0:0:0:
192,192,115068,1,0,0:0:0:0:
320,192,115142,1,0,0:0:0:0:
64,192,115142,1,0,0:0:0:0:
448,192,115142,1,0,0:0:0:0:
192,192,115216,1,0,0:0:0:0:
320,192,115289,1,0,0:0:0:0:
64,192,115364,1,0,0:0:0:0:
320,192,115438,1,0,0:0:0:0:
192,192,115511,1,0,0:0:0:0:
448,192,115585,1,0,0:0:0:0:
64,192,115585,1,0,0:0:0:0:
320,192,115658,1,0,0:0:0:0:
64,192,115732,1,0,0:0:0:0:
192,192,115806,1,0,0:0:0:0:
448,192,115879,1,0,0:0:0:0:
192,192,115953,1,0,0:0:0:0:
320,192,116027,1,0,0:0:0:0:
448,192,116100,1,0,0:0:0:0:
64,192,116174,1,0,0:0:0:0:
192,192,116248,1,0,0:0:0:0:
64,192,116322,1,0,0:0:0:0:
448,192,116322,1,0,0:0:0:0:
320,192,116322,1,0,0:0:0:0:
192,192,116396,1,0,0:0:0:0:
64,192,116469,1,0,0:0:0:0:
448,192,116469,1,0,0:0:0:0:
320,192,116543,1,0,0:0:0:0:
192,192,116617,1,0,0:0:0:0:
64,192,116617,1,0,0:0:0:0:
448,192,116617,1,0,0:0:0:0:
320,192,116690,1,0,0:0:0:0:
192,192,116764,1,0,0:0:0:0:
64,192,116764,1,0,0:0:0:0:
448,192,116838,1,0,0:0:0:0:
64,192,116911,1,0,0:0:0:0:
192,192,116985,1,0,0:0:0:0:
320,192,117058,1,0,0:0:0:0:
448,192,117058,1,0,0:0:0:0:
192,192,117133,1,0,0:0:0:0:
64,192,117207,1,0,0:0:0:0:
320,192,117207,1,0,0:0:0:0:
448,192,117207,1,0,0:0:0:0:
192,192,117280,1,0,0:0:0:0:
64,192,117354,1,0,0:0:0:0:
320,192,117428,1,0,0:0:0:0:
64,192,117501,1,0,0:0:0:0:
192,192,117501,1,0,0:0:0:0:
448,192,117501,1,0,0:0:0:0:
320,192,117575,1,0,0:0:0:0:
448,192,117648,1,0,0:0:0:0:
192,192,117722,1,0,0:0:0:0:
64,192,117796,1,0,0:0:0:0:
320,192,117796,1,0,0:0:0:0:
448,192,117796,1,0,0:0:0:0:
192,192,117869,1,0,0:0:0:0:
64,192,117943,1,0,0:0:0:0:
320,192,117943,1,0,0:0:0:0:
448,192,118017,1,0,0:0:0:0:
192,192,118091,1,0,0:0:0:0:
448,192,118165,1,0,0:0:0:0:
320,192,118238,1,0,0:0:0:0:
64,192,118238,1,0,0:0:0:0:
192,192,118312,1,0,0:0:0:0:
448,192,118386,1,0,0:0:0:0:
192,192,118459,1,0,0:0:0:0:
448,192,118533,1,0,0:0:0:0:
64,192,118607,1,0,0:0:0:0:
320,192,118680,1,0,0:0:0:0:
448,192,118680,1,0,0:0:0:0:
192,192,118680,1,0,0:0:0:0:
64,192,118754,1,0,0:0:0:0:
320,192,118828,5,0,0:0:0:0:
64,192,118901,1,0,0:0:0:0:
320,192,118976,1,0,0:0:0:0:
448,192,118976,1,0,0:0:0:0:
64,192,119049,1,0,0:0:0:0:
320,192,119123,1,0,0:0:0:0:
64,192,119197,1,0,0:0:0:0:
448,192,119270,1,0,0:0:0:0:
320,192,119270,1,0,0:0:0:0:
192,192,119344,1,0,0:0:0:0:
448,192,119418,1,0,0:0:0:0:
192,192,119491,1,0,0:0:0:0:
320,192,119565,1,0,0:0:0:0:
448,192,119565,1,0,0:0:0:0:
192,192,119638,1,0,0:0:0:0:
448,192,119712,1,0,0:0:0:0:
192,192,119786,1,0,0:0:0:0:
64,192,119860,5,0,0:0:0:0:
320,192,119860,1,0,0:0:0:0:
448,192,119860,1,0,0:0:0:0:
64,192,120008,1,0,0:0:0:0:
192,192,120008,1,0,0:0:0:0:
320,192,120081,1,0,0:0:0:0:
192,192,120155,1,0,0:0:0:0:
448,192,120228,1,0,0:0:0:0:
64,192,120302,1,0,0:0:0:0:
320,192,120376,1,0,0:0:0:0:
192,192,120449,1,0,0:0:0:0:
448,192,120523,1,0,0:0:0:0:
64,192,120597,1,0,0:0:0:0:
448,192,120670,1,0,0:0:0:0:
64,192,120744,1,0,0:0:0:0:
320,192,120818,1,0,0:0:0:0:
192,192,120892,1,0,0:0:0:0:
320,192,120966,1,0,0:0:0:0:
448,192,121039,128,0,129885:0:0:0:0:
192,192,121039,1,0,0:0:0:0:
64,192,121039,128,0,130106:0:0:0:0:
192,192,129885,128,0,130106:0:0:0:0:
320,192,130106,128,0,130769:0:0:0:0:
448,192,130106,128,0,130769:0:0:0:0:
448,192,130843,1,0,0:0:0:0:
320,192,130843,1,0,0:0:0:0:
