osu file format v14

[General]
AudioFilename: audio.mp3
AudioLeadIn: 0
PreviewTime: 61248
Countdown: 0
SampleSet: Soft
StackLeniency: 0.7
Mode: 0
LetterboxInBreaks: 0
WidescreenStoryboard: 0

[Editor]
Bookmarks: 1769,14686,28436,61353,74686,88436,101769,128416,147999,161749,188416,201749,223416,236333,249666,265708
DistanceSpacing: 0.9
BeatDivisor: 4
GridSize: 4
TimelineZoom: 2.32

[Metadata]
Title:Seyana.
TitleUnicode:Seyana.
Artist:GYARI
ArtistUnicode:GYARI
Creator:TetMax
Version:Wakaru(Tenka-Musou)
Source:
Tags:ココアシガレットP cocoa cigarette P 何でも言うことを聞いてくれるアカネチャン Nandemo Iukoto Wo Kiite Kureru Akane-Chan VOICEROID 琴葉茜 Kotonoha Akane 結月ゆかり Yuzuki Yukari 琴葉葵 Aoi 弦巻マキ Tsurumaki Maki 東北きりたん Tohoku Kiritan Touhoku なきゃむりゃ Nakyamurya Japanese Novelty
BeatmapID:1654149
BeatmapSetID:788126

[Difficulty]
HPDrainRate:5.3
CircleSize:4
OverallDifficulty:8.8
ApproachRate:9.5
SliderMultiplier:3
SliderTickRate:2

[Events]
//Background and Video events
Video,608,"seyana_light.avi"
0,0,"akanechan_tenkamusou.jpg",0,0
//Break Periods
//Storyboard Layer 0 (Background)
//Storyboard Layer 1 (Fail)
//Storyboard Layer 2 (Pass)
//Storyboard Layer 3 (Foreground)
//Storyboard Layer 4 (Overlay)
//Storyboard Sound Samples

[TimingPoints]
83,416.666666666667,4,2,1,50,1,0
1541,-125,4,2,5,50,0,0
8416,-100,4,2,20,70,0,0
9978,-100,4,2,21,70,0,0
10812,-100,4,2,20,70,0,0
11645,-100,4,2,7,60,0,0
11958,-100,4,2,7,40,0,0
12374,-83.3333333333333,4,2,7,55,0,0
12791,-71.4285714285714,4,2,7,70,0,0
13416,-66.6666666666667,4,2,1,80,0,0
13624,-62.5,4,2,1,80,0,0
13833,-58.8235294117647,4,2,1,80,0,0
14249,-100,4,3,1,60,0,0
15083,-100,4,2,1,70,0,0
18312,-76.9230769230769,4,2,1,70,0,0
18624,-100,4,2,1,70,0,0
19249,-83.3333333333333,4,2,1,70,0,0
20291,-100,4,2,1,70,0,0
21645,-90.9090909090909,4,2,3,80,0,0
22478,-86.9565217391304,4,2,3,80,0,0
23312,-83.3333333333333,4,2,3,80,0,0
24145,-80,4,2,3,80,0,0
24978,-76.9230769230769,4,2,3,80,0,0
25812,-74.0740740740741,4,2,3,80,0,0
26749,-111.111111111111,4,2,1,50,0,0
28416,-100,4,2,2,55,0,0
36749,-76.9230769230769,4,2,2,55,0,0
37166,-58.8235294117647,4,2,2,55,0,0
37583,-83.3333333333333,4,2,2,55,0,0
38416,-100,4,2,2,55,0,0
41749,-90.9090909090909,4,2,1,60,0,0
53624,-83.3333333333333,4,2,7,65,0,0
55083,-76.9230769230769,4,2,20,70,0,0
55812,-90.9090909090909,4,2,20,70,0,0
56645,-71.4285714285714,4,2,20,70,0,0
57478,-83.3333333333333,4,2,21,70,0,0
58312,-100,4,2,7,70,0,0
59041,-100,4,2,7,50,0,0
59145,-100,4,2,7,60,0,0
59249,-100,4,2,7,70,0,0
60083,-100,4,2,7,80,0,0
60499,-100,4,2,1,30,0,0
61749,-100,4,2,1,60,0,0
72999,-100,4,2,1,70,0,0
73208,-100,4,2,1,75,0,0
73416,-71.4285714285714,4,2,1,80,0,0
75083,-83.3333333333333,4,2,1,80,0,1
80083,-71.4285714285714,4,2,1,80,0,1
80395,-62.5,4,2,1,80,0,1
80708,-83.3333333333333,4,2,1,80,0,1
86749,-66.6666666666667,4,2,1,80,0,1
87062,-55.5555555555556,4,2,1,80,0,1
87583,-100,4,2,1,70,0,1
88416,-100,4,2,10,70,0,0
94978,-90.9090909090909,4,2,1,80,0,0
95812,-86.9565217391304,4,2,3,80,0,0
96645,-83.3333333333333,4,2,3,80,0,0
97478,-80,4,2,3,80,0,0
98312,-76.9230769230769,4,2,1,80,0,0
99145,-74.0740740740741,4,2,3,80,0,0
100291,-83.3333333333333,4,2,15,60,0,0
101749,-100,4,2,15,50,0,0
115083,-90.9090909090909,4,2,1,60,0,0
126958,-83.3333333333333,4,2,1,60,0,0
128416,-76.9230769230769,4,2,20,70,0,0
129145,-90.9090909090909,4,2,20,70,0,0
129978,-71.4285714285714,4,2,20,70,0,0
130812,-83.3333333333333,4,2,21,70,0,0
131359,-83.3333333333333,4,2,21,70,0,0
131645,-100,4,2,7,70,0,0
132374,-100,4,2,7,50,0,0
132478,-100,4,2,7,60,0,0
132583,-100,4,2,7,70,0,0
133416,-100,4,2,7,80,0,0
133833,-100,4,2,1,30,0,0
135083,-100,4,2,10,60,0,0
145916,-83.3333333333333,4,2,1,60,0,0
146333,-83.3333333333333,4,2,1,70,0,0
146541,-83.3333333333333,4,2,1,75,0,0
146749,-71.4285714285714,4,2,1,80,0,0
148416,-83.3333333333333,4,2,1,80,0,1
153416,-71.4285714285714,4,2,1,80,0,1
153728,-62.5,4,2,1,80,0,1
154041,-83.3333333333333,4,2,1,80,0,1
160083,-66.6666666666667,4,2,1,80,0,1
160395,-55.5555555555556,4,2,1,80,0,1
160916,-100,4,2,1,70,0,1
161749,-100,4,2,10,70,0,0
174562,-100,4,3,1,70,0,0
175083,-100,4,2,10,70,0,0
186333,-100,4,3,1,70,0,0
186958,-76.9230769230769,4,2,10,70,0,0
188416,-100,4,2,2,55,0,0
195083,-100,4,2,15,55,0,0
195291,-100,4,2,2,55,0,0
200083,-100,4,2,1,55,0,0
201749,-90.9090909090909,4,2,1,60,0,0
201853,-90.9090909090909,4,2,2,60,0,0
207999,-90.9090909090909,4,2,1,60,0,0
208520,-90.9090909090909,4,2,2,60,0,0
213624,-83.3333333333333,4,2,2,65,0,0
214458,-83.3333333333333,4,2,1,65,0,0
215083,-76.9230769230769,4,2,20,70,0,0
215812,-90.9090909090909,4,2,20,70,0,0
216645,-71.4285714285714,4,2,20,70,0,0
217478,-83.3333333333333,4,2,21,70,0,0
218312,-71.4285714285714,4,2,20,70,0,0
219145,-62.5,4,2,20,70,0,0
219978,-100,4,2,7,70,0,0
220708,-100,4,2,7,50,0,0
220812,-100,4,2,7,60,0,0
220916,-100,4,2,7,70,0,0
221749,-100,4,2,7,80,0,0
222166,-100,4,2,1,30,0,0
223416,-100,4,2,1,60,0,0
234666,-100,4,2,1,70,0,0
234874,-100,4,2,1,75,0,0
235083,-71.4285714285714,4,2,1,80,0,0
236749,-83.3333333333333,4,2,4,80,0,1
241749,-71.4285714285714,4,2,1,80,0,1
242062,-62.5,4,2,1,80,0,1
242374,-83.3333333333333,4,2,1,80,0,1
243416,-83.3333333333333,4,2,4,80,0,1
248416,-66.6666666666667,4,2,1,80,0,1
248728,-55.5555555555556,4,2,1,80,0,1
249249,-83.3333333333333,4,2,1,80,0,1
250083,-76.9230769230769,4,2,4,80,0,1
254145,-76.9230769230769,4,2,2,80,0,1
254458,-76.9230769230769,4,2,1,80,0,1
255083,-66.6666666666667,4,2,1,80,0,1
255291,-58.8235294117647,4,2,1,80,0,1
255603,-52.6315789473684,4,2,1,80,0,1
255916,-62.5,4,2,1,80,0,1
256124,-76.9230769230769,4,2,1,80,0,1
256749,-76.9230769230769,4,2,4,80,0,1
260812,-76.9230769230769,4,2,2,80,0,1
261020,-76.9230769230769,4,2,1,80,0,1
261749,-66.6666666666667,4,2,1,80,0,1
262062,-58.8235294117647,4,2,1,80,0,1
262374,-62.5,4,2,1,80,0,1
262687,-55.5555555555556,4,2,1,80,0,1
262999,-71.4285714285714,4,2,1,80,0,1
263069,-71.4285714285714,4,2,1,40,0,1
263346,-71.4285714285714,4,2,1,60,0,1
263416,-71.4285714285714,4,2,1,80,0,1
263520,-62.5,4,2,1,80,0,1
263833,-55.5555555555556,4,2,1,80,0,1
264145,-58.8235294117647,4,2,1,80,0,1
264458,-52.6315789473684,4,2,1,80,0,1
265083,-83.3333333333333,4,2,21,80,0,0
265708,-100,4,2,1,20,0,0
266333,-83.3333333333333,4,2,1,70,0,0
266749,-100,4,2,10,70,0,0
273312,-90.9090909090909,4,2,10,80,0,0
274145,-86.9565217391304,4,2,10,80,0,0
274978,-83.3333333333333,4,2,10,80,0,0
275812,-80,4,2,10,80,0,0
276645,-76.9230769230769,4,2,10,80,0,0
277478,-74.0740740740741,4,2,10,80,0,0
278312,-111.111111111111,4,2,1,80,0,0

[Colours]
Combo1 : 223,140,255
Combo2 : 255,124,117
Combo3 : 130,170,255
Combo4 : 255,209,51

[HitObjects]
132,216,1541,6,0,L|64:208,2,60,0|0|8,0:0|0:0|0:0,0:0:0:0:
392,196,1958,1,0,0:0:0:0:
220,60,2166,2,0,L|220:184,1,120
292,344,2583,1,0,0:0:0:0:
480,100,2791,2,0,L|416:108,1,60
296,152,2999,1,0,0:0:0:0:
272,148,3069,1,0,0:0:0:0:
248,144,3138,1,0,0:0:0:0:
224,140,3208,2,0,L|160:128,1,60,2|0,0:0|0:0,0:0:0:0:
24,104,3416,5,8,0:0:0:0:
292,64,3624,1,0,0:0:0:0:
96,272,3833,2,0,B|76:224|76:224|88:144,1,120
348,112,4249,1,0,0:0:0:0:
304,328,4458,1,0,0:0:0:0:
8,196,4666,1,0,0:0:0:0:
152,212,4770,2,0,L|227:205,1,60,2|0,0:0|0:0,0:0:0:0:
468,112,5083,6,0,L|340:120,1,120,8|0,0:0|0:0,0:0:0:0:
76,132,5499,1,0,0:0:0:0:
372,356,5708,1,0,0:0:0:0:
384,240,5812,1,0,0:0:0:0:
280,292,5916,2,0,L|204:288,1,60
76,284,6124,1,0,0:0:0:0:
64,160,6228,1,0,0:0:0:0:
176,212,6332,2,0,L|252:208,1,60
384,188,6541,2,0,P|392:140|392:108,1,60,2|0,0:0|0:0,0:0:0:0:
252,36,6749,5,0,0:0:0:0:
241,57,6819,1,0,0:0:0:0:
235,80,6888,1,0,0:0:0:0:
231,103,6958,1,0,0:0:0:0:
231,126,7027,1,0,0:0:0:0:
234,149,7096,1,0,0:0:0:0:
241,172,7166,2,0,B|252:212|280:240|280:240|298:225|310:204,1,120,2|0,0:0|0:0,0:0:0:0:
340,129,7478,1,2,0:0:0:0:
147,148,7583,1,8,0:1:0:0:
355,348,7791,5,8,0:0:0:0:
436,30,7999,1,8,0:0:0:0:
432,44,8416,6,0,B|448:72|456:108|456:108|396:80|288:72,1,225,4|0,0:0|0:0,0:0:0:0:
184,80,8833,1,8,0:0:0:0:
252,188,8937,2,0,P|256:228|252:272,1,75,8|0,0:0|0:0,0:0:0:0:
100,340,9145,6,0,B|68:280|84:220|84:220|48:164|56:92|112:48,1,300,4|0,0:1|0:0,0:0:0:0:
196,148,9666,1,8,0:1:0:0:
312,96,9770,2,0,L|320:196,1,75,8|0,0:1|0:0,0:0:0:0:
360,284,9978,6,0,P|456:256|388:112,1,300,4|0,0:1|0:0,0:0:0:0:
240,148,10499,1,8,0:0:0:0:
388,200,10603,2,0,P|396:164|396:124,1,75,8|0,0:0|0:0,0:0:0:0:
232,48,10812,6,0,B|192:120|224:192|224:192|248:248|224:308|160:320|120:296,1,300,4|0,0:0|0:0,0:0:0:0:
32,284,11333,1,0,3:0:0:0:
48,152,11437,1,0,3:0:0:0:
156,232,11541,1,0,3:0:0:0:
300,184,11645,6,0,B|368:160|432:168|432:168|416:184,1,150,4|0,0:0|0:0,0:0:0:0:
336,248,11958,5,0,0:0:0:0:
324,256,12062,1,0,0:0:0:0:
312,264,12166,2,0,P|300:224|296:184,1,75,10|0,0:1|0:0,0:0:0:0:
216,268,12374,1,0,0:0:0:0:
200,284,12478,1,0,0:0:0:0:
184,300,12582,2,0,P|172:264|168:208,1,89.9999972534181,10|0,0:1|0:0,0:0:0:0:
88,300,12791,1,0,0:0:0:0:
64,328,12895,1,0,0:0:0:0:
40,356,12999,2,0,P|28:320|20:248,1,104.999996795654,10|0,0:1|0:0,0:0:0:0:
140,32,13208,2,0,P|152:68|160:140,1,104.999996795654
144,316,13416,6,0,B|188:336|188:336|292:312,1,112.500004291535,8|0,0:0|0:0,0:0:0:0:
432,236,13624,2,0,B|356:204|356:204|288:216,1,120,8|0,0:0|0:0,0:0:0:0:
104,252,13833,2,0,P|16:148|192:80,1,382.500007295609,8|0,0:0|0:0,0:0:0:0:
234,185,14249,5,8,0:0:0:0:
249,227,14353,1,8,0:0:0:0:
268,263,14458,1,8,0:0:0:0:
295,288,14562,1,8,0:0:0:0:
324,303,14666,1,0,0:0:0:0:
353,309,14770,1,0,0:0:0:0:
379,308,14874,1,0,0:0:0:0:
400,302,14978,1,0,0:0:0:0:
419,291,15083,6,0,P|431:239|431:209,1,75,4|0,0:0|0:0,0:0:0:0:
320,40,15291,2,0,P|308:92|308:122,1,75,8|0,0:0|0:0,0:0:0:0:
324,324,15499,2,0,B|272:344|272:344|164:328,1,150
56,272,15812,6,0,B|24:236|24:236|140:252,1,150
264,268,16124,1,8,0:0:0:0:
324,136,16228,1,2,0:0:0:0:
328,128,16333,2,0,L|168:144,1,150,2|0,0:0|0:0,0:0:0:0:
52,156,16645,1,0,0:0:0:0:
128,328,16749,6,0,L|144:248,1,75
100,32,16958,2,0,L|116:112,1,75,8|0,0:0|0:0,0:0:0:0:
232,240,17166,2,0,P|296:260|380:244,1,150
464,160,17478,6,0,B|448:140|428:124|428:124|380:144|320:148,1,150,8|0,0:0|0:0,0:0:0:0:
188,162,17791,1,8,0:0:0:0:
294,80,17895,1,2,0:0:0:0:
298,84,17999,2,0,P|328:154|309:233,1,150,2|0,0:0|0:0,0:0:0:0:
132,232,18312,6,0,B|80:185|112:116|112:116|100:72|124:39,1,194.999991073609
256,20,18624,2,0,L|312:28,2,50,8|0|0,0:0|0:0|0:0,0:0:0:0:
236,148,18833,2,0,L|184:164,2,50
280,272,19041,2,0,L|332:288,2,50
188,356,19249,6,0,P|108:376|24:324,1,179.999994506836,0|8,0:0|0:0,0:0:0:0:
0,204,19562,1,2,0:0:0:0:
120,260,19666,2,0,L|216:252,1,89.9999972534181
356,220,19874,6,0,B|388:128|356:44|332:88|320:116,1,179.999994506836,0|0,0:0|1:0,0:0:0:0:
224,336,20291,1,10,0:0:0:0:
68,124,20499,2,0,B|92:112|92:112|148:116,1,75,0|0,1:0|1:0,0:0:0:0:
244,216,20708,2,0,B|220:228|220:228|164:224,1,75,0|0,1:0|1:0,0:0:0:0:
16,212,20916,5,0,0:0:0:0:
356,152,21124,2,0,L|340:72,1,75,8|0,0:0|0:0,0:0:0:0:
240,208,21333,1,0,1:0:0:0:
180,72,21437,1,8,0:0:0:0:
92,192,21541,1,0,0:0:0:0:
24,64,21645,6,0,B|8:40|8:40|144:48,1,165.000005035401,4|0,0:1|0:0,0:0:0:0:
336,60,21958,2,0,P|344:100|340:148,1,82.5000025177003,10|0,0:0|0:0,0:0:0:0:
229,335,22166,2,0,B|192:273|217:199|217:199|252:213,1,165.000005035401
432,240,22478,6,0,P|440:200|432:148,1,86.2500016450882,2|0,0:0|0:0,0:0:0:0:
256,120,22687,1,2,0:0:0:0:
280,292,22791,1,8,0:0:0:0:
352,176,22895,1,2,0:0:0:0:
200,272,22999,2,0,B|164:288|164:288|188:144,1,172.500003290176,2|0,0:0|0:0,0:0:0:0:
232,64,23312,6,0,P|240:172|272:240,1,179.999994506836,2|0,0:0|0:0,0:0:0:0:
416,324,23624,1,8,0:0:0:0:
472,176,23728,2,0,B|488:124|488:124|420:148|420:148|368:140|368:140|328:148|328:148|276:140,1,269.999991760254,4|0,0:1|0:0,0:0:0:0:
120,116,24145,6,0,B|48:104|48:104|68:220,1,187.5,2|2,0:0|0:0,0:0:0:0:
100,356,24458,1,8,0:0:0:0:
160,200,24562,1,2,0:0:0:0:
224,348,24666,2,0,B|249:368|249:368|277:240|277:240|248:244,1,187.5,2|0,0:0|0:0,0:0:0:0:
4,256,24978,6,0,B|36:296|36:296|100:280|100:280|176:292,1,194.999991073609,2|0,0:0|0:0,0:0:0:0:
324,312,25291,2,0,P|412:180|240:120,1,389.999982147218,12|0,0:0|0:0,0:0:0:0:
196,212,25812,6,0,B|200:348|200:348|240:292,1,202.500000772476,0|2,0:0|0:0,0:0:0:0:
308,204,26124,1,8,0:0:0:0:
120,224,26228,1,2,0:0:0:0:
312,284,26333,1,2,0:0:0:0:
384,238,26437,1,8,0:0:0:0:
404,154,26541,1,8,0:0:0:0:
387,69,26645,1,8,0:0:0:0:
64,272,26958,5,0,0:0:0:0:
402,240,27166,1,0,0:0:0:0:
406,232,27270,2,0,L|414:159,1,67.4999979400635,8|0,0:1|0:0,0:0:0:0:
68,268,27583,5,0,0:0:0:0:
424,40,27791,1,0,0:0:0:0:
432,36,27895,2,0,B|440:80|440:80|432:112|432:112|440:152|440:152|436:184,1,134.999995880127
424,264,28208,1,8,3:0:0:0:
40,76,28416,5,4,0:1:0:0:
196,360,28624,1,0,0:0:0:0:
424,120,28833,1,8,0:0:0:0:
344,176,28937,1,0,0:0:0:0:
284,100,29041,2,0,L|272:16,1,75
72,164,29249,2,0,L|84:248,1,75,8|0,0:0|0:0,0:0:0:0:
316,352,29458,2,0,L|324:272,1,75
340,100,29666,1,8,0:0:0:0:
8,220,29874,1,0,0:0:0:0:
332,276,30083,6,0,L|408:264,1,75,8|0,0:0|0:0,0:0:0:0:
312,48,30291,2,0,L|288:128,1,75
232,272,30499,2,0,P|144:296|64:268,1,150,8|0,0:0|0:0,0:0:0:0:
36,56,30916,5,8,0:0:0:0:
56,360,31124,1,0,0:0:0:0:
360,128,31333,1,8,0:0:0:0:
72,288,31541,2,0,L|80:208,1,75
96,72,31749,5,8,0:0:0:0:
166,47,31853,1,0,0:0:0:0:
236,85,31958,1,0,0:0:0:0:
306,60,32062,1,0,0:0:0:0:
376,96,32166,2,0,B|384:148|384:148|376:188,1,75,8|0,0:0|0:0,0:0:0:0:
288,320,32374,2,0,L|276:236,1,75
248,16,32583,1,8,0:0:0:0:
136,352,32791,1,0,0:0:0:0:
454,176,32999,2,0,L|366:168,1,75,8|0,0:0|0:0,0:0:0:0:
76,240,33208,2,0,L|164:248,1,75
400,328,33416,6,0,L|384:172,1,150,8|0,0:0|0:0,0:0:0:0:
76,240,33833,2,0,L|92:84,1,150,8|0,0:0|0:0,0:0:0:0:
328,360,34249,5,8,0:0:0:0:
428,40,34458,1,0,0:0:0:0:
16,140,34666,1,8,0:0:0:0:
356,224,34874,2,0,L|436:220,1,75,2|0,0:0|0:0,0:0:0:0:
264,136,35083,6,0,P|232:232|252:288,1,150,8|0,0:0|0:0,0:0:0:0:
416,364,35499,1,8,0:0:0:0:
480,36,35708,1,0,0:0:0:0:
340,88,35812,1,0,0:0:0:0:
472,144,35916,2,0,P|476:180|468:228,1,75,8|0,0:0|0:0,0:0:0:0:
408,360,36124,1,0,0:0:0:0:
308,212,36228,1,0,0:0:0:0:
236,344,36333,2,0,P|172:352|140:348,1,75,8|0,0:0|0:0,0:0:0:0:
24,224,36541,2,0,P|88:216|120:220,1,75
260,268,36749,6,0,P|380:228|296:140,1,292.499986610413,8|0,0:0|0:0,0:0:0:0:
224,252,37166,6,0,P|396:236|272:128,1,382.500007295609,8|0,0:0|0:0,0:0:0:0:
164,180,37583,5,8,0:0:0:0:
308,212,37687,1,0,0:0:0:0:
160,184,37791,1,0,0:0:0:0:
196,332,37895,1,0,0:0:0:0:
236,184,37999,2,0,B|248:144|248:144|304:116|312:48|260:0|208:8|176:48,1,269.999991760254,8|0,0:0|0:0,0:0:0:0:
72,148,38416,6,0,P|108:156|160:156,1,75,8|0,0:0|0:0,0:0:0:0:
344,152,38624,1,0,0:0:0:0:
48,288,38833,1,8,0:0:0:0:
188,360,38937,2,0,P|200:288|200:264,1,75
188,100,39145,1,0,0:0:0:0:
72,192,39249,6,0,L|160:184,1,75,8|0,0:0|0:0,0:0:0:0:
296,172,39458,1,0,0:0:0:0:
200,280,39562,2,0,L|288:288,1,75,0|8,0:0|0:0,0:0:0:0:
428,296,39771,1,0,0:0:0:0:
280,368,39874,2,0,P|272:332|272:292,1,75
296,92,40083,5,8,0:0:0:0:
484,272,40291,1,4,0:0:0:0:
418,155,40395,1,0,0:0:0:0:
340,258,40499,1,0,0:0:0:0:
281,158,40603,1,0,0:0:0:0:
216,240,40708,2,0,P|176:248|140:240,1,75
40,168,40916,2,0,B|8:152|8:152|24:272,1,150
136,352,41333,5,8,0:0:0:0:
152,164,41437,1,8,0:0:0:0:
32,264,41541,2,0,L|124:260,1,75,0|0,3:0|0:0,0:0:0:0:
280,252,41749,6,0,P|292:216|292:160,1,82.5000025177003,4|0,0:0|0:0,0:0:0:0:
196,36,41958,2,0,P|184:72|184:128,1,82.5000025177003
228,348,42166,2,0,P|272:356|324:348,1,82.5000025177003,8|0,0:1|0:0,0:0:0:0:
424,208,42374,1,0,0:0:0:0:
272,252,42478,2,0,L|172:244,1,82.5000025177003
288,108,42687,1,0,0:0:0:0:
352,260,42791,2,0,P|352:316|348:348,1,82.5000025177003
192,124,42999,2,0,L|108:132,1,82.5000025177003,8|0,0:1|0:0,0:0:0:0:
400,200,43208,2,0,L|484:192,1,82.5000025177003,2|0,0:1|0:0,0:0:0:0:
240,292,43416,6,0,P|160:312|80:288,1,165.000005035401
0,184,43728,1,0,0:0:0:0:
164,152,43833,2,0,B|176:120|176:120|184:68,1,82.5000025177003,8|0,0:1|0:0,0:0:0:0:
316,196,44041,1,0,0:0:0:0:
260,68,44145,1,0,0:0:0:0:
164,224,44249,6,0,B|208:235|208:235|252:228,1,82.5000025177003
344,124,44458,1,0,0:0:0:0:
208,136,44562,1,0,0:0:0:0:
348,232,44666,2,0,P|356:192|356:148,1,82.5000025177003,8|0,0:1|0:0,0:0:0:0:
252,36,44874,2,0,P|244:76|244:120,1,82.5000025177003,2|0,0:1|0:0,0:0:0:0:
248,292,45083,6,0,B|192:304|192:304|152:300,1,82.5000025177003
24,276,45291,1,0,0:0:0:0:
184,228,45395,2,0,P|192:192|192:140,1,82.5000025177003,0|8,0:0|0:1,0:0:0:0:
64,32,45603,2,0,P|56:68|56:120,1,82.5000025177003
88,320,45812,1,0,0:0:0:0:
192,146,45916,6,0,B|144:136|144:136|108:148,1,82.5000025177003
20,276,46124,1,0,0:0:0:0:
148,224,46228,1,0,0:0:0:0:
268,288,46333,2,0,P|328:292|376:288,1,82.5000025177003,8|0,0:1|0:0,0:0:0:0:
488,248,46541,2,0,P|496:220|500:188,2,55.0000016784668
420,348,46749,6,0,P|376:356|324:356,1,82.5000025177003
96,184,46958,2,0,P|140:176|192:176,1,82.5000025177003
272,304,47166,1,8,0:1:0:0:
328,160,47270,1,0,0:0:0:0:
260,300,47374,1,0,0:0:0:0:
188,172,47478,1,0,0:0:0:0:
344,248,47583,6,0,P|388:252|432:244,1,82.5000025177003
388,84,47791,1,0,0:0:0:0:
288,192,47895,1,0,0:0:0:0:
196,76,47999,2,0,L|288:80,1,82.5000025177003,8|0,0:1|0:0,0:0:0:0:
336,256,48208,2,0,L|244:260,1,82.5000025177003,2|0,0:1|0:0,0:0:0:0:
40,280,48416,6,0,P|32:236|36:192,1,82.5000025177003
80,56,48624,1,0,0:0:0:0:
160,200,48728,2,0,B|204:208|204:208|256:192,1,82.5000025177003,0|8,0:0|0:1,0:0:0:0:
352,72,48937,1,0,0:0:0:0:
196,84,49041,1,0,0:0:0:0:
352,152,49145,2,0,P|360:244|344:320,1,165.000005035401
192,376,49458,2,0,P|184:320|184:276,1,82.5000025177003
184,136,49666,6,0,B|218:120|218:120|271:122,1,82.5000025177003,8|0,0:1|0:0,0:0:0:0:
412,132,49874,1,0,0:0:0:0:
288,284,49978,2,0,B|256:317|256:317|236:196,1,165.000005035401
340,44,50291,2,0,L|332:128,1,82.5000025177003
152,372,50499,2,0,L|160:288,1,82.5000025177003,8|0,0:1|0:0,0:0:0:0:
264,20,50708,2,0,L|256:104,1,82.5000025177003
240,256,50916,5,0,0:0:0:0:
128,136,51020,1,0,0:0:0:0:
159,289,51124,1,0,0:0:0:0:
284,192,51228,2,0,B|256:176|256:176|204:184,1,82.5000025177003,0|8,0:0|0:1,0:0:0:0:
88,200,51437,1,0,0:0:0:0:
236,252,51541,2,0,P|240:296|236:344,1,82.5000025177003
32,376,51749,6,0,B|16:336|16:336|24:300|24:300|12:264|12:264|20:236|20:236|8:200|8:200|24:132,1,247.500007553101
64,36,52166,2,0,L|148:24,1,82.5000025177003,8|0,0:1|0:0,0:0:0:0:
228,176,52374,2,0,L|144:164,1,82.5000025177003
336,32,52583,2,0,B|352:96|352:96|340:128|340:128|352:172|352:172|340:216|340:216|356:276|356:276|340:352,1,330.000010070801,0|8,0:0|0:1,0:0:0:0:
80,308,53208,6,0,P|72:268|76:220,1,82.5000025177003
144,48,53416,1,8,0:0:0:0:
424,216,53624,6,0,B|364:236|364:236|296:228|296:228|244:240,1,179.999994506836,2|0,0:1|0:0,0:0:0:0:
88,308,53937,2,0,B|148:328|148:328|216:320|216:320|268:332,1,179.999994506836,2|0,0:1|0:0,0:0:0:0:
476,360,54249,2,0,B|493:303|493:303|488:256|488:256|496:220|496:220|484:176,1,179.999994506836,8|0,0:0|0:0,0:0:0:0:
460,72,54562,1,0,3:0:0:0:
456,68,54666,1,0,3:0:0:0:
56,248,54874,1,0,3:0:0:0:
416,224,55083,5,4,0:0:0:0:
28,88,55291,1,0,0:0:0:0:
480,148,55499,1,8,0:0:0:0:
484,152,55603,2,0,P|488:204|480:260,1,97.4999955368044,8|0,0:0|0:0,0:0:0:0:
232,356,55812,6,0,B|184:288|220:180|220:180|184:104|235:33,1,330.000010070801,4|0,0:1|0:0,0:0:0:0:
396,260,56333,1,8,0:1:0:0:
444,112,56437,2,0,L|340:120,1,82.5000025177003,8|0,0:1|0:0,0:0:0:0:
220,184,56645,6,0,B|132:220|28:168|32:68|32:68|60:88|100:104,1,314.999990386963,4|0,0:0|0:0,0:0:0:0:
301,152,57166,1,8,0:0:0:0:
162,56,57270,2,0,B|146:94|146:94|151:158,1,104.999996795654,8|0,0:0|0:0,0:0:0:0:
271,58,57478,6,0,P|400:132|256:243,1,359.999989013672,2|0,0:0|0:0,0:0:0:0:
143,188,57999,1,8,0:0:0:0:
301,152,58103,2,0,P|306:203|296:245,1,89.9999972534181,8|0,0:0|0:0,0:0:0:0:
198,339,58312,6,0,B|164:350|128:344|128:344|140:188,1,225,4|0,0:0|0:0,0:0:0:0:
154,12,58833,1,8,0:0:0:0:
328,272,59041,5,8,0:0:0:0:
333,258,59110,1,8,0:0:0:0:
336,243,59180,1,8,0:0:0:0:
338,228,59249,1,8,0:0:0:0:
212,128,59458,1,8,0:0:0:0:
203,94,59527,1,8,0:0:0:0:
210,60,59596,1,8,0:0:0:0:
231,32,59666,1,0,3:0:0:0:
261,16,59735,1,0,3:0:0:0:
296,16,59805,1,0,3:0:0:0:
326,32,59874,2,0,L|336:86,1,50,0|0,3:0|0:0,0:0:0:0:
372,280,60083,1,4,0:0:0:0:
80,200,60708,6,0,L|88:120,1,75
360,216,60916,2,0,L|340:56,1,150
56,284,61333,1,0,0:0:0:0:
420,264,61541,1,0,0:0:0:0:
36,162,61749,6,0,B|84:166|84:166|132:160,1,75,4|0,0:0|0:0,0:0:0:0:
270,141,61958,1,0,0:0:0:0:
171,50,62062,1,0,0:0:0:0:
215,199,62166,2,0,B|217:241|217:241|205:279,1,75
108,360,62374,1,0,0:0:0:0:
40,260,62478,2,0,B|27:232|27:232|120:240|120:240|152:236,1,150
280,220,62791,1,0,0:0:0:0:
260,72,62895,1,0,0:0:0:0:
168,160,62999,2,0,L|252:156,1,75,8|0,0:0|0:0,0:0:0:0:
420,96,63208,2,0,L|336:100,1,75
112,112,63416,6,0,P|96:144|108:204,1,75,2|0,0:0|0:0,0:0:0:0:
164,340,63624,1,0,0:0:0:0:
272,224,63728,2,0,L|184:228,1,75
15,132,64041,1,8,0:1:0:0:
116,221,64145,2,0,B|164:235|164:235|272:230,1,150
419,225,64458,1,0,0:0:0:0:
72,324,64666,5,0,0:0:0:0:
124,36,64874,1,0,0:0:0:0:
292,296,65083,6,0,P|368:304|408:296,1,75,2|0,0:0|0:0,0:0:0:0:
468,184,65291,2,0,P|392:176|352:184,1,75
192,236,65499,2,0,P|184:200|188:156,1,75,8|0,0:0|0:0,0:0:0:0:
328,76,65708,1,0,0:0:0:0:
340,240,65812,2,0,B|288:260|288:260|188:240,1,150
24,144,66124,2,0,L|112:156,1,75
208,332,66333,2,0,L|200:252,1,75,2|0,0:0|0:0,0:0:0:0:
180,80,66541,1,0,0:0:0:0:
116,228,66645,1,8,0:0:0:0:
268,152,66749,6,0,L|184:156,1,75,4|0,0:1|0:0,0:0:0:0:
36,296,66958,2,0,L|120:300,1,75
260,344,67166,2,0,L|252:260,1,75
232,76,67374,1,0,0:0:0:0:
92,164,67478,2,0,P|68:92|80:16,1,150,8|0,0:1|0:0,0:0:0:0:
192,208,67791,2,0,P|232:212|272:208,1,75
416,104,67999,6,0,L|404:192,1,75
320,356,68208,2,0,L|308:268,1,75
268,24,68416,5,4,0:0:0:0:
176,332,68624,1,0,0:0:0:0:
424,136,68833,2,0,L|332:144,1,75
188,136,69041,1,0,0:0:0:0:
297,217,69145,2,0,P|309:313|289:389,1,150
92,377,69458,2,0,P|84:317|84:277,1,75,8|0,0:0|0:0,0:0:0:0:
110,94,69666,1,0,0:0:0:0:
201,208,69770,2,0,B|249:220|249:220|357:200,1,150,8|0,0:0|0:0,0:0:0:0:
488,96,70083,6,0,L|412:104,1,75,2|0,0:0|0:0,0:0:0:0:
184,135,70291,2,0,B|168:23|168:23|204:47,1,150
298,204,70707,1,0,0:0:0:0:
302,200,70812,2,0,B|318:88|318:88|282:112,1,150
141,225,71124,2,0,B|193:233|193:233|225:225,1,75
395,175,71333,5,0,0:0:0:0:
69,153,71541,1,0,0:0:0:0:
401,253,71749,6,0,P|405:213|397:173,1,75,4|0,0:0|0:0,0:0:0:0:
244,128,71958,1,0,0:0:0:0:
208,296,72062,1,0,0:0:0:0:
320,252,72166,2,0,L|400:256,1,75
468,128,72374,1,0,0:0:0:0:
328,180,72478,2,0,B|276:196|276:196|176:180,1,150
12,112,72791,5,8,0:0:0:0:
78,85,72895,1,8,0:0:0:0:
151,79,72999,1,0,0:0:0:0:
225,95,73103,1,8,0:0:0:0:
301,121,73208,1,8,0:0:0:0:
383,126,73312,1,8,0:0:0:0:
464,96,73416,6,0,B|487:73|491:39|491:39|451:16|320:44,1,209.999993591309,4|0,0:0|0:0,0:0:0:0:
168,132,73728,2,0,B|128:216|176:292|176:292|204:260,1,209.999993591309,4|0,0:0|0:0,0:0:0:0:
364,140,74041,2,0,B|448:208|408:324|408:324|352:360|352:360|300:332|240:340|240:340|176:372|176:372|80:340,1,524.999983978272,4|0,0:0|0:0,0:0:0:0:
8,308,74666,5,8,0:0:0:0:
336,264,74874,1,8,0:0:0:0:
32,128,75083,6,0,P|80:120|124:124,1,89.9999972534181,4|0,0:0|0:0,0:0:0:0:
284,316,75291,2,0,P|236:324|192:320,1,89.9999972534181
68,248,75499,1,2,0:3:0:0:
232,208,75603,2,0,B|248:172|248:172|244:116,1,89.9999972534181
132,20,75812,1,8,0:0:0:0:
64,164,75916,6,0,L|160:160,1,89.9999972534181,2|0,0:3|0:0,0:0:0:0:
332,108,76124,2,0,L|236:112,1,89.9999972534181
8,120,76333,1,2,0:3:0:0:
108,232,76437,2,0,B|148:244|148:244|204:228,1,89.9999972534181
356,184,76645,1,8,0:0:0:0:
248,284,76749,6,0,L|260:380,1,89.9999972534181,2|0,0:3|0:0,0:0:0:0:
448,376,76958,2,0,L|460:280,1,89.9999972534181
360,104,77166,1,2,0:3:0:0:
312,248,77270,2,0,P|348:256|404:248,1,89.9999972534181
480,124,77478,1,8,0:0:0:0:
276,168,77583,6,0,L|288:76,1,89.9999972534181,2|0,0:3|0:0,0:0:0:0:
479,248,77791,2,0,B|435:260|435:260|387:252,1,89.9999972534181
224,216,77999,5,2,0:3:0:0:
500,80,78208,1,0,0:0:0:0:
164,128,78416,6,0,P|160:72|168:32,1,89.9999972534181,2|0,0:3|0:0,0:0:0:0:
304,268,78624,2,0,P|308:324|300:364,1,89.9999972534181
120,232,78833,1,2,0:3:0:0:
252,172,78937,2,0,L|348:176,1,89.9999972534181
492,180,79145,1,8,0:0:0:0:
360,280,79249,6,0,P|344:244|336:184,1,89.9999972534181,2|0,0:3|0:0,0:0:0:0:
256,8,79458,2,0,L|244:108,1,89.9999972534181,8|0,0:0|0:0,0:0:0:0:
208,280,79666,1,0,3:0:0:0:
188,330,79770,1,0,3:0:0:0:
154,359,79874,1,0,3:0:0:0:
120,371,79978,1,0,3:0:0:0:
92,372,80083,6,0,P|48:264|72:168,1,209.999993591309,4|0,0:0|0:0,0:0:0:0:
260,248,80395,6,0,P|304:128|252:32,1,240,4|0,0:1|0:0,0:0:0:0:
132,144,80708,6,0,B|200:192|288:152|288:152|384:108|480:164,1,359.999989013672,4|0,0:0|0:0,0:0:0:0:
376,304,81333,5,8,3:0:0:0:
311,353,81437,1,0,3:0:0:0:
230,363,81541,1,0,3:0:0:0:
149,343,81645,1,0,3:0:0:0:
92,284,81749,6,0,P|84:232|88:192,1,89.9999972534181,4|0,0:1|0:0,0:0:0:0:
288,56,81958,2,0,P|296:108|292:148,1,89.9999972534181
240,280,82166,1,2,0:3:0:0:
128,136,82270,2,0,L|224:128,1,89.9999972534181
380,112,82478,1,8,0:0:0:0:
312,224,82583,6,0,L|216:216,1,89.9999972534181,2|0,0:3|0:0,0:0:0:0:
40,136,82791,2,0,L|136:128,1,89.9999972534181
288,112,82999,1,2,0:3:0:0:
140,200,83103,2,0,B|128:240|128:240|148:308,1,89.9999972534181
312,352,83312,1,8,0:0:0:0:
372,200,83416,6,0,L|276:204,1,89.9999972534181,2|0,0:3|0:0,0:0:0:0:
144,292,83624,2,0,L|240:296,1,89.9999972534181
408,304,83833,1,2,0:3:0:0:
272,208,83937,2,0,P|264:160|272:112,1,89.9999972534181
376,8,84145,1,8,0:0:0:0:
468,156,84249,6,0,L|368:164,1,89.9999972534181,2|0,0:3|0:0,0:0:0:0:
184,120,84458,2,0,L|284:112,1,89.9999972534181
500,96,84666,5,2,0:3:0:0:
72,52,84874,1,0,0:0:0:0:
396,108,85083,6,0,P|400:168|396:208,1,89.9999972534181,2|0,0:3|0:0,0:0:0:0:
216,352,85291,2,0,P|212:292|216:252,1,89.9999972534181
264,128,85499,1,2,0:3:0:0:
352,296,85603,2,0,P|404:304|456:288,1,89.9999972534181
492,136,85812,1,8,0:0:0:0:
260,228,85916,6,0,L|68:220,1,179.999994506836,2|0,0:3|0:0,0:0:0:0:
344,40,86333,2,0,B|368:92|368:92|352:220,1,179.999994506836,2|0,0:3|0:0,0:0:0:0:
332,336,86645,1,0,0:0:0:0:
232,252,86749,6,0,B|160:208|68:204|68:204|76:240|92:272,1,225.000008583069,4|0,0:0|0:0,0:0:0:0:
184,364,87062,5,4,0:0:0:0:
304,216,87166,2,0,P|324:156|316:84,1,134.999995880127
76,64,87374,6,0,P|56:124|64:196,1,134.999995880127,4|0,0:1|0:0,0:0:0:0:
152,320,87583,5,8,0:1:0:0:
187,338,87652,1,8,0:1:0:0:
225,347,87721,1,8,0:1:0:0:
265,348,87791,2,0,L|344:334,1,75,8|8,0:1|0:1,0:0:0:0:
447,284,87999,1,8,0:0:0:0:
469,220,88103,1,8,0:0:0:0:
468,152,88208,1,8,0:0:0:0:
442,90,88312,1,8,0:0:0:0:
400,37,88416,6,0,L|312:28,1,75,4|0,0:0|0:0,0:0:0:0:
128,80,88624,2,0,L|216:89,1,75,8|0,0:0|0:0,0:0:0:0:
344,116,88833,2,0,P|368:184|340:268,1,150,2|0,0:0|0:0,0:0:0:0:
228,336,89145,1,0,0:0:0:0:
152,200,89249,2,0,L|236:192,1,75,2|0,0:0|0:0,0:0:0:0:
340,276,89458,2,0,L|256:268,1,75,0|8,0:0|0:0,0:0:0:0:
80,200,89666,2,0,P|60:280|80:348,1,150,2|0,0:0|0:0,0:0:0:0:
356,356,90083,6,0,L|368:280,1,75,2|0,0:0|0:0,0:0:0:0:
296,112,90291,2,0,L|284:188,1,75,8|0,0:0|0:0,0:0:0:0:
244,328,90499,2,0,P|164:348|88:324,1,150,2|0,0:0|0:0,0:0:0:0:
20,196,90812,1,0,0:0:0:0:
164,212,90916,2,0,L|244:204,1,75,2|0,0:0|0:0,0:0:0:0:
372,192,91124,1,0,0:0:0:0:
276,104,91228,1,8,0:0:0:0:
436,60,91333,2,0,L|440:140,1,75,2|0,0:0|0:0,0:0:0:0:
368,340,91541,2,0,L|364:260,1,75
360,80,91749,6,0,P|316:72|276:72,1,75,4|0,0:1|0:0,0:0:0:0:
100,148,91958,2,0,P|144:156|184:156,1,75,8|0,0:0|0:0,0:0:0:0:
308,188,92166,2,0,P|324:272|308:344,1,150,2|0,0:0|0:0,0:0:0:0:
32,280,92583,2,0,L|116:272,1,75,2|0,0:0|0:0,0:0:0:0:
208,128,92791,1,0,0:0:0:0:
64,180,92895,1,8,0:0:0:0:
220,232,92999,2,0,P|228:272|220:320,1,75,2|0,0:0|0:0,0:0:0:0:
36,360,93208,2,0,P|28:320|36:272,1,75
96,104,93416,6,0,L|184:112,1,75,2|0,0:0|0:0,0:0:0:0:
348,208,93624,2,0,L|260:200,1,75,8|0,0:0|0:0,0:0:0:0:
108,184,93833,2,0,P|84:252|108:332,1,150,2|0,0:0|0:0,0:0:0:0:
236,364,94145,1,0,0:0:0:0:
320,264,94249,2,0,L|240:256,1,75,2|0,0:0|0:0,0:0:0:0:
180,148,94458,2,0,L|260:140,1,75,0|8,0:0|0:0,0:0:0:0:
400,80,94666,5,2,0:0:0:0:
392,160,94770,1,8,0:0:0:0:
384,240,94874,1,8,0:0:0:0:
376,320,94978,6,0,B|332:364|332:364|316:252,1,165.000005035401,4|0,0:0|0:0,0:0:0:0:
272,52,95291,2,0,L|260:136,1,82.5000025177003,4|0,0:1|0:0,0:0:0:0:
240,292,95499,2,0,P|128:320|84:288,1,165.000005035401,2|0,0:3|0:0,0:0:0:0:
24,172,95812,6,0,L|196:160,1,172.500003290176,2|2,0:0|0:0,0:0:0:0:
344,72,96124,2,0,L|252:68,1,86.2500016450882,2|0,0:0|0:0,0:0:0:0:
40,60,96333,2,0,P|16:164|40:240,1,172.500003290176,2|2,0:3|0:0,0:0:0:0:
268,356,96645,6,0,B|292:304|292:304|280:176,1,179.999994506836
200,44,96958,2,0,B|184:76|184:76|192:152,1,89.9999972534181,4|0,0:1|0:0,0:0:0:0:
412,212,97166,2,0,B|436:160|436:160|424:32,1,179.999994506836,2|0,0:3|0:0,0:0:0:0:
280,192,97478,6,0,B|208:224|208:224|96:212,1,187.5,2|2,0:0|0:0,0:0:0:0:
16,60,97791,1,0,0:0:0:0:
160,96,97895,1,2,0:0:0:0:
24,156,97999,2,0,B|4:208|4:208|24:340,1,187.5,2|0,0:3|0:0,0:0:0:0:
272,372,98312,6,0,P|320:272|296:184,1,194.999991073609
156,260,98624,2,0,P|92:68|232:56,1,389.999982147218,4|0,0:0|0:0,0:0:0:0:
328,136,99145,6,0,P|408:156|516:92,1,202.500000772476,2|0,0:0|0:0,0:0:0:0:
228,52,99458,1,8,0:0:0:0:
178,140,99562,1,8,0:0:0:0:
176,241,99666,1,8,0:0:0:0:
224,329,99770,2,0,B|268:340|268:340|332:324,1,101.250000386238,8|0,0:3|0:0,0:0:0:0:
500,276,99978,1,4,0:0:0:0:
504,284,100291,6,0,L|408:296,1,89.9999972534181
192,220,100499,2,0,L|288:208,1,89.9999972534181
476,184,100708,1,0,0:0:0:0:
488,176,100812,1,0,0:0:0:0:
500,168,100916,2,0,L|504:48,1,89.9999972534181
240,16,101124,2,0,L|236:136,1,89.9999972534181
364,360,101333,2,0,L|368:240,1,89.9999972534181
368,120,101541,1,0,0:0:0:0:
260,228,101645,1,0,0:0:0:0:
172,104,101749,6,0,P|124:100|88:104,1,75,4|0,0:0|0:0,0:0:0:0:
28,264,101958,2,0,P|76:268|112:264,1,75
264,156,102166,2,0,B|280:188|272:220|272:220|284:276|264:324,1,150
40,336,102583,6,0,P|20:252|40:188,1,150
172,260,102895,1,0,0:0:0:0:
284,172,102999,2,0,L|292:116,2,50
400,256,103208,2,0,P|480:264|504:256,1,75,2|0,0:0|0:0,0:0:0:0:
512,100,103416,6,0,L|428:112,1,75
244,136,103624,1,2,0:0:0:0:
312,20,103728,1,0,0:0:0:0:
376,148,103833,2,0,B|388:200|388:200|372:300,1,150
144,360,104249,6,0,B|128:292|128:292|140:240|140:240|128:188|128:188|144:132,1,225
176,52,104666,1,0,0:0:0:0:
184,44,104770,1,2,0:0:0:0:
192,36,104874,2,0,L|276:36,1,75,2|0,0:0|0:0,0:0:0:0:
392,40,105083,5,2,0:0:0:0:
434,101,105187,1,0,0:0:0:0:
448,174,105291,1,0,0:0:0:0:
433,247,105395,1,0,0:0:0:0:
387,306,105499,2,0,L|378:359,2,50
320,128,105812,6,0,B|280:128|240:148|240:148|200:136|176:104,1,150
92,12,106124,2,0,B|84:84|84:84|68:120,1,100
0,248,106333,2,0,L|88:240,1,75
288,216,106541,2,0,L|200:208,1,75
44,172,106749,6,0,P|0:96|112:32,1,225
188,104,107166,1,2,0:0:0:0:
308,52,107270,2,0,L|304:136,1,75,2|0,0:0|0:0,0:0:0:0:
296,288,107478,1,0,0:0:0:0:
256,192,107583,12,0,108208,0:0:0:0:
152,276,108416,6,0,P|256:300|304:280,1,150,2|0,0:0|0:0,0:0:0:0:
448,168,108833,1,0,0:0:0:0:
416,292,108937,1,0,0:0:0:0:
316,208,109041,2,0,P|304:168|316:104,1,100
360,40,109249,6,0,L|444:32,1,75
496,216,109458,1,0,0:0:0:0:
384,152,109562,1,0,0:0:0:0:
320,280,109666,1,0,0:0:0:0:
316,284,109770,1,0,0:0:0:0:
312,288,109874,2,0,P|244:312|168:288,1,150,2|0,0:0|0:0,0:0:0:0:
272,100,110291,6,0,B|232:92|232:92|192:104,1,75,2|0,0:0|0:0,0:0:0:0:
40,232,110499,1,0,0:0:0:0:
96,336,110603,1,0,0:0:0:0:
176,244,110708,2,0,P|220:240|264:240,1,75
380,352,110916,6,0,P|336:356|292:356,1,75
176,328,111124,1,0,0:0:0:0:
324,264,111228,2,0,P|340:192|324:104,1,150,0|2,0:0|0:0,0:0:0:0:
248,16,111541,2,0,P|244:60|236:96,1,75,2|0,0:0|0:0,0:0:0:0:
172,192,111749,6,0,L|256:188,1,75,2|0,0:0|0:0,0:0:0:0:
416,180,111958,1,0,0:0:0:0:
316,280,112062,2,0,P|240:300|164:284,1,150
60,220,112374,2,0,B|56:180|56:180|68:140,1,75
180,24,112583,5,0,0:0:0:0:
112,348,112791,1,0,0:0:0:0:
260,72,112999,1,0,0:0:0:0:
264,68,113103,2,0,L|260:152,1,75
252,308,113312,1,0,0:0:0:0:
176,184,113416,6,0,P|128:176|92:176,1,75,2|0,0:0|0:0,0:0:0:0:
0,288,113624,2,0,P|48:296|84:296,1,75,8|0,0:0|0:0,0:0:0:0:
292,276,113833,2,0,P|324:204|308:124,1,150,0|0,3:0|3:0,0:0:0:0:
232,16,114145,1,8,0:0:0:0:
140,116,114249,6,0,L|48:112,1,75,0|0,3:0|3:0,0:0:0:0:
148,240,114458,1,8,3:0:0:0:
227,218,114562,1,8,3:0:0:0:
273,149,114666,1,8,3:0:0:0:
266,66,114770,2,0,P|250:32|221:0,1,75,0|0,3:0|3:0,0:0:0:0:
56,112,114978,1,8,0:0:0:0:
184,152,115083,6,0,L|280:148,1,82.5000025177003,4|0,0:0|0:0,0:0:0:0:
416,140,115291,1,2,0:0:0:0:
380,280,115395,1,2,0:0:0:0:
248,220,115499,1,0,0:0:0:0:
244,216,115603,2,0,B|236:260|236:260|248:300,1,82.5000025177003,0|2,0:0|0:0,0:0:0:0:
372,360,115812,1,0,0:0:0:0:
456,236,115916,5,0,0:0:0:0:
460,232,116020,2,0,L|368:240,1,82.5000025177003,0|2,0:0|0:0,0:0:0:0:
248,304,116228,2,0,L|72:288,1,165.000005035401,2|0,0:0|0:0,0:0:0:0:
232,124,116541,2,0,P|244:164|244:208,1,82.5000025177003,2|2,0:0|0:0,0:0:0:0:
8,316,116749,6,0,L|20:228,1,82.5000025177003
104,60,116958,2,0,B|112:168|112:168|144:220,1,165.000005035401,2|0,0:0|0:0,0:0:0:0:
296,252,117270,1,0,0:0:0:0:
180,328,117374,6,0,L|8:316,1,165.000005035401,2|0,0:0|0:0,0:0:0:0:
332,360,117791,2,0,P|340:304|340:272,1,82.5000025177003,2|2,0:0|0:0,0:0:0:0:
168,52,117999,2,0,P|160:108|160:140,1,82.5000025177003
440,236,118208,2,0,P|448:180|448:148,1,82.5000025177003,2|2,0:0|0:0,0:0:0:0:
200,216,118416,6,0,P|152:220|104:212,1,82.5000025177003
296,40,118624,2,0,B|316:104|316:104|304:148|304:148|320:200|320:200|300:284,1,247.500007553101,2|0,0:0|0:0,0:0:0:0:
264,368,119041,1,2,0:0:0:0:
256,372,119145,2,0,L|84:356,1,165.000005035401,2|0,0:0|0:0,0:0:0:0:
308,284,119458,1,2,0:0:0:0:
315,288,119562,2,0,L|408:279,1,82.5000025177003,2|0,0:0|0:0,0:0:0:0:
512,232,119770,2,0,L|340:216,1,165.000005035401,8|0,0:0|0:0,0:0:0:0:
216,204,120083,6,0,P|180:284|208:360,1,165.000005035401,0|10,0:0|0:0,0:0:0:0:
364,372,120395,2,0,B|380:312|380:312|368:268|368:268|404:192|360:124,1,247.500007553101,2|2,0:0|0:0,0:0:0:0:
96,44,120916,6,0,L|104:132,1,82.5000025177003
172,352,121124,2,0,L|180:264,1,82.5000025177003
269,65,121333,6,0,B|287:108|287:108|282:160,1,82.5000025177003,4|0,0:1|0:0,0:0:0:0:
261,299,121541,1,4,0:1:0:0:
183,163,121645,1,0,0:0:0:0:
175,158,121749,6,0,P|128:146|79:146,1,82.5000025177003,4|0,0:0|0:0,0:0:0:0:
6,252,121958,2,0,P|19:297|43:339,1,82.5000025177003,2|0,0:0|0:0,0:0:0:0:
172,352,122166,1,0,0:0:0:0:
364,64,122374,2,0,B|300:48|300:48|256:56|256:56|208:44|208:44|116:64,1,247.500007553101,10|0,0:0|0:0,0:0:0:0:
8,176,122791,2,0,B|56:188|56:188|100:180,1,82.5000025177003,2|2,0:0|0:0,0:0:0:0:
168,160,122999,1,0,0:0:0:0:
248,180,123103,1,0,0:0:0:0:
328,156,123208,1,2,0:0:0:0:
408,176,123312,6,0,P|440:252|408:336,1,165.000005035401,2|0,0:0|0:0,0:0:0:0:
224,260,123624,2,0,L|316:252,1,82.5000025177003
144,152,123833,1,8,0:0:0:0:
88,223,123937,1,0,0:0:0:0:
97,313,124041,1,2,0:0:0:0:
167,369,124145,1,2,0:0:0:0:
257,369,124249,6,0,L|271:285,1,82.5000025177003,2|0,0:0|0:0,0:0:0:0:
255,15,124458,2,0,L|241:99,1,82.5000025177003,2|2,0:0|0:0,0:0:0:0:
79,193,124666,2,0,L|163:207,1,82.5000025177003,8|0,0:0|0:0,0:0:0:0:
433,191,124874,6,0,B|360:176|360:176|316:184|316:184|260:172|260:172|212:124|212:56|252:20,1,330.000010070801,2|2,0:0|0:0,0:0:0:0:
436,80,125499,6,0,L|336:88,1,82.5000025177003,8|0,0:0|0:0,0:0:0:0:
112,240,125708,2,0,L|212:232,1,82.5000025177003,2|0,0:0|0:0,0:0:0:0:
400,312,125916,2,0,P|420:228|396:148,1,165.000005035401,2|2,0:0|0:0,0:0:0:0:
104,220,126333,2,0,L|116:128,1,82.5000025177003
264,32,126541,1,8,0:1:0:0:
283,111,126645,1,8,0:1:0:0:
277,193,126749,1,8,0:1:0:0:
72,344,126958,6,0,L|256:328,1,179.999994506836,2|0,0:0|0:0,0:0:0:0:
444,308,127270,2,0,L|260:292,1,179.999994506836,2|0,0:0|0:0,0:0:0:0:
52,276,127583,1,2,0:0:0:0:
416,20,127999,6,0,B|430:73|430:73|419:112|419:112|435:160|435:160|423:208|423:208|439:252|439:252|431:292,1,269.999991760254
408,364,128416,6,0,L|304:356,1,97.4999955368044,4|0,0:0|0:0,0:0:0:0:
176,176,128624,2,0,L|273:168,1,97.4999955368044
80,336,128833,1,8,0:1:0:0:
37,259,128937,1,8,0:1:0:0:
34,171,129041,1,0,0:0:0:0:
68,84,129145,6,0,B|200:57|200:57|186:96,1,165.000005035401,4|0,0:1|0:0,0:0:0:0:
116,224,129458,2,0,L|128:312,1,82.5000025177003
316,168,129666,1,8,0:0:0:0:
296,324,129770,1,8,0:0:0:0:
200,216,129874,1,0,0:0:0:0:
368,228,129978,6,0,B|448:232|508:188|508:188|476:176|448:160,1,209.999993591309,4|0,0:0|0:0,0:0:0:0:
316,44,130291,2,0,P|308:120|296:156,1,104.999996795654
224,296,130499,1,8,0:0:0:0:
128,164,130603,2,0,B|116:144|116:144|204:148,1,104.999996795654,8|0,0:0|0:0,0:0:0:0:
376,156,130812,6,0,P|432:104|424:4,1,179.999994506836,2|0,0:0|0:0,0:0:0:0:
172,52,131124,2,0,L|188:148,1,89.9999972534181
220,280,131333,1,8,0:0:0:0:
284,168,131437,1,8,0:0:0:0:
124,200,131541,1,0,0:0:0:0:
292,260,131645,6,0,B|352:264|408:248|408:248|388:280,1,150,4|0,0:0|0:0,0:0:0:0:
212,376,131958,2,0,P|200:332|196:280,1,75
204,168,132166,1,8,0:0:0:0:
420,224,132374,5,8,0:0:0:0:
439,229,132444,1,8,0:0:0:0:
458,232,132513,1,8,0:0:0:0:
478,233,132583,1,8,0:0:0:0:
222,296,132791,1,8,0:0:0:0:
189,296,132861,1,8,0:0:0:0:
155,288,132930,1,8,0:0:0:0:
123,266,133000,1,0,3:0:0:0:
102,232,133069,1,0,3:0:0:0:
93,189,133139,1,0,3:0:0:0:
100,144,133208,2,0,L|164:148,1,50,0|0,3:0|0:0,0:0:0:0:
401,162,133416,1,4,0:0:0:0:
120,240,134041,6,0,L|136:160,1,75
432,224,134249,2,0,L|408:68,1,150
100,320,134666,1,0,0:0:0:0:
160,48,134874,1,0,0:0:0:0:
344,268,135083,6,0,P|288:276|256:276,1,75,4|0,0:0|0:0,0:0:0:0:
84,248,135291,1,2,0:0:0:0:
288,204,135395,1,8,0:0:0:0:
148,292,135499,2,0,L|156:368,1,75,2|0,0:0|0:0,0:0:0:0:
352,268,135708,2,0,L|344:344,1,75
140,196,135916,2,0,L|220:200,1,75,2|0,0:0|0:0,0:0:0:0:
400,208,136124,1,0,0:0:0:0:
228,280,136228,2,0,P|232:320|244:360,1,75,8|0,0:3|0:0,0:0:0:0:
408,284,136437,1,0,0:0:0:0:
304,144,136541,2,0,P|288:180|284:224,1,75,2|0,0:0|0:0,0:0:0:0:
244,360,136749,6,0,P|288:358|318:346,1,75
448,192,136958,1,2,0:0:0:0:
432,372,137062,1,8,0:0:0:0:
356,208,137166,2,0,L|368:128,1,75,2|0,0:0|0:0,0:0:0:0:
232,284,137374,2,0,L|244:364,1,75
280,128,137583,2,0,P|204:104|128:128,1,150,2|0,0:0|0:0,0:0:0:0:
56,228,137895,1,8,0:3:0:0:
200,328,137999,6,0,L|204:240,1,75
72,64,138208,2,0,L|76:152,1,75,2|0,0:0|0:0,0:0:0:0:
88,332,138416,6,0,P|132:340|172:336,1,75
300,248,138624,1,2,0:0:0:0:
136,196,138728,1,8,0:0:0:0:
288,116,138833,2,0,B|348:104|348:104|440:120,1,150,2|0,0:0|0:0,0:0:0:0:
496,240,139145,1,0,0:0:0:0:
344,184,139249,2,0,B|324:244|324:244|340:332,1,150,2|0,0:0|0:0,0:0:0:0:
488,336,139562,2,0,B|428:316|428:316|340:332,1,150,8|0,0:3|0:0,0:0:0:0:
204,368,139874,2,0,L|124:360,1,75,8|0,0:3|0:0,0:0:0:0:
8,228,140083,6,0,L|88:236,1,75
228,252,140291,1,2,0:0:0:0:
44,312,140395,1,8,0:0:0:0:
172,192,140499,2,0,P|180:156|180:112,1,75,2|0,0:0|0:0,0:0:0:0:
40,40,140708,2,0,P|40:84|48:120,1,75
112,304,140916,2,0,B|164:320|164:320|264:300,1,150,2|0,0:0|0:0,0:0:0:0:
416,212,141228,6,0,B|364:196|364:196|264:216,1,150,8|0,0:3|0:0,0:0:0:0:
52,268,141541,2,0,L|64:192,1,75,2|0,0:0|0:0,0:0:0:0:
164,24,141749,6,0,L|176:100,1,75,4|0,0:0|0:0,0:0:0:0:
212,264,141958,1,2,0:0:0:0:
284,100,142062,1,8,0:0:0:0:
140,192,142166,2,0,P|100:196|60:192,1,75,2|0,0:0|0:0,0:0:0:0:
320,172,142374,2,0,P|360:168|400:172,1,75
224,268,142583,2,0,P|220:308|224:348,1,75,2|0,0:0|0:0,0:0:0:0:
360,308,142791,1,0,0:0:0:0:
472,168,142895,2,0,L|388:176,1,75,8|0,0:3|0:0,0:0:0:0:
268,216,143103,1,0,0:0:0:0:
156,76,143208,2,0,L|240:84,1,75,2|0,0:0|0:0,0:0:0:0:
488,156,143416,6,0,B|368:168|368:168|328:164,1,150,0|2,0:0|0:0,0:0:0:0:
208,152,143728,1,8,0:0:0:0:
360,20,143833,2,0,L|368:96,1,75,2|0,0:0|0:0,0:0:0:0:
316,316,144041,2,0,L|308:240,1,75
276,76,144249,2,0,P|208:44|120:68,1,150,2|0,0:0|0:0,0:0:0:0:
28,152,144562,1,8,0:3:0:0:
184,244,144666,6,0,L|192:164,1,75
24,308,144874,2,0,L|32:388,1,75,2|0,0:0|0:0,0:0:0:0:
204,348,145083,6,0,P|248:352|284:344,1,75,4|0,0:0|0:0,0:0:0:0:
408,204,145291,1,2,0:0:0:0:
392,356,145395,1,0,0:0:0:0:
280,224,145499,2,0,P|332:88|416:76,1,225,2|0,0:0|0:0,0:0:0:0:
512,172,145916,6,0,B|492:200|456:208|456:208|416:200|416:200|380:212|380:212|336:208,1,179.999994506836,2|0,0:3|3:0,0:0:0:0:
204,200,146228,1,8,0:0:0:0:
308,336,146333,1,8,0:0:0:0:
368,269,146437,1,8,0:0:0:0:
385,180,146541,1,8,0:0:0:0:
364,92,146645,1,8,0:0:0:0:
298,24,146749,6,0,B|136:12|136:12|156:64,1,209.999993591309,4|0,0:0|0:0,0:0:0:0:
208,220,147062,2,0,P|168:332|80:320,1,209.999993591309,4|0,0:1|0:0,0:0:0:0:
0,196,147374,2,0,B|36:84|176:136|176:136|372:212|440:184|476:108,1,524.999983978272,4|8,0:0|0:0,0:0:0:0:
496,20,147999,5,8,0:0:0:0:
456,352,148208,1,8,0:0:0:0:
372,48,148416,6,0,P|324:40|272:40,1,89.9999972534181,4|0,0:0|0:0,0:0:0:0:
104,196,148624,2,0,P|152:204|204:204,1,89.9999972534181
384,184,148833,1,2,0:3:0:0:
252,276,148937,2,0,P|252:320|268:364,1,89.9999972534181
412,288,149145,1,8,0:0:0:0:
188,352,149249,6,0,L|92:344,1,89.9999972534181,2|0,0:3|0:0,0:0:0:0:
288,176,149458,2,0,L|384:184,1,89.9999972534181
300,360,149666,1,2,0:3:0:0:
200,204,149770,2,0,L|208:108,1,89.9999972534181
340,264,149978,1,8,0:0:0:0:
440,92,150083,6,0,L|344:100,1,89.9999972534181,2|0,0:3|0:0,0:0:0:0:
104,192,150291,2,0,L|200:200,1,89.9999972534181
400,188,150499,1,2,0:3:0:0:
228,140,150603,2,0,P|220:96|232:44,1,89.9999972534181
408,92,150812,1,8,0:0:0:0:
288,212,150916,6,0,L|192:204,1,89.9999972534181,2|0,0:3|0:0,0:0:0:0:
416,88,151124,2,0,L|512:96,1,89.9999972534181
368,340,151333,5,2,0:3:0:0:
244,24,151541,1,0,0:0:0:0:
116,276,151749,6,0,P|116:344|124:380,1,89.9999972534181,2|0,0:3|0:0,0:0:0:0:
356,208,151958,2,0,P|356:140|348:104,1,89.9999972534181
152,176,152166,1,2,0:3:0:0:
316,284,152270,2,0,B|356:292|356:292|412:276,1,89.9999972534181
344,112,152478,1,8,0:0:0:0:
224,272,152583,6,0,L|236:364,1,89.9999972534181,2|0,0:3|0:0,0:0:0:0:
272,100,152791,2,0,L|260:8,1,89.9999972534181,8|0,0:1|0:0,0:0:0:0:
100,228,152999,1,2,3:0:0:0:
150,302,153103,1,0,3:0:0:0:
235,332,153208,1,0,3:0:0:0:
323,319,153312,1,0,3:0:0:0:
391,261,153416,6,0,B|410:216|410:216|401:169|401:169|416:109|393:55,1,209.999993591309,4|0,0:0|0:0,0:0:0:0:
252,204,153728,6,0,P|131:195|83:93,1,240,4|0,0:1|0:0,0:0:0:0:
233,119,154041,6,0,B|416:142|489:35|489:35|512:124|487:200,1,449.99998626709,4|0,0:0|0:0,0:0:0:0:
431,292,154666,5,0,3:0:0:0:
354,339,154770,1,0,3:0:0:0:
265,354,154874,1,0,3:0:0:0:
175,343,154978,1,0,3:0:0:0:
94,301,155083,6,0,P|80:268|72:208,1,89.9999972534181,4|0,0:1|0:0,0:0:0:0:
212,24,155291,2,0,P|226:57|234:117,1,89.9999972534181
216,276,155499,1,2,0:3:0:0:
132,148,155603,2,0,B|96:128|96:128|44:128,1,89.9999972534181
16,308,155812,1,8,0:0:0:0:
208,192,155916,6,0,B|216:152|216:152|204:100,1,89.9999972534181,2|0,0:3|0:0,0:0:0:0:
52,244,156124,2,0,L|150:246,1,89.9999972534181
296,248,156333,1,2,0:3:0:0:
136,148,156437,2,0,B|124:100|124:100|136:48,1,89.9999972534181
308,20,156645,1,8,0:0:0:0:
412,116,156749,6,0,L|400:216,1,89.9999972534181,2|0,0:3|0:0,0:0:0:0:
212,268,156958,2,0,L|224:368,1,89.9999972534181
424,312,157166,1,2,0:3:0:0:
268,192,157270,2,0,P|224:176|176:188,1,89.9999972534181
20,260,157478,1,8,0:0:0:0:
200,352,157583,6,0,B|221:314|221:314|217:262,1,89.9999972534181,2|0,0:3|0:0,0:0:0:0:
116,81,157791,2,0,B|94:118|94:118|98:170,1,89.9999972534181
124,360,157999,5,2,0:3:0:0:
432,200,158208,1,0,0:0:0:0:
100,268,158416,6,0,L|8:260,1,89.9999972534181,2|0,0:3|0:0,0:0:0:0:
272,156,158624,2,0,L|364:164,1,89.9999972534181
248,348,158833,1,2,0:3:0:0:
152,196,158937,2,0,B|144:148|144:148|156:100,1,89.9999972534181
368,160,159145,1,8,0:0:0:0:
292,312,159249,6,0,L|384:304,1,89.9999972534181,2|0,0:3|0:0,0:0:0:0:
492,96,159458,2,0,L|400:88,1,89.9999972534181
228,180,159666,2,0,P|136:204|52:176,1,179.999994506836,2|0,0:3|0:0,0:0:0:0:
20,68,159978,1,0,0:0:0:0:
136,16,160083,6,0,B|152:64|152:64|136:120|136:120|120:180|156:232,1,225.000008583069,4|0,0:0|0:0,0:0:0:0:
272,312,160395,5,4,0:0:0:0:
388,192,160499,2,0,P|340:160|260:156,1,134.999995880127,2|0,0:3|0:0,0:0:0:0:
56,320,160708,6,0,P|104:352|184:356,1,134.999995880127,4|0,0:1|0:0,0:0:0:0:
420,308,160916,5,8,0:1:0:0:
442,269,160985,1,8,0:1:0:0:
454,225,161055,1,8,0:1:0:0:
458,180,161124,2,0,L|449:103,1,75,8|8,0:1|0:1,0:0:0:0:
280,24,161333,1,8,0:0:0:0:
260,104,161437,1,8,0:0:0:0:
240,184,161541,1,8,0:0:0:0:
220,264,161645,1,8,0:0:0:0:
200,344,161749,6,0,L|123:360,1,75,4|0,0:0|0:0,0:0:0:0:
4,272,161958,2,0,L|81:256,1,75,8|0,0:0|0:0,0:0:0:0:
304,208,162166,2,0,B|328:260|328:260|304:352,1,150,2|0,0:0|0:0,0:0:0:0:
120,184,162478,5,4,0:1:0:0:
152,340,162583,2,0,B|168:372|168:372|200:256,1,150
244,112,162895,2,0,P|224:40|152:4,1,150,2|0,0:0|0:0,0:0:0:0:
52,120,163208,2,0,L|140:112,1,75,2|0,0:0|0:0,0:0:0:0:
344,96,163416,5,0,0:0:0:0:
52,32,163624,1,8,0:0:0:0:
292,156,163833,2,0,P|316:232|292:308,1,150,2|0,0:0|0:0,0:0:0:0:
176,368,164145,1,0,0:0:0:0:
96,252,164249,5,0,0:0:0:0:
92,244,164353,2,0,L|176:236,1,75
424,220,164562,1,8,0:0:0:0:
424,220,164666,1,0,0:0:0:0:
84,336,164874,1,2,0:0:0:0:
352,376,165083,6,0,L|360:300,1,75,4|0,0:1|0:0,0:0:0:0:
260,152,165291,2,0,L|268:228,1,75,8|0,0:0|0:0,0:0:0:0:
452,324,165499,2,0,P|472:244|456:176,1,150,2|0,0:0|0:0,0:0:0:0:
164,112,165916,5,2,0:0:0:0:
193,235,166020,2,0,L|273:225,1,75
452,176,166228,1,8,0:0:0:0:
344,72,166333,2,0,L|336:152,1,75
292,372,166541,2,0,L|284:292,1,75,2|0,0:0|0:0,0:0:0:0:
264,44,166749,5,0,0:0:0:0:
36,344,166958,1,8,0:0:0:0:
336,152,167166,2,0,P|436:212|396:300,1,225,2|0,0:0|0:0,0:0:0:0:
308,320,167583,5,2,0:0:0:0:
242,270,167687,1,0,0:0:0:0:
221,190,167791,1,0,0:0:0:0:
240,109,167895,1,8,0:0:0:0:
297,49,167999,1,8,0:0:0:0:
348,38,168103,1,8,0:0:0:0:
399,27,168208,1,0,3:0:0:0:
450,17,168312,1,4,0:0:0:0:
501,7,168416,6,0,B|512:60|512:60|504:96,1,75,4|0,0:0|0:0,0:0:0:0:
476,212,168624,1,8,0:0:0:0:
316,132,168728,1,0,0:0:0:0:
308,128,168833,2,0,B|264:120|264:120|284:232,1,150,2|0,0:0|0:0,0:0:0:0:
304,356,169145,1,0,0:0:0:0:
372,256,169249,5,2,0:0:0:0:
212,296,169353,2,0,L|196:220,1,75
168,80,169562,1,8,0:0:0:0:
52,196,169666,2,0,L|128:200,1,75
316,128,169874,2,0,L|240:124,1,75,2|0,0:0|0:0,0:0:0:0:
40,116,170083,6,0,L|48:196,1,75
120,352,170291,2,0,L|128:272,1,75,8|0,0:0|0:0,0:0:0:0:
168,96,170499,2,0,P|232:48|328:132,1,225,2|0,0:0|0:0,0:0:0:0:
308,248,170916,5,2,0:0:0:0:
180,172,171020,2,0,L|260:164,1,75
412,152,171228,1,8,0:0:0:0:
300,256,171333,2,0,P|296:296|300:332,1,75
472,348,171541,2,0,P|476:308|472:272,1,75,2|0,0:0|0:0,0:0:0:0:
432,80,171749,6,0,L|356:88,1,75,4|0,0:1|0:0,0:0:0:0:
176,140,171958,2,0,L|252:148,1,75,8|0,0:0|0:0,0:0:0:0:
384,184,172166,2,0,P|404:264|384:332,1,150,2|0,0:0|0:0,0:0:0:0:
256,252,172478,1,0,0:0:0:0:
128,324,172583,6,0,P|110:251|130:180,1,150,2|0,0:0|0:0,0:0:0:0:
256,252,172895,1,8,0:0:0:0:
352,112,172999,2,0,L|272:116,1,75
136,176,173208,2,0,L|216:180,1,75,2|0,0:0|0:0,0:0:0:0:
380,184,173416,5,0,0:0:0:0:
80,320,173624,2,0,L|92:240,1,75,8|0,0:0|0:0,0:0:0:0:
116,96,173833,1,2,0:0:0:0:
432,332,174041,2,0,L|420:252,1,75
396,108,174249,6,0,P|328:72|248:88,1,150,2|0,0:0|0:0,0:0:0:0:
180,152,174562,1,8,2:0:0:0:
309,187,174666,1,8,0:0:0:0:
332,233,174770,1,8,0:0:0:0:
340,277,174874,1,0,0:0:0:0:
335,314,174978,1,4,0:2:0:0:
323,341,175083,6,0,P|288:350|246:348,1,75,4|0,0:0|0:0,0:0:0:0:
128,256,175291,2,0,P|119:221|121:179,1,75,8|0,0:0|0:0,0:0:0:0:
220,68,175499,2,0,B|344:56|344:56|328:88,1,150,2|0,0:0|0:0,0:0:0:0:
268,200,175812,1,0,0:0:0:0:
144,104,175916,5,2,0:0:0:0:
136,100,176020,2,0,L|120:176,1,75
72,324,176228,1,8,0:0:0:0:
68,332,176332,2,0,L|144:324,1,75
336,276,176541,2,0,L|260:268,1,75,2|0,0:0|0:0,0:0:0:0:
36,248,176749,5,0,0:0:0:0:
368,188,176958,1,8,0:0:0:0:
64,108,177166,2,0,B|8:92|8:92|24:192,1,150,2|0,0:0|0:0,0:0:0:0:
40,264,177478,1,0,0:0:0:0:
40,264,177583,1,2,0:0:0:0:
288,208,177791,6,0,L|300:128,1,75,0|8,0:0|0:0,0:0:0:0:
156,288,177999,2,0,L|168:368,1,75
436,296,178208,2,0,L|448:216,1,75,2|0,0:0|0:0,0:0:0:0:
472,60,178416,5,4,0:1:0:0:
140,148,178624,1,8,0:0:0:0:
428,128,178833,2,0,B|452:172|452:172|432:284,1,150,2|0,0:0|0:0,0:0:0:0:
204,348,179249,6,0,B|180:304|180:304|200:192,1,150,2|0,0:0|0:0,0:0:0:0:
224,56,179562,1,8,0:0:0:0:
340,164,179666,2,0,L|252:156,1,75
84,112,179874,2,0,L|172:104,1,75,2|0,0:0|0:0,0:0:0:0:
368,88,180083,5,0,0:0:0:0:
140,328,180291,1,8,0:0:0:0:
112,264,180395,1,0,0:0:0:0:
84,200,180499,2,0,B|148:208|148:208|244:200,1,150,2|0,0:0|0:0,0:0:0:0:
468,96,180916,6,0,B|404:80|404:80|240:96,1,225,2|8,0:0|0:0,0:0:0:0:
156,108,181333,1,8,0:0:0:0:
112,169,181437,1,8,0:0:0:0:
98,235,181541,1,0,3:0:0:0:
109,293,181645,1,0,3:0:0:0:
135,338,181749,6,0,P|164:348|212:352,1,75,4|0,0:0|0:0,0:0:0:0:
376,188,181958,2,0,P|347:178|299:174,1,75,8|0,0:0|0:0,0:0:0:0:
188,244,182166,2,0,B|136:260|136:260|36:248,1,150,2|0,0:0|0:0,0:0:0:0:
216,84,182583,6,0,B|232:120|232:120|228:168,1,75,2|0,0:0|0:0,0:0:0:0:
216,320,182791,1,0,0:0:0:0:
128,172,182895,2,0,B|94:165|94:165|39:177,1,75,8|0,0:0|0:0,0:0:0:0:
96,336,183103,1,0,0:0:0:0:
264,248,183208,2,0,B|232:236|232:236|176:240,1,75,2|0,0:0|0:0,0:0:0:0:
12,256,183416,5,0,0:0:0:0:
368,117,183624,1,8,0:0:0:0:
87,50,183833,2,0,P|69:140|89:219,1,150,2|0,0:0|0:0,0:0:0:0:
120,288,184145,1,0,0:0:0:0:
184,164,184249,5,2,0:0:0:0:
188,160,184353,2,0,L|268:152,1,75
376,140,184562,1,8,0:0:0:0:
392,252,184666,2,0,L|312:260,1,75
184,344,184874,2,0,L|264:352,1,75,2|0,0:0|0:0,0:0:0:0:
424,368,185083,5,4,0:1:0:0:
116,224,185291,1,8,0:0:0:0:
468,300,185499,2,0,P|484:216|468:148,1,150,2|0,0:0|0:0,0:0:0:0:
204,272,185916,5,2,0:0:0:0:
120,140,186020,2,0,L|200:144,1,75
316,148,186228,1,8,0:0:0:0:
140,220,186333,2,0,P|132:264|136:300,1,75,8|0,0:0|0:0,0:0:0:0:
284,364,186541,1,8,0:0:0:0:
256,200,186645,1,8,0:2:0:0:
180,356,186749,2,0,P|148:368|104:364,1,75,8|0,0:2|0:0,0:0:0:0:
0,316,186958,6,0,B|24:284|24:284|32:224,1,97.4999955368044,8|0,0:0|0:0,0:0:0:0:
52,52,187166,1,2,0:0:0:0:
192,144,187270,2,0,P|240:152|296:136,1,97.4999955368044
336,44,187478,6,0,B|280:24|228:52|228:52|128:32|100:116|100:116|76:200|156:264|240:232,1,487.499977684022,4|2,0:0|0:0,0:0:0:0:
232,232,188416,6,0,B|272:220|272:220|316:224,1,75,4|0,0:0|0:0,0:0:0:0:
432,236,188624,1,0,0:0:0:0:
432,236,188728,1,0,0:0:0:0:
356,340,188833,2,0,L|280:332,1,75,8|0,0:0|0:0,0:0:0:0:
140,312,189041,1,0,0:0:0:0:
128,304,189145,1,0,0:0:0:0:
116,296,189249,2,0,P|96:224|108:144,1,150,8|0,0:0|0:0,0:0:0:0:
184,20,189666,2,0,L|244:16,3,50,8|0|0|0,0:0|0:0|0:0|0:0,0:0:0:0:
344,124,190083,6,0,L|180:116,1,150,8|0,0:0|0:0,0:0:0:0:
20,240,190499,2,0,L|100:232,1,75,8|0,0:0|0:0,0:0:0:0:
208,220,190708,1,0,0:0:0:0:
92,136,190812,1,0,0:0:0:0:
56,312,190916,1,8,0:0:0:0:
60,316,191020,2,0,L|144:324,1,75
268,332,191228,1,0,0:0:0:0:
204,224,191333,2,0,P|198:204|198:140,1,75,8|0,0:0|0:0,0:0:0:0:
362,80,191541,2,0,P|367:99|367:163,1,75
320,292,191749,6,0,B|276:308|276:308|240:300|240:300|208:308|208:308|156:296,1,150,8|0,0:0|0:0,0:0:0:0:
48,232,192062,2,0,L|124:224,1,75,0|8,0:0|0:0,0:0:0:0:
272,208,192270,1,0,0:0:0:0:
176,64,192374,2,0,P|164:116|168:152,1,75
200,300,192583,5,8,0:0:0:0:
304,236,192721,1,0,0:0:0:0:
416,288,192860,1,0,0:0:0:0:
508,208,192999,2,0,B|468:176|468:176|360:168,1,150,8|0,0:0|0:0,0:0:0:0:
112,156,193416,5,8,0:0:0:0:
424,276,193624,1,2,0:0:0:0:
96,352,193833,1,8,0:0:0:0:
64,276,193937,1,0,0:0:0:0:
96,200,194041,2,0,P|100:148|100:112,1,75,2|0,0:0|0:0,0:0:0:0:
60,20,194249,5,8,0:0:0:0:
116,40,194353,1,0,0:0:0:0:
172,60,194458,2,0,L|252:64,1,75,2|0,0:0|0:0,0:0:0:0:
444,132,194666,1,8,0:0:0:0:
400,148,194770,1,0,0:0:0:0:
356,164,194874,2,0,L|276:168,1,75,2|0,0:0|0:0,0:0:0:0:
68,176,195083,5,4,0:0:0:0:
376,60,195291,1,0,0:0:0:0:
136,252,195499,2,0,P|132:300|136:340,1,75,8|0,0:0|0:0,0:0:0:0:
276,360,195708,1,0,0:0:0:0:
276,360,195812,1,0,0:0:0:0:
384,256,195916,6,0,L|308:260,1,75,8|0,0:0|0:0,0:0:0:0:
196,164,196124,2,0,L|272:168,1,75
408,100,196333,2,0,P|412:76|404:12,1,75,8|0,0:0|0:0,0:0:0:0:
272,64,196541,1,0,0:0:0:0:
272,64,196645,1,0,0:0:0:0:
320,216,196749,5,8,0:0:0:0:
464,148,196853,2,0,B|496:132|496:132|484:252,1,150
468,356,197166,2,0,B|432:364|432:364|384:352,1,75,8|0,0:0|0:0,0:0:0:0:
252,264,197374,1,0,0:0:0:0:
404,256,197478,1,0,0:0:0:0:
288,364,197583,2,0,B|248:372|248:372|204:360,1,75,8|0,0:0|0:0,0:0:0:0:
104,220,197791,1,0,0:0:0:0:
4,328,197895,2,0,B|37:345|37:345|72:335|72:335|109:344|109:344|148:325,1,150
252,240,198208,1,0,0:0:0:0:
44,256,198312,1,0,0:0:0:0:
200,368,198416,6,0,B|224:324|196:284|196:284|168:240|196:196|196:196|228:144|184:72,1,300,8|8,0:0|0:0,0:0:0:0:
16,36,199041,2,0,P|4:80|8:116,1,75
88,240,199249,2,0,B|104:300|104:300|80:360|80:360|64:332,1,150,8|0,0:0|0:0,0:0:0:0:
0,212,199562,1,0,0:0:0:0:
124,144,199666,1,8,0:0:0:0:
248,212,199770,2,0,P|288:220|332:220,1,75,0|0,0:0|0:0,0:0:0:0:
460,200,199978,1,0,0:0:0:0:
356,76,200083,6,0,L|348:156,1,75,8|0,0:1|0:0,0:0:0:0:
320,304,200291,1,0,0:0:0:0:
291,347,200395,1,0,0:0:0:0:
240,372,200499,1,0,0:0:0:0:
180,369,200603,1,8,0:1:0:0:
127,331,200708,2,0,P|120:283|121:251,1,75,8|0,0:1|0:0,0:0:0:0:
228,164,200916,6,0,P|227:126|221:89,1,75
80,20,201124,1,8,0:1:0:0:
33,78,201228,1,8,0:1:0:0:
20,152,201333,1,0,3:0:0:0:
39,224,201437,1,0,3:0:0:0:
92,276,201541,1,0,3:0:0:0:
168,268,201645,1,8,3:1:0:0:
244,260,201749,6,0,P|276:236|296:196,1,82.5000025177003,4|0,0:0|0:0,0:0:0:0:
272,56,201958,1,2,0:0:0:0:
192,160,202062,1,0,0:0:0:0:
356,140,202166,2,0,P|388:140|440:148,1,82.5000025177003,8|0,0:0|0:0,0:0:0:0:
380,292,202374,1,2,0:0:0:0:
288,164,202478,2,0,B|268:196|268:196|276:244,1,82.5000025177003,0|8,0:0|0:0,0:0:0:0:
312,372,202687,1,0,0:0:0:0:
384,224,202791,1,2,0:0:0:0:
264,312,202895,5,0,0:0:0:0:
412,328,202999,1,8,0:0:0:0:
260,316,203103,1,0,0:0:0:0:
392,232,203208,2,0,B|408:188|408:188|396:156|396:156|404:120|404:120|392:64,1,165.000005035401,2|8,0:0|0:0,0:0:0:0:
168,16,203624,6,0,B|156:56|156:56|168:104,1,82.5000025177003,2|0,0:0|0:0,0:0:0:0:
256,236,203833,1,8,0:0:0:0:
262,256,203902,1,0,0:0:0:0:
262,277,203971,1,0,0:0:0:0:
258,298,204041,2,0,L|170:302,1,82.5000025177003,2|0,0:0|0:0,0:0:0:0:
48,152,204249,6,0,L|144:160,1,82.5000025177003,8|0,0:0|0:0,0:0:0:0:
388,240,204458,2,0,L|292:232,1,82.5000025177003,2|0,0:0|0:0,0:0:0:0:
28,216,204666,1,8,0:0:0:0:
24,224,204735,2,0,L|32:288,1,55.0000016784668
168,292,204874,1,2,0:0:0:0:
175,301,204943,2,0,L|183:365,1,55.0000016784668
328,364,205083,5,8,0:0:0:0:
388,248,205187,1,0,0:0:0:0:
256,260,205291,2,0,P|248:228|248:176,1,82.5000025177003,2|0,0:0|0:0,0:0:0:0:
380,28,205499,2,0,L|288:36,1,82.5000025177003,8|0,0:0|0:0,0:0:0:0:
60,112,205708,2,0,L|152:104,1,82.5000025177003,2|0,0:0|0:0,0:0:0:0:
368,108,205916,6,0,L|384:168,1,55.0000016784668,8|0,0:0|0:0,0:0:0:0:
272,212,206055,1,0,0:0:0:0:
272,212,206124,2,0,L|276:272,1,55.0000016784668,2|0,0:0|0:0,0:0:0:0:
156,288,206263,1,0,0:0:0:0:
156,288,206333,2,0,L|148:352,1,55.0000016784668,8|0,0:0|0:0,0:0:0:0:
48,228,206471,2,0,P|40:200|40:172,2,55.0000016784668,0|2|0,0:0|0:0|0:0,0:0:0:0:
204,236,206749,5,8,0:0:0:0:
336,184,206853,2,0,B|364:152|364:152|368:108,2,82.5000025177003,0|2|0,0:0|0:0|0:0,0:0:0:0:
200,84,207166,1,8,0:0:0:0:
196,76,207235,2,0,L|188:16,1,55.0000016784668
144,232,207374,1,2,0:0:0:0:
140,240,207443,2,0,L|148:300,1,55.0000016784668
288,192,207583,1,8,0:0:0:0:
296,188,207652,2,0,B|348:176|396:184|396:184|384:208,1,110.000003356934,0|2,0:0|0:0,0:0:0:0:
224,352,207999,5,8,0:0:0:0:
100,80,208208,1,8,0:0:0:0:
64,144,208312,1,8,0:0:0:0:
28,208,208416,2,0,L|116:200,1,82.5000025177003,4|0,0:0|0:0,0:0:0:0:
248,148,208624,1,2,0:0:0:0:
256,144,208694,2,0,L|320:148,1,55.0000016784668
468,204,208833,1,8,0:0:0:0:
472,225,208902,1,0,0:0:0:0:
473,246,208971,2,0,P|468:305|440:371,1,110.000003356934
164,208,209249,5,8,0:0:0:0:
488,176,209458,1,2,0:0:0:0:
212,280,209666,1,8,0:0:0:0:
212,280,209770,1,0,0:0:0:0:
260,132,209874,1,2,0:0:0:0:
260,132,209978,1,0,0:0:0:0:
352,248,210083,6,0,L|440:240,1,82.5000025177003,8|0,0:0|0:0,0:0:0:0:
152,184,210291,2,0,L|64:192,1,82.5000025177003,2|0,0:0|0:0,0:0:0:0:
264,360,210499,2,0,P|280:320|288:272,1,82.5000025177003,8|0,0:0|0:0,0:0:0:0:
228,48,210708,2,0,P|212:88|204:136,1,82.5000025177003,2|0,0:0|0:0,0:0:0:0:
360,256,210916,6,0,L|444:260,1,82.5000025177003,8|0,0:0|0:0,0:0:0:0:
312,92,211124,2,0,P|304:128|292:152,1,55.0000016784668,2|0,0:0|0:0,0:0:0:0:
228,208,211263,1,0,0:0:0:0:
220,212,211333,2,0,L|160:208,1,55.0000016784668,8|0,0:0|0:0,0:0:0:0:
76,164,211471,2,0,P|52:104|56:52,1,110.000003356934
188,88,211680,1,0,0:0:0:0:
196,92,211749,6,0,L|288:88,1,82.5000025177003,8|0,0:0|0:0,0:0:0:0:
424,24,211958,2,0,L|420:116,1,82.5000025177003,2|0,0:0|0:0,0:0:0:0:
280,220,212166,2,0,L|372:216,1,82.5000025177003,8|0,0:0|0:0,0:0:0:0:
512,148,212375,2,0,L|508:240,1,82.5000025177003,2|0,0:0|0:0,0:0:0:0:
452,340,212583,5,8,0:0:0:0:
420,176,212687,1,0,0:0:0:0:
356,292,212791,1,2,0:0:0:0:
504,240,212895,1,0,0:0:0:0:
352,300,212999,2,0,L|260:296,1,82.5000025177003,8|0,0:0|0:0,0:0:0:0:
180,156,213208,2,0,B|140:144|140:144|92:160,1,82.5000025177003,2|0,0:0|0:0,0:0:0:0:
16,316,213416,1,8,0:0:0:0:
40,68,213624,6,0,B|76:56|76:56|136:64,1,89.9999972534181,2|0,0:0|0:0,0:0:0:0:
272,80,213833,1,8,0:0:0:0:
196,232,213937,2,0,B|232:244|232:244|292:236,1,89.9999972534181,2|0,0:0|0:0,0:0:0:0:
428,208,214146,1,8,0:0:0:0:
264,84,214249,2,0,P|248:120|244:180,1,89.9999972534181,2|0,0:0|0:0,0:0:0:0:
288,336,214458,5,8,0:0:0:0:
364,362,214562,1,8,0:0:0:0:
434,350,214666,1,8,3:0:0:0:
482,310,214770,1,8,3:0:0:0:
496,258,214874,1,0,3:0:0:0:
493,213,214978,1,0,3:0:0:0:
477,176,215083,6,0,B|432:116|356:136|356:136|264:184|264:184|204:176,1,292.499986610413,4|0,0:0|0:0,0:0:0:0:
96,160,215499,1,8,0:0:0:0:
236,16,215603,2,0,P|252:72|248:120,1,97.4999955368044,8|0,0:0|0:0,0:0:0:0:
188,252,215812,6,0,B|160:320|200:376|200:376|248:352|288:368|288:368|332:384|384:356|388:316,1,330.000010070801,4|0,0:1|0:0,0:0:0:0:
396,224,216333,1,8,0:1:0:0:
280,252,216437,2,0,L|192:248,1,82.5000025177003,8|0,0:1|0:0,0:0:0:0:
52,228,216645,6,0,B|0:168|4:88|68:40|68:40|144:64|144:64|212:52|212:52|268:68,1,419.999987182618,4|0,0:0|0:0,0:0:0:0:
388,100,217166,1,8,0:0:0:0:
208,140,217270,2,0,P|192:188|208:248,1,104.999996795654,8|0,0:0|0:0,0:0:0:0:
340,356,217478,6,0,P|424:204|292:212,1,359.999989013672,2|0,0:0|0:0,0:0:0:0:
220,308,217999,1,8,0:0:0:0:
84,264,218103,2,0,L|92:356,1,89.9999972534181,8|0,0:3|0:0,0:0:0:0:
272,372,218312,6,0,B|312:340|312:280|268:244|268:244|224:208|200:128|260:36|260:36|272:64|288:88,1,419.999987182618,4|0,0:1|0:0,0:0:0:0:
368,180,218833,1,8,0:0:0:0:
460,52,218937,2,0,B|424:32|424:32|356:40,1,104.999996795654,8|0,0:0|0:0,0:0:0:0:
152,100,219145,6,0,B|80:124|12:88|12:88|28:28|96:12|96:12|116:80|96:152|96:152|80:208|96:244,1,480,4|0,0:1|0:0,0:0:0:0:
136,356,219666,1,8,0:0:0:0:
248,232,219770,2,0,B|268:196|268:196|184:204,1,120,8|0,0:3|0:0,0:0:0:0:
36,284,219978,6,0,B|92:296|92:296|136:284|136:284|248:308|248:308|336:292,1,300,4|0,0:0|0:0,0:0:0:0:
428,272,220499,1,8,0:0:0:0:
248,90,220708,5,8,0:0:0:0:
245,70,220777,1,8,0:0:0:0:
246,50,220846,1,8,0:0:0:0:
250,30,220916,1,8,0:0:0:0:
405,148,221124,1,8,0:0:0:0:
386,189,221194,1,8,0:0:0:0:
355,221,221263,1,8,0:0:0:0:
316,240,221333,1,0,3:0:0:0:
276,245,221402,1,0,3:0:0:0:
240,256,221471,1,0,3:0:0:0:
212,277,221541,1,0,3:0:0:0:
197,306,221610,2,0,P|193:337|198:367,1,50,0|0,3:0|3:0,0:0:0:0:
411,368,221749,1,4,0:0:0:0:
416,364,222166,5,0,0:0:0:0:
92,304,222374,1,0,0:0:0:0:
420,356,222583,1,0,0:0:0:0:
344,36,222791,1,0,0:0:0:0:
40,300,223416,6,0,P|76:304|120:300,1,75
272,184,223624,2,0,P|236:180|192:184,1,75
4,212,223833,1,0,0:0:0:0:
288,348,224041,1,0,0:0:0:0:
360,216,224145,2,0,P|336:120|264:96,1,150
196,176,224458,2,0,B|221:191|221:191|276:188,1,75,2|0,0:0|0:0,0:0:0:0:
460,176,224666,1,8,0:0:0:0:
160,264,224874,5,0,0:0:0:0:
116,104,224978,1,0,0:0:0:0:
24,224,225083,2,0,L|108:228,1,75,2|0,0:0|0:0,0:0:0:0:
268,164,225291,2,0,L|184:160,1,75
4,152,225499,1,0,0:0:0:0:
308,236,225708,1,8,0:1:0:0:
392,132,225812,2,0,B|412:108|412:108|400:240,1,150
388,336,226124,1,0,0:0:0:0:
84,200,226333,1,0,0:0:0:0:
472,224,226541,5,0,0:0:0:0:
408,104,226645,1,8,0:1:0:0:
340,220,226749,2,0,P|300:228|264:228,1,75,2|0,0:0|0:0,0:0:0:0:
140,120,226958,2,0,P|180:112|216:112,1,75
368,144,227166,1,8,0:1:0:0:
52,240,227374,1,0,0:0:0:0:
152,344,227478,2,0,P|192:268|184:192,1,150
120,80,227791,1,0,0:0:0:0:
48,232,227895,1,8,0:0:0:0:
184,200,227999,2,0,L|260:204,1,75,2|0,0:0|0:0,0:0:0:0:
152,344,228208,1,0,0:0:0:0:
96,172,228312,1,8,0:0:0:0:
24,304,228416,6,0,L|104:296,1,75,4|0,0:1|0:0,0:0:0:0:
248,280,228624,2,0,P|260:232|260:196,1,75
176,64,228833,2,0,P|164:112|164:148,1,75
196,336,229041,1,0,0:0:0:0:
328,224,229145,2,0,B|368:204|368:204|480:220,1,150,8|0,0:0|0:0,0:0:0:0:
384,352,229458,2,0,B|344:368|344:368|304:360,1,75
120,332,229666,1,0,0:0:0:0:
452,300,229874,5,0,0:0:0:0:
428,140,229978,1,0,0:0:0:0:
348,264,230083,2,0,P|308:272|264:272,1,75,4|0,0:0|0:0,0:0:0:0:
124,228,230291,2,0,P|164:240|208:244,1,75
384,200,230499,1,8,0:1:0:0:
8,172,230708,1,0,0:0:0:0:
180,152,230812,2,0,P|200:104|160:12,1,150
28,80,231124,2,0,B|64:96|64:96|112:92,1,75,8|0,0:0|0:0,0:0:0:0:
280,80,231333,1,0,0:0:0:0:
160,160,231437,2,0,B|48:172|48:172|8:156,1,150,8|0,0:1|0:0,0:0:0:0:
80,20,231749,5,2,0:0:0:0:
276,184,231958,1,0,0:0:0:0:
264,252,232062,1,0,0:0:0:0:
252,320,232166,1,0,0:0:0:0:
448,112,232374,1,0,0:0:0:0:
436,164,232478,1,0,0:0:0:0:
424,216,232583,1,0,0:0:0:0:
256,328,232791,2,0,P|208:332|176:328,1,75
44,152,232999,2,0,P|92:148|124:152,1,75,8|0,0:1|0:0,0:0:0:0:
344,236,233208,1,0,0:0:0:0:
308,108,233312,1,0,0:0:0:0:
232,216,233416,6,0,B|196:228|196:228|152:224,1,75,4|0,0:0|0:0,0:0:0:0:
32,208,233624,1,0,0:0:0:0:
184,128,233728,1,0,0:0:0:0:
24,128,233833,2,0,L|32:208,1,75
192,120,234041,1,0,0:0:0:0:
12,120,234145,2,0,L|28:272,1,150
172,352,234458,5,8,0:0:0:0:
187,301,234562,1,8,0:0:0:0:
184,241,234666,1,8,0:0:0:0:
174,174,234770,1,8,0:0:0:0:
185,103,234874,1,8,0:0:0:0:
234,47,234978,1,8,0:0:0:0:
310,26,235083,6,0,L|420:36,1,104.999996795654,4|0,0:0|0:0,0:0:0:0:
252,200,235291,1,0,0:0:0:0:
472,180,235395,2,0,L|484:68,1,104.999996795654,4|0,0:1|0:0,0:0:0:0:
176,156,235603,1,0,0:0:0:0:
380,44,235708,2,0,B|400:108|400:108|384:160|384:160|418:209|398:268|398:268|376:326|313:339|313:339|252:348|216:312|216:312|185:281|180:244,1,524.999983978272,4|8,0:0|0:0,0:0:0:0:
172,148,236333,1,8,0:0:0:0:
496,236,236541,1,8,0:0:0:0:
108,320,236749,6,0,P|96:284|92:228,1,89.9999972534181,4|0,0:0|0:0,0:0:0:0:
280,92,236958,2,0,P|292:128|296:184,1,89.9999972534181
208,336,237166,6,0,L|100:328,1,89.9999972534181,2|0,0:0|0:0,0:0:0:0:
368,136,237374,2,0,L|476:144,1,89.9999972534181,8|0,0:0|0:0,0:0:0:0:
112,352,237583,2,0,L|204:340,1,89.9999972534181,2|0,0:0|0:0,0:0:0:0:
476,232,237791,2,0,L|384:244,1,89.9999972534181,8|0,0:0|0:0,0:0:0:0:
144,272,237999,5,2,0:0:0:0:
284,120,238103,2,0,P|292:164|292:212,1,89.9999972534181,8|0,0:0|0:0,0:0:0:0:
276,336,238312,1,0,0:0:0:0:
172,200,238416,6,0,B|131:179|131:179|81:182,1,89.9999972534181,2|0,0:0|0:0,0:0:0:0:
8,336,238624,2,0,B|48:356|48:356|98:353,1,89.9999972534181
292,348,238833,6,0,L|304:256,1,89.9999972534181,2|0,0:0|0:0,0:0:0:0:
220,36,239041,2,0,L|208:128,1,89.9999972534181,8|0,0:0|0:0,0:0:0:0:
312,352,239249,2,0,L|308:251,1,89.9999972534181,2|0,0:0|0:0,0:0:0:0:
199,31,239457,2,0,L|203:132,1,89.9999972534181,8|0,0:0|0:0,0:0:0:0:
220,328,239666,5,2,0:0:0:0:
268,192,239770,2,0,B|124:200|124:200|140:232,1,179.999994506836,8|0,0:0|0:0,0:0:0:0:
232,356,240083,6,0,L|248:264,1,89.9999972534181,2|0,0:0|0:0,0:0:0:0:
272,36,240291,2,0,L|288:128,1,89.9999972534181
344,340,240499,1,8,0:0:0:0:
428,200,240603,2,0,B|396:184|396:184|328:188,1,89.9999972534181
196,204,240812,1,0,0:0:0:0:
348,344,240916,6,0,P|364:288|368:256,1,89.9999972534181,2|0,0:0|0:0,0:0:0:0:
276,56,241124,2,0,P|260:112|256:144,1,89.9999972534181,8|0,0:0|0:0,0:0:0:0:
276,324,241333,1,8,3:0:0:0:
317,358,241437,1,0,3:0:0:0:
370,367,241541,1,0,3:0:0:0:
422,353,241645,1,0,3:0:0:0:
463,318,241749,6,0,B|504:235|473:143|473:143|439:163,1,209.999993591309,4|0,0:0|0:0,0:0:0:0:
312,220,242062,6,0,P|200:148|232:32,1,240,8|0,0:0|0:0,0:0:0:0:
324,12,242374,6,0,P|328:60|324:104,1,89.9999972534181,4|0,0:0|0:0,0:0:0:0:
268,296,242583,2,0,P|348:364|416:240,1,269.999991760254,2|0,0:3|0:0,0:0:0:0:
344,182,242999,5,8,3:0:0:0:
273,169,243103,1,0,3:0:0:0:
201,182,243208,1,0,3:0:0:0:
130,197,243312,1,0,3:0:0:0:
58,187,243416,6,0,B|40:145|40:145|49:99,1,89.9999972534181,4|0,0:0|0:0,0:0:0:0:
216,28,243624,2,0,B|234:70|234:70|225:116,1,89.9999972534181
88,260,243833,6,0,L|184:252,1,89.9999972534181,2|0,0:0|0:0,0:0:0:0:
420,184,244041,2,0,L|324:192,1,89.9999972534181,8|0,0:0|0:0,0:0:0:0:
80,243,244249,2,0,L|179:245,1,89.9999972534181,2|0,0:0|0:0,0:0:0:0:
427,200,244457,2,0,L|328:198,1,89.9999972534181,8|0,0:0|0:0,0:0:0:0:
40,188,244666,5,2,0:0:0:0:
240,268,244770,2,0,P|244:320|232:372,1,89.9999972534181,8|0,0:0|0:0,0:0:0:0:
48,300,244978,1,0,0:0:0:0:
164,184,245083,6,0,L|260:188,1,89.9999972534181,2|0,0:0|0:0,0:0:0:0:
420,280,245291,2,0,L|324:276,1,89.9999972534181
160,264,245499,6,0,L|172:356,1,89.9999972534181,2|0,0:0|0:0,0:0:0:0:
352,120,245708,2,0,L|340:28,1,89.9999972534181,8|0,0:0|0:0,0:0:0:0:
144,272,245916,2,0,L|164:362,1,89.9999972534181,2|0,0:0|0:0,0:0:0:0:
367,112,246125,2,0,L|346:21,1,89.9999972534181,8|0,0:0|0:0,0:0:0:0:
112,208,246333,5,2,0:0:0:0:
264,184,246437,2,0,B|344:176|404:188|404:188|376:216,1,179.999994506836,8|0,0:0|0:0,0:0:0:0:
260,288,246749,6,0,P|256:340|260:380,1,89.9999972534181,2|0,0:0|0:0,0:0:0:0:
308,108,246958,2,0,P|312:56|308:16,1,89.9999972534181
168,156,247166,1,2,0:0:0:0:
64,28,247270,2,0,B|100:12|100:12|168:16,1,89.9999972534181,8|0,0:0|0:0,0:0:0:0:
304,20,247478,1,0,0:0:0:0:
236,144,247583,6,0,P|224:216|248:328,1,179.999994506836,4|0,0:1|0:0,0:0:0:0:
448,88,247999,1,4,0:1:0:0:
416,224,248103,2,0,B|352:236|352:236|232:224,1,179.999994506836,8|0,0:0|0:0,0:0:0:0:
20,104,248416,6,0,B|36:64|68:36|68:36|148:72|220:76,1,225.000008583069,4|0,0:0|0:0,0:0:0:0:
344,80,248728,5,4,0:0:0:0:
232,224,248833,2,0,P|220:300|236:360,1,134.999995880127,2|0,0:3|0:0,0:0:0:0:
468,352,249041,6,0,P|480:276|464:216,1,134.999995880127,4|0,0:0|0:0,0:0:0:0:
360,64,249249,5,8,0:1:0:0:
344,72,249319,1,8,0:1:0:0:
328,80,249388,1,8,0:1:0:0:
312,88,249458,2,0,L|216:96,1,89.9999972534181,8|8,0:1|0:1,0:0:0:0:
36,68,249666,1,8,0:0:0:0:
48,140,249770,1,8,0:0:0:0:
60,212,249874,1,8,0:0:0:0:
72,284,249978,1,8,0:0:0:0:
84,356,250083,6,0,B|126:374|126:374|186:365,1,97.4999955368044,4|0,0:0|0:0,0:0:0:0:
376,244,250291,2,0,B|334:226|334:226|274:235,1,97.4999955368044,2|0,0:0|0:0,0:0:0:0:
140,260,250499,1,0,0:0:0:0:
312,348,250603,2,0,L|412:340,1,97.4999955368044,0|2,0:0|0:0,0:0:0:0:
496,152,250812,6,0,P|504:72|416:8,1,194.999991073609,4|0,0:1|0:0,0:0:0:0:
376,244,251124,2,0,B|332:264|332:264|272:256,1,97.4999955368044,2|0,0:0|0:0,0:0:0:0:
120,232,251333,1,0,0:0:0:0:
280,160,251437,2,0,B|291:209|291:209|283:257,1,97.4999955368044,0|2,0:0|0:0,0:0:0:0:
64,364,251645,6,0,B|48:324|48:324|60:280|60:280|44:232|44:232|64:160,1,194.999991073609,4|0,0:1|0:0,0:0:0:0:
200,8,251958,2,0,P|208:60|200:120,1,97.4999955368044,2|0,0:0|0:0,0:0:0:0:
156,228,252166,1,0,0:0:0:0:
20,88,252270,2,0,B|56:68|56:68|124:72,1,97.4999955368044,0|2,0:0|0:0,0:0:0:0:
304,88,252478,6,0,P|340:208|308:268,1,194.999991073609
108,280,252791,2,0,L|120:384,1,97.4999955368044,2|0,0:0|0:0,0:0:0:0:
212,180,252999,2,0,L|100:172,1,97.4999955368044
264,324,253208,2,0,L|376:316,1,97.4999955368044,2|0,0:0|0:0,0:0:0:0:
104,376,253416,6,0,P|92:336|100:272,1,97.4999955368044
208,76,253624,2,0,P|220:116|212:180,1,97.4999955368044,2|0,0:0|0:0,0:0:0:0:
56,212,253833,1,0,0:0:0:0:
208,260,253937,2,0,L|308:256,1,97.4999955368044,8|0,0:0|0:0,0:0:0:0:
464,160,254145,6,0,P|468:64|396:0,1,194.999991073609,4|0,0:0|0:0,0:0:0:0:
252,116,254458,2,0,L|360:108,1,97.4999955368044,2|0,0:3|0:0,0:0:0:0:
492,240,254666,2,0,L|384:232,1,97.4999955368044
200,240,254874,5,2,0:3:0:0:
248,348,254978,1,0,0:0:0:0:
328,256,255083,2,0,L|312:144,1,112.500004291535,4|0,0:0|0:0,0:0:0:0:
136,288,255291,5,0,0:0:0:0:
344,264,255395,2,0,L|348:132,1,127.50000243187,4|0,0:0|0:0,0:0:0:0:
124,296,255603,5,0,0:0:0:0:
356,276,255708,2,0,L|384:104,1,142.49999619484,4|0,0:1|0:0,0:0:0:0:
64,224,255916,6,0,L|188:212,1,120
384,352,256124,2,0,L|276:340,1,97.4999955368044,2|2,0:3|0:3,0:0:0:0:
20,320,256333,1,8,0:0:0:0:
480,232,256541,1,10,0:0:0:0:
208,344,256749,6,0,B|192:296|192:296|200:240,1,97.4999955368044,4|0,0:0|0:0,0:0:0:0:
312,44,256958,2,0,B|328:92|328:92|320:148,1,97.4999955368044,8|0,0:0|0:0,0:0:0:0:
296,288,257166,1,2,0:0:0:0:
208,160,257270,2,0,P|164:152|108:160,1,97.4999955368044,0|2,0:0|0:0,0:0:0:0:
388,260,257478,6,0,P|416:180|372:44,1,194.999991073609,4|0,0:0|0:0,0:0:0:0:
200,280,257791,2,0,L|212:384,1,97.4999955368044,2|0,0:0|0:0,0:0:0:0:
304,152,257999,1,2,0:0:0:0:
144,200,258103,2,0,B|100:208|100:208|40:196,1,97.4999955368044,2|0,0:0|0:0,0:0:0:0:
208,24,258312,6,0,B|240:80|240:80|220:216,1,194.999991073609,4|0,0:1|0:0,0:0:0:0:
56,372,258624,2,0,L|68:276,1,97.4999955368044,2|0,0:0|0:0,0:0:0:0:
96,104,258833,1,2,0:0:0:0:
220,216,258937,2,0,P|276:224|332:212,1,97.4999955368044,0|2,0:0|0:0,0:0:0:0:
460,84,259145,6,0,P|360:60|260:84,1,194.999991073609
200,276,259458,2,0,P|196:324|208:380,1,97.4999955368044,2|0,0:0|0:0,0:0:0:0:
468,188,259666,2,0,P|472:140|460:84,1,97.4999955368044,2|0,0:0|0:0,0:0:0:0:
132,104,259874,2,0,P|128:152|140:208,1,97.4999955368044,2|0,0:0|0:0,0:0:0:0:
364,292,260083,6,0,L|264:300,1,97.4999955368044,4|0,0:0|0:0,0:0:0:0:
44,216,260291,2,0,L|144:208,1,97.4999955368044,2|0,0:0|0:0,0:0:0:0:
356,192,260499,1,2,0:0:0:0:
172,280,260603,2,0,P|168:340|180:380,1,97.4999955368044,0|2,0:0|0:0,0:0:0:0:
404,312,260812,6,0,B|448:284|448:284|300:268,1,194.999991073609,4|0,0:0|0:0,0:0:0:0:
104,248,261124,2,0,P|86:197|92:140,1,97.4999955368044,2|0,0:3|0:0,0:0:0:0:
300,50,261333,2,0,P|317:100|311:157,1,97.4999955368044
260,316,261541,1,2,0:3:0:0:
204,184,261645,1,0,0:0:0:0:
116,300,261749,6,0,B|20:268|16:164|16:164|72:184,1,225.000008583069,4|0,0:0|0:0,0:0:0:0:
192,224,262062,6,0,B|264:244|264:244|312:232|312:232|380:244|380:244|456:224,1,255.000004863739,4|0,0:0|0:0,0:0:0:0:
504,112,262374,6,0,B|476:48|404:48|404:48|396:112|396:112|380:160,1,240,4|0,0:1|0:0,0:0:0:0:
316,312,262687,6,0,B|292:344|244:340|244:340|228:288|228:288|260:208|260:208|260:144,1,269.999991760254,4|0,0:1|0:0,0:0:0:0:
212,32,262999,6,0,P|204:76|192:112,1,69.9999978637696,8|0,0:1|0:0,0:0:0:0:
96,192,263138,1,8,0:1:0:0:
88,200,263208,2,0,L|176:196,1,69.9999978637696,8|0,0:1|0:0,0:0:0:0:
340,188,263346,1,8,0:1:0:0:
340,188,263416,1,8,0:1:0:0:
244,328,263520,6,0,B|216:268|232:204|232:204|248:144|232:84,1,240,4|0,0:0|0:0,0:0:0:0:
88,36,263833,6,0,P|40:168|140:200,1,269.999991760254,4|0,0:0|0:0,0:0:0:0:
324,148,264145,6,0,B|400:112|504:124|504:124|444:180,1,255.000004863739,4|0,0:1|0:0,0:0:0:0:
312,296,264458,6,0,B|288:324|268:364|268:364|264:248|232:152,1,284.999992389679,4|0,0:1|0:0,0:0:0:0:
100,104,264718,5,8,0:0:0:0:
92,108,264770,2,0,B|72:152|72:152|120:140|176:132,1,142.49999619484,8|8,0:0|0:3,0:0:0:0:
364,112,264978,5,0,3:0:0:0:
140,40,265083,1,10,0:0:0:0:
136,44,265708,6,0,L|128:124,1,75
328,184,265916,2,0,L|320:104,1,75
160,276,266124,1,0,0:0:0:0:
152,284,266228,1,0,0:0:0:0:
144,292,266333,2,0,P|16:200|72:120,1,269.999991760254,4|0,0:1|0:0,0:0:0:0:
164,144,266749,6,0,P|196:156|244:160,1,75,6|0,0:0|0:0,0:0:0:0:
404,100,266958,2,0,P|372:88|324:84,1,75,8|0,0:0|0:0,0:0:0:0:
112,204,267166,2,0,P|84:152|132:72,1,150,2|0,0:0|0:0,0:0:0:0:
244,160,267478,1,0,0:0:0:0:
356,84,267583,5,2,0:0:0:0:
364,80,267687,2,0,L|356:160,1,75
248,308,267895,1,0,0:0:0:0:
240,316,267999,2,0,L|324:308,1,75,2|0,0:0|0:0,0:0:0:0:
488,248,268208,2,0,L|404:240,1,75
160,216,268416,6,0,L|172:300,1,75,2|0,0:0|0:0,0:0:0:0:
400,320,268624,2,0,L|412:236,1,75,8|0,0:0|0:0,0:0:0:0:
304,72,268833,1,2,0:0:0:0:
176,292,269041,2,0,L|260:284,1,75
480,264,269249,5,2,0:0:0:0:
356,160,269353,2,0,L|344:236,1,75
404,356,269562,1,0,0:0:0:0:
504,172,269666,2,0,L|424:180,1,75,2|0,0:0|0:0,0:0:0:0:
232,312,269874,2,0,L|312:304,1,75
472,336,270083,6,0,L|464:256,1,75,4|0,0:1|0:0,0:0:0:0:
384,84,270291,2,0,L|376:164,1,75,8|0,0:0|0:0,0:0:0:0:
308,304,270499,2,0,P|228:344|144:308,1,150,2|0,0:0|0:0,0:0:0:0:
100,232,270812,1,0,0:0:0:0:
224,240,270916,5,2,0:0:0:0:
224,240,271020,1,0,0:0:0:0:
168,124,271124,2,0,L|181:73,2,50
161,322,271333,2,0,L|110:335,2,50,2|0|0,0:0|0:0|0:0,0:0:0:0:
337,227,271541,2,0,L|373:263,2,50
196,248,271749,6,0,L|116:244,1,75,2|0,0:0|0:0,0:0:0:0:
244,120,271958,2,0,L|324:124,1,75,8|0,0:0|0:0,0:0:0:0:
332,232,272166,2,0,P|356:300|328:380,1,150,2|0,0:0|0:0,0:0:0:0:
224,304,272478,1,0,0:0:0:0:
112,360,272583,2,0,L|120:276,1,75,2|0,0:0|0:0,0:0:0:0:
164,80,272791,2,0,L|172:164,1,75
224,312,272999,1,8,0:0:0:0:
288,350,273103,1,0,3:0:0:0:
363,342,273208,1,0,3:0:0:0:
417,291,273312,6,0,P|436:204|412:128,1,165.000005035401,4|0,0:0|0:0,0:0:0:0:
256,216,273624,2,0,P|206:227|168:224,1,82.5000025177003,4|0,0:1|0:0,0:0:0:0:
76,112,273833,2,0,B|124:88|124:88|240:96,1,165.000005035401,2|0,0:0|0:0,0:0:0:0:
352,104,274145,6,0,P|400:184|380:280,1,172.500003290176,2|2,0:1|0:1,0:0:0:0:
312,352,274458,1,2,0:1:0:0:
256,212,274562,1,2,0:1:0:0:
200,340,274666,2,0,B|148:360|148:360|32:340,1,172.500003290176,8|2,0:0|0:1,0:0:0:0:
140,240,274978,6,0,P|164:144|136:60,1,179.999994506836,8|0,0:0|0:0,0:0:0:0:
4,156,275291,2,0,B|28:168|28:168|100:164,1,89.9999972534181,4|0,0:1|0:0,0:0:0:0:
240,136,275499,2,0,B|276:124|276:124|264:268,1,179.999994506836,2|0,0:0|0:0,0:0:0:0:
104,360,275812,6,0,B|60:376|60:376|72:232,1,187.5,2|2,0:1|0:1,0:0:0:0:
88,64,276124,1,2,0:1:0:0:
172,188,276228,1,8,0:0:0:0:
268,72,276333,2,0,B|280:36|280:36|228:52|228:52|180:36|124:52,1,187.5,2|0,0:0|0:0,0:0:0:0:
12,160,276645,6,0,B|60:192|60:192|104:184|104:184|152:200|212:184,1,194.999991073609,10|0,0:0|0:0,0:0:0:0:
324,132,276958,2,0,P|460:176|364:344,1,389.999982147218,4|0,0:0|0:0,0:0:0:0:
240,324,277478,6,0,B|224:264|224:264|244:184|244:184|228:116,1,202.500000772476,10|0,0:0|0:0,0:0:0:0:
11,259,277791,1,8,0:0:0:0:
64,332,277895,1,8,0:0:0:0:
152,352,277999,1,8,0:0:0:0:
240,330,278103,2,0,B|261:289|261:289|251:221,1,101.250000386238,8|0,0:3|0:0,0:0:0:0:
224,52,278312,1,4,0:0:0:0:
104,240,278624,6,0,L|180:236,1,67.4999979400635
324,228,278833,1,8,0:0:0:0:
228,148,278937,2,0,P|212:88|232:16,1,134.999995880127,8|0,0:0|0:0,0:0:0:0:
380,88,279249,6,0,L|372:168,1,67.4999979400635
356,296,279458,1,0,3:0:0:0:
232,224,279562,2,0,L|244:360,1,134.999995880127,8|0,3:0|0:0,0:0:0:0:
360,288,279874,6,0,L|352:360,1,67.4999979400635
172,348,280083,1,0,3:0:0:0:
308,244,280187,2,0,L|324:92,1,134.999995880127,8|0,3:0|0:0,0:0:0:0:
224,176,280499,6,0,B|184:184|184:184|152:180,1,67.4999979400635
44,160,280708,1,0,3:0:0:0:
116,240,280812,1,8,0:0:0:0:
180,112,280916,2,0,L|188:40,1,67.4999979400635,8|0,0:0|0:0,0:0:0:0:
228,256,281124,2,0,L|236:328,1,67.4999979400635,8|0,0:3|0:0,0:0:0:0:
328,104,281333,5,8,0:0:0:0:
348,244,281437,1,8,3:0:0:0:
436,160,281541,1,0,3:0:0:0:
248,176,281645,1,12,0:0:0:0:
