osu file format v14

[General]
AudioFilename: audio.mp3
AudioLeadIn: 0
PreviewTime: 61248
Countdown: 0
SampleSet: Soft
StackLeniency: 0.7
Mode: 0
LetterboxInBreaks: 0
WidescreenStoryboard: 1

[Editor]
Bookmarks: 1749,14686,28436,61353,74686,88436,101769,128416,147999,161749,188416,201749,223416,236333,249666,265708
DistanceSpacing: 1.2
BeatDivisor: 4
GridSize: 4
TimelineZoom: 3.019999

[Metadata]
Title:Seyana.
TitleUnicode:Seyana.
Artist:GYARI
ArtistUnicode:GYARI
Creator:TetMax
Version:Wakaru(Hakushiki)
Source:
Tags:ココアシガレットP cocoa cigarette P 何でも言うことを聞いてくれるアカネチャン Nandemo Iukoto Wo Kiite Kureru Akane-Chan VOICEROID 琴葉茜 Kotonoha Akane 結月ゆかり Yuzuki Yukari 琴葉葵 Aoi 弦巻マキ Tsurumaki Maki 東北きりたん Tohoku Kiritan Touhoku なきゃむりゃ Nakyamurya Japanese Novelty
BeatmapID:2083462
BeatmapSetID:788126

[Difficulty]
HPDrainRate:5.5
CircleSize:4
OverallDifficulty:8.3
ApproachRate:9.3
SliderMultiplier:2.8
SliderTickRate:2

[Events]
//Background and Video events
Video,608,"seyana_light.avi"
0,0,"akanechanBG.jpg",0,0
//Break Periods
//Storyboard Layer 0 (Background)
//Storyboard Layer 1 (Fail)
//Storyboard Layer 2 (Pass)
//Storyboard Layer 3 (Foreground)
//Storyboard Layer 4 (Overlay)
//Storyboard Sound Samples

[TimingPoints]
83,416.666666666667,4,2,1,50,1,0
1541,-125,4,2,5,50,0,0
8416,-100,4,2,20,70,0,0
9978,-100,4,2,21,70,0,0
10812,-100,4,2,20,70,0,0
11645,-100,4,2,7,60,0,0
11958,-100,4,2,7,40,0,0
12374,-86.9565217391304,4,2,7,55,0,0
12791,-76.9230769230769,4,2,7,70,0,0
13416,-71.4285714285714,4,2,1,80,0,0
13624,-66.6666666666667,4,2,1,80,0,0
13833,-62.5,4,2,1,80,0,0
14249,-100,4,3,1,60,0,0
15083,-100,4,2,1,70,0,0
18312,-100,4,2,1,70,0,0
18624,-100,4,2,1,70,0,0
19249,-100,4,2,1,70,0,0
20291,-100,4,2,1,70,0,0
21645,-95.2380952380952,4,2,3,80,0,0
22478,-90.9090909090909,4,2,3,80,0,0
23312,-86.9565217391304,4,2,3,80,0,0
24145,-83.3333333333333,4,2,3,80,0,0
24978,-80,4,2,3,80,0,0
25812,-76.9230769230769,4,2,3,80,0,0
26749,-111.111111111111,4,2,1,50,0,0
28416,-100,4,2,2,55,0,0
36749,-83.3333333333333,4,2,2,55,0,0
37166,-71.4285714285714,4,2,2,55,0,0
37583,-83.3333333333333,4,2,2,55,0,0
38416,-100,4,2,2,55,0,0
41749,-90.9090909090909,4,2,1,60,0,0
53624,-83.3333333333333,4,2,7,65,0,0
55083,-76.9230769230769,4,2,20,70,0,0
55812,-90.9090909090909,4,2,20,70,0,0
56645,-71.4285714285714,4,2,20,70,0,0
57478,-83.3333333333333,4,2,21,70,0,0
58312,-100,4,2,7,70,0,0
59041,-100,4,2,7,50,0,0
59145,-100,4,2,7,60,0,0
59249,-100,4,2,7,70,0,0
60083,-100,4,2,7,80,0,0
60499,-100,4,2,1,30,0,0
61749,-100,4,2,1,60,0,0
72999,-100,4,2,1,70,0,0
73208,-100,4,2,1,75,0,0
73416,-71.4285714285714,4,2,1,80,0,0
75083,-83.3333333333333,4,2,1,80,0,1
80083,-71.4285714285714,4,2,1,80,0,1
80395,-62.5,4,2,1,80,0,1
80708,-83.3333333333333,4,2,1,80,0,1
86749,-66.6666666666667,4,2,1,80,0,1
87062,-55.5555555555556,4,2,1,80,0,1
87583,-100,4,2,1,70,0,1
88416,-100,4,2,10,70,0,0
94978,-90.9090909090909,4,2,1,80,0,0
95812,-86.9565217391304,4,2,3,80,0,0
96645,-83.3333333333333,4,2,3,80,0,0
97478,-80,4,2,3,80,0,0
98312,-76.9230769230769,4,2,1,80,0,0
99145,-74.0740740740741,4,2,3,80,0,0
100291,-83.3333333333333,4,2,15,60,0,0
101749,-100,4,2,15,50,0,0
115083,-90.9090909090909,4,2,1,60,0,0
126958,-83.3333333333333,4,2,1,60,0,0
128416,-76.9230769230769,4,2,20,70,0,0
129145,-90.9090909090909,4,2,20,70,0,0
129978,-71.4285714285714,4,2,20,70,0,0
130812,-83.3333333333333,4,2,21,70,0,0
131645,-100,4,2,7,70,0,0
132374,-100,4,2,7,50,0,0
132478,-100,4,2,7,60,0,0
132583,-100,4,2,7,70,0,0
133416,-100,4,2,7,80,0,0
133833,-100,4,2,1,30,0,0
135083,-100,4,2,10,60,0,0
145916,-100,4,2,1,60,0,0
146333,-100,4,2,1,70,0,0
146541,-100,4,2,1,75,0,0
146749,-71.4285714285714,4,2,1,80,0,0
148416,-83.3333333333333,4,2,1,80,0,1
153416,-71.4285714285714,4,2,1,80,0,1
153728,-62.5,4,2,1,80,0,1
154041,-83.3333333333333,4,2,1,80,0,1
160083,-66.6666666666667,4,2,1,80,0,1
160395,-55.5555555555556,4,2,1,80,0,1
160916,-100,4,2,1,70,0,1
161749,-100,4,2,10,70,0,0
174562,-100,4,3,1,70,0,0
175083,-100,4,2,10,70,0,0
186333,-100,4,3,1,70,0,0
186958,-76.9230769230769,4,2,10,70,0,0
188416,-100,4,2,2,55,0,0
195083,-100,4,2,15,55,0,0
195291,-100,4,2,2,55,0,0
200083,-100,4,2,1,55,0,0
201749,-90.9090909090909,4,2,1,60,0,0
201853,-90.9090909090909,4,2,2,60,0,0
207999,-90.9090909090909,4,2,1,60,0,0
208520,-90.9090909090909,4,2,2,60,0,0
213624,-83.3333333333333,4,2,2,65,0,0
214458,-83.3333333333333,4,2,1,65,0,0
215083,-76.9230769230769,4,2,20,70,0,0
215812,-90.9090909090909,4,2,20,70,0,0
216645,-71.4285714285714,4,2,20,70,0,0
217478,-83.3333333333333,4,2,21,70,0,0
218312,-71.4285714285714,4,2,20,70,0,0
219145,-62.5,4,2,20,70,0,0
219978,-100,4,2,7,70,0,0
220708,-100,4,2,7,50,0,0
220812,-100,4,2,7,60,0,0
220916,-100,4,2,7,70,0,0
221749,-100,4,2,7,80,0,0
222166,-100,4,2,1,30,0,0
223416,-100,4,2,1,60,0,0
234666,-100,4,2,1,70,0,0
234874,-100,4,2,1,75,0,0
235083,-71.4285714285714,4,2,1,80,0,0
236749,-83.3333333333333,4,2,4,80,0,1
241749,-71.4285714285714,4,2,1,80,0,1
242062,-62.5,4,2,1,80,0,1
242374,-83.3333333333333,4,2,1,80,0,1
243416,-83.3333333333333,4,2,4,80,0,1
248416,-66.6666666666667,4,2,1,80,0,1
248728,-55.5555555555556,4,2,1,80,0,1
249249,-83.3333333333333,4,2,1,80,0,1
250083,-76.9230769230769,4,2,4,80,0,1
254145,-76.9230769230769,4,2,2,80,0,1
254458,-76.9230769230769,4,2,1,80,0,1
255083,-66.6666666666667,4,2,1,80,0,1
255291,-58.8235294117647,4,2,1,80,0,1
255603,-52.6315789473684,4,2,1,80,0,1
255916,-62.5,4,2,1,80,0,1
256124,-76.9230769230769,4,2,1,80,0,1
256749,-76.9230769230769,4,2,4,80,0,1
260812,-76.9230769230769,4,2,2,80,0,1
261020,-76.9230769230769,4,2,1,80,0,1
261749,-66.6666666666667,4,2,1,80,0,1
262062,-58.8235294117647,4,2,1,80,0,1
262374,-62.5,4,2,1,80,0,1
262687,-55.5555555555556,4,2,1,80,0,1
262999,-71.4285714285714,4,2,1,80,0,1
263069,-71.4285714285714,4,2,1,40,0,1
263346,-71.4285714285714,4,2,1,60,0,1
263416,-71.4285714285714,4,2,1,80,0,1
263520,-62.5,4,2,1,80,0,1
263833,-55.5555555555556,4,2,1,80,0,1
264145,-58.8235294117647,4,2,1,80,0,1
264458,-52.6315789473684,4,2,1,80,0,1
265083,-83.3333333333333,4,2,21,80,0,0
265708,-100,4,2,1,20,0,0
266333,-83.3333333333333,4,2,1,70,0,0
266749,-100,4,2,10,70,0,0
273312,-90.9090909090909,4,2,10,80,0,0
274145,-86.9565217391304,4,2,10,80,0,0
274978,-83.3333333333333,4,2,10,80,0,0
275812,-80,4,2,10,80,0,0
276645,-76.9230769230769,4,2,10,80,0,0
277478,-74.0740740740741,4,2,10,80,0,0
278312,-111.111111111111,4,2,1,80,0,0

[Colours]
Combo1 : 223,140,255
Combo2 : 255,124,117
Combo3 : 130,170,255
Combo4 : 255,209,51

[HitObjects]
124,160,1541,6,0,L|64:164,2,56,0|0|8,0:0|0:0|0:0,0:0:0:0:
400,76,2166,2,0,B|420:140|420:140|408:192,1,112
356,356,2583,1,0,0:0:0:0:
300,144,2791,2,0,L|236:152,1,56
120,184,2999,2,0,L|80:180,3,37.3333333333333
235,347,3416,5,8,0:0:0:0:
339,211,3624,2,0,L|331:147,1,56
176,132,3833,2,0,L|192:12,1,112
326,291,4249,1,0,0:0:0:0:
452,72,4458,2,0,B|376:92|376:92|336:88,1,112
220,68,4770,2,0,L|228:144,1,56
287,365,5083,6,0,B|323:325|323:325|330:257,1,112,8|0,0:0|0:0,0:0:0:0:
374,17,5499,2,0,L|365:134,1,112
208,296,5916,6,0,L|144:292,1,56
20,232,6124,2,0,L|84:236,1,56
232,200,6333,2,0,L|168:196,1,56
32,136,6541,2,0,L|96:140,1,56
244,96,6749,6,0,L|252:56,5,37.3333333333333
288,144,7166,2,0,B|304:196|304:196|292:264,1,112
272,328,7478,1,0,0:0:0:0:
184,304,7583,1,8,0:1:0:0:
246,54,7791,5,8,0:0:0:0:
424,240,7999,1,8,0:0:0:0:
424,248,8416,6,0,P|352:268|276:260,1,140,4|0,0:0|0:0,0:0:0:0:
72,184,8833,1,8,0:0:0:0:
160,120,8937,2,0,B|172:168|172:168|168:188,1,70,8|0,0:0|0:0,0:0:0:0:
128,292,9145,6,0,P|168:360|328:284,1,280,4|0,0:1|0:0,0:0:0:0:
288,188,9666,1,8,0:0:0:0:
228,276,9770,2,0,L|300:284,1,70,8|0,0:0|0:0,0:0:0:0:
404,252,9978,6,0,B|420:188|420:188|408:152|408:152|424:104|400:40|400:40|376:76|348:96,1,280,2|0,0:0|0:0,0:0:0:0:
252,120,10499,1,8,0:0:0:0:
152,76,10603,2,0,L|160:156,1,70,8|0,0:0|0:0,0:0:0:0:
176,256,10812,6,0,B|160:312|112:332|112:332|36:296|60:156,1,280,4|0,0:0|0:0,0:0:0:0:
80,80,11333,1,0,3:0:0:0:
140,96,11437,1,0,3:0:0:0:
200,112,11541,1,0,3:0:0:0:
260,128,11645,6,0,B|328:144|328:144|468:104,1,210,4|0,0:0|0:0,0:0:0:0:
356,320,12166,1,0,0:0:0:0:
120,220,12374,1,0,0:0:0:0:
104,252,12478,1,0,0:0:0:0:
88,284,12583,2,0,L|256:276,1,161.000003070831,2|0,0:1|0:0,0:0:0:0:
484,104,12999,2,0,L|300:92,1,181.999991668702,2|0,0:1|0:0,0:0:0:0:
72,68,13416,6,0,P|44:136|48:184,1,97.9999970092774,8|0,0:0|0:0,0:0:0:0:
136,336,13624,2,0,P|164:280|168:200,1,105.000004005432,8|0,0:0|0:0,0:0:0:0:
220,52,13833,2,0,P|308:24|404:212,1,336,8|8,0:0|0:3,0:0:0:0:
348,260,14249,5,0,0:0:0:0:
294,276,14353,1,0,0:0:0:0:
241,273,14458,1,0,0:0:0:0:
196,253,14562,1,0,0:0:0:0:
156,232,14666,1,0,0:0:0:0:
116,227,14770,1,0,0:0:0:0:
82,239,14874,1,0,0:0:0:0:
60,262,14978,1,0,0:0:0:0:
47,286,15083,6,0,L|53:370,1,70,4|0,0:0|0:0,0:0:0:0:
240,356,15291,2,0,L|246:282,1,70,8|0,0:0|0:0,0:0:0:0:
116,156,15499,2,0,P|108:84|140:16,1,140
240,104,15812,2,0,B|292:120|292:120|376:104,1,140
504,68,16124,2,0,L|496:152,1,70,8|0,0:0|0:0,0:0:0:0:
480,292,16333,2,0,P|396:324|340:304,1,140,2|0,0:0|0:0,0:0:0:0:
112,96,16749,6,0,L|116:168,1,70
196,352,16958,2,0,L|204:276,1,70,8|0,0:0|0:0,0:0:0:0:
40,164,17166,2,0,P|4:236|32:304,1,140
112,376,17478,2,0,B|152:380|152:380|256:360,1,140
372,292,17791,2,0,P|376:252|368:216,1,70,8|0,0:0|0:0,0:0:0:0:
228,260,17999,2,0,B|152:276|152:276|76:264,1,140,2|0,0:0|0:0,0:0:0:0:
12,196,18312,6,0,P|12:132|68:80,1,140
148,144,18624,2,0,L|156:192,2,46.6666666666667,8|0|0,0:0|0:0|0:0,0:0:0:0:
204,64,18833,2,0,L|212:16,2,46.6666666666667
276,132,19041,2,0,L|284:184,2,46.6666666666667
340,60,19249,6,0,P|388:48|424:52,1,70
508,84,19458,1,8,0:0:0:0:
428,144,19562,2,0,B|408:188|408:188|420:288,1,140,2|0,0:0|0:0,0:0:0:0:
488,368,19874,2,0,B|508:324|508:324|496:224,1,140,0|0,0:0|1:0,0:0:0:0:
260,356,20291,5,10,0:0:0:0:
84,156,20499,1,0,1:0:0:0:
126,137,20603,1,0,1:0:0:0:
172,132,20708,1,0,1:0:0:0:
216,136,20812,1,0,1:0:0:0:
259,150,20916,1,0,1:0:0:0:
68,340,21124,1,8,0:0:0:0:
360,340,21333,1,0,1:0:0:0:
400,256,21437,2,0,L|392:176,1,70,8|0,0:0|0:0,0:0:0:0:
363,56,21645,6,0,P|289:25|213:47,1,146.999995513916,4|0,0:1|0:0,0:0:0:0:
101,133,21958,2,0,L|177:125,1,73.4999977569581,2|0,0:0|0:0,0:0:0:0:
282,156,22166,2,0,B|302:208|302:208|290:308,1,146.999995513916
139,373,22478,6,0,B|119:321|119:321|131:217,1,154.000004699707,2|0,0:0|0:0,0:0:0:0:
147,116,22791,1,8,0:0:0:0:
221,214,22895,1,2,0:0:0:0:
228,221,22999,2,0,B|264:257|264:257|291:147,1,154.000004699707,2|0,0:0|0:0,0:0:0:0:
327,55,23312,6,0,P|388:29|480:70,1,161.000003070831
502,171,23624,1,8,0:0:0:0:
396,136,23728,2,0,B|320:112|320:112|156:144,1,241.500004606247,4|0,0:1|0:0,0:0:0:0:
60,216,24145,6,0,B|136:240|136:240|232:220,1,167.999994873047,2|0,0:0|0:0,0:0:0:0:
320,200,24458,1,8,0:0:0:0:
384,288,24562,1,2,0:0:0:0:
388,296,24666,2,0,B|328:312|328:312|248:288|248:288|208:296,1,167.999994873047,2|0,0:0|0:0,0:0:0:0:
96,312,24978,6,0,P|69:226|114:144,1,175
184,236,25291,2,0,P|214:119|28:65,1,350,4|0,0:0|0:0,0:0:0:0:
8,160,25812,6,0,L|108:152,1,90.9999958343508
272,236,26020,2,0,L|172:244,1,90.9999958343508,2|8,0:0|0:0,0:0:0:0:
20,268,26228,1,2,0:0:0:0:
100,344,26333,2,0,B|152:364|152:364|288:352,1,181.999991668702,10|0,0:0|0:0,0:0:0:0:
376,344,26645,1,8,0:0:0:0:
384,340,26749,1,8,0:0:0:0:
116,188,26958,5,0,0:0:0:0:
408,224,27166,1,8,0:1:0:0:
412,220,27270,2,0,L|420:144,1,62.9999980773926,8|0,0:1|0:0,0:0:0:0:
120,196,27583,5,0,0:0:0:0:
404,88,27791,1,0,0:0:0:0:
408,96,27895,2,0,B|428:160|428:160|412:288,1,188.999994232178,0|0,0:0|3:0,0:0:0:0:
96,164,28416,6,0,B|140:144|140:144|244:152,1,140,4|0,0:0|0:0,0:0:0:0:
492,248,28833,2,0,L|504:168,1,70,8|0,0:0|0:0,0:0:0:0:
344,88,29041,1,0,0:0:0:0:
320,168,29145,1,0,0:0:0:0:
348,248,29249,2,0,L|336:328,1,70,8|0,0:0|0:0,0:0:0:0:
128,236,29458,6,0,L|208:228,1,70
416,192,29666,1,8,0:0:0:0:
80,164,29874,1,0,0:0:0:0:
308,56,30083,6,0,P|312:108|308:144,1,70,8|0,0:0|0:0,0:0:0:0:
224,300,30291,2,0,P|220:248|224:212,1,70
444,248,30499,2,0,P|460:172|444:104,1,140,8|0,0:0|0:0,0:0:0:0:
128,288,30916,5,8,0:0:0:0:
164,24,31124,1,0,0:0:0:0:
380,284,31333,1,8,0:0:0:0:
344,32,31541,1,0,0:0:0:0:
132,280,31749,5,8,0:0:0:0:
187,322,31853,1,0,0:0:0:0:
255,336,31958,1,0,0:0:0:0:
323,320,32062,1,0,0:0:0:0:
379,278,32166,2,0,P|387:224|387:202,1,70,8|0,0:0|0:0,0:0:0:0:
310,45,32374,2,0,P|302:99|302:121,1,70
280,264,32583,2,0,B|232:288|232:288|132:272,1,140,8|0,0:0|0:0,0:0:0:0:
32,112,32999,1,8,0:0:0:0:
101,78,33103,1,0,0:0:0:0:
173,104,33208,2,0,P|218:113|263:115,1,70
392,80,33416,6,0,L|380:228,1,140,8|0,0:0|0:0,0:0:0:0:
164,376,33833,2,0,L|152:228,1,140,8|0,0:0|0:0,0:0:0:0:
64,40,34249,6,0,P|56:76|56:116,1,70,8|0,0:0|0:0,0:0:0:0:
152,232,34458,2,0,P|184:236|228:236,1,70
304,44,34666,2,0,P|272:40|228:40,1,70,8|0,0:0|0:0,0:0:0:0:
420,240,34874,2,0,P|428:204|428:164,1,70,2|0,0:0|0:0,0:0:0:0:
224,228,35083,6,0,P|156:234|81:203,1,140,8|0,0:0|0:0,0:0:0:0:
324,128,35499,1,8,0:0:0:0:
109,59,35708,1,0,0:0:0:0:
77,129,35812,1,0,0:0:0:0:
97,203,35916,2,0,P|124:219|165:228,1,70,8|0,0:0|0:0,0:0:0:0:
324,128,36124,1,0,0:0:0:0:
396,100,36228,1,0,0:0:0:0:
472,80,36333,2,0,L|464:160,1,70,8|0,0:0|0:0,0:0:0:0:
404,328,36541,2,0,L|396:248,1,70
320,128,36749,6,0,P|224:128|280:236,1,251.999992309571,8|0,0:0|0:0,0:0:0:0:
332,128,37166,6,0,P|212:128|272:248,1,293.999991027832,8|0,0:0|0:0,0:0:0:0:
412,232,37583,6,0,P|424:184|420:144,1,83.9999974365235,8|0,0:0|0:0,0:0:0:0:
276,176,37791,1,0,0:0:0:0:
272,172,37895,1,0,0:0:0:0:
220,104,37999,2,0,P|340:120|288:256,1,279.999991455078,8|0,0:0|0:0,0:0:0:0:
284,336,38416,5,8,0:0:0:0:
280,344,38520,1,0,0:0:0:0:
276,352,38624,2,0,L|204:348,1,70
36,288,38833,1,8,0:0:0:0:
32,280,38937,2,0,B|76:252|76:252|176:260,1,140
352,280,39249,6,0,P|384:200|380:144,1,140,8|0,0:0|0:0,0:0:0:0:
356,284,39562,2,0,P|431:243|464:197,1,140
216,244,39874,1,0,0:0:0:0:
296,16,40083,1,8,0:0:0:0:
462,200,40291,6,0,P|430:204|386:202,1,70,4|0,0:0|0:0,0:0:0:0:
194,175,40499,1,0,0:0:0:0:
185,179,40603,1,0,0:0:0:0:
178,185,40708,1,0,0:0:0:0:
319,360,40916,6,0,P|331:287|323:215,1,140,8|0,0:0|0:0,0:0:0:0:
60,268,41333,1,8,0:0:0:0:
64,272,41437,1,8,0:0:0:0:
68,276,41541,1,0,3:0:0:0:
388,332,41749,6,0,P|396:296|396:244,1,77.0000023498536,4|0,0:0|0:0,0:0:0:0:
316,96,41958,2,0,P|308:132|308:184,1,77.0000023498536
256,328,42166,2,0,P|164:344|112:320,1,154.000004699707,8|0,0:1|0:0,0:0:0:0:
44,208,42478,6,0,B|92:184|92:184|196:196,1,154.000004699707
300,212,42791,1,0,0:0:0:0:
352,296,42895,1,0,0:0:0:0:
428,232,42999,2,0,L|436:148,1,77.0000023498536,8|0,0:1|0:0,0:0:0:0:
240,28,43208,2,0,L|232:112,1,77.0000023498536,2|0,0:1|0:0,0:0:0:0:
356,304,43416,6,0,L|348:224,1,77.0000023498536
320,108,43624,1,0,0:0:0:0:
276,188,43728,1,0,0:0:0:0:
208,248,43833,2,0,L|120:244,1,77.0000023498536,8|0,0:1|0:0,0:0:0:0:
12,136,44041,2,0,L|100:140,1,77.0000023498536
219,145,44249,5,0,0:0:0:0:
288,176,44353,1,0,0:0:0:0:
317,247,44458,1,0,0:0:0:0:
295,320,44562,1,0,0:0:0:0:
227,356,44666,2,0,L|216:275,1,77.0000023498536,8|0,0:1|0:0,0:0:0:0:
64,298,44874,2,0,L|75:217,1,77.0000023498536,2|0,0:1|0:0,0:0:0:0:
223,154,45083,6,0,B|240:101|240:101|218:1,1,154.000004699707
69,83,45395,2,0,P|35:140|67:228,2,154.000004699707
217,160,45916,2,0,P|273:167|310:167,1,77.0000023498536
460,108,46124,1,0,0:0:0:0:
456,104,46228,1,0,0:0:0:0:
408,52,46333,2,0,L|332:56,1,77.0000023498536,8|0,0:1|0:0,0:0:0:0:
212,156,46541,2,0,L|216:232,1,77.0000023498536,0|0,0:0|0:0,0:0:0:0:
384,328,46749,6,0,L|388:252,1,77.0000023498536
324,60,46958,2,0,L|320:136,1,77.0000023498536
308,296,47166,1,8,0:1:0:0:
248,308,47270,1,0,0:0:0:0:
196,276,47374,1,0,0:0:0:0:
136,264,47478,1,0,0:0:0:0:
80,288,47583,6,0,L|88:368,1,77.0000023498536
264,228,47791,1,0,0:0:0:0:
294,157,47895,1,0,0:0:0:0:
275,82,47999,2,0,L|192:73,1,77.0000023498536,8|0,0:1|0:0,0:0:0:0:
36,168,48208,2,0,L|119:177,1,77.0000023498536,2|0,0:1|0:0,0:0:0:0:
260,224,48416,5,0,0:0:0:0:
332,196,48520,1,0,0:0:0:0:
404,224,48624,1,0,0:0:0:0:
476,196,48728,2,0,P|496:116|468:44,1,154.000004699707
360,124,49041,2,0,P|312:132|284:132,1,77.0000023498536
132,80,49249,6,0,L|144:164,1,77.0000023498536
216,328,49458,2,0,L|228:244,1,77.0000023498536
256,52,49666,1,8,0:1:0:0:
68,316,49874,1,0,0:0:0:0:
64,308,49978,2,0,B|48:248|48:248|72:148,1,154.000004699707
224,248,50291,2,0,B|256:252|256:252|304:236,1,77.0000023498536
448,164,50499,1,8,0:1:0:0:
76,156,50708,1,0,0:0:0:0:
348,332,50916,5,0,0:0:0:0:
372,259,51020,1,0,0:0:0:0:
377,182,51124,1,0,0:0:0:0:
358,107,51228,2,0,B|340:87|340:87|317:109|283:126,1,77.0000023498536,0|8,0:0|0:1,0:0:0:0:
120,208,51437,1,0,0:0:0:0:
188,272,51541,2,0,L|272:268,1,77.0000023498536
460,140,51749,6,0,B|364:112|364:112|296:128,1,154.000004699707
232,148,52027,2,0,L|244:208,1,51.3333348999024
292,264,52166,2,0,L|284:348,1,77.0000023498536,8|0,0:1|0:0,0:0:0:0:
124,288,52374,2,0,L|132:372,1,77.0000023498536
352,368,52583,6,0,B|364:264|364:264|352:208,1,154.000004699707
312,20,52999,1,8,0:1:0:0:
72,216,53208,1,0,0:0:0:0:
424,196,53416,1,8,0:0:0:0:
424,204,53624,6,0,B|377:216|377:216|340:212|340:212|305:224|305:224|256:213,1,167.999994873047,2|0,0:1|0:0,0:0:0:0:
84,136,53937,2,0,B|130:123|130:123|167:127|167:127|202:115|202:115|251:126,1,167.999994873047,2|0,0:1|0:0,0:0:0:0:
372,124,54249,6,0,P|408:208|384:296,1,167.999994873047,8|0,0:0|0:0,0:0:0:0:
316,348,54562,1,0,3:0:0:0:
224,308,54666,2,0,L|216:220,1,83.9999974365235,0|0,3:0|0:0,0:0:0:0:
288,60,54874,2,0,L|296:148,1,83.9999974365235,0|0,3:0|0:0,0:0:0:0:
312,272,55083,6,0,P|408:308|496:184,1,272.999987503052,4|0,0:0|0:0,0:0:0:0:
428,92,55499,1,8,0:0:0:0:
392,204,55603,2,0,P|340:216|300:216,1,90.9999958343508,8|0,0:0|0:0,0:0:0:0:
184,128,55812,6,0,P|76:156|144:312,1,308.000009399414,4|0,0:1|0:0,0:0:0:0:
228,280,56333,1,8,0:0:0:0:
148,216,56437,2,0,B|112:208|112:208|68:216,1,77.0000023498536,8|0,0:0|0:0,0:0:0:0:
12,340,56645,6,0,B|64:356|64:356|116:344|116:344|168:360|168:360|252:356|312:276|296:196,1,391.99998803711,4|0,0:0|0:0,0:0:0:0:
252,72,57166,1,8,0:0:0:0:
180,176,57270,2,0,B|128:188|128:188|84:176,1,97.9999970092774,8|0,0:3|0:0,0:0:0:0:
300,136,57478,6,0,B|308:180|308:180|296:224|296:224|302:258|331:287|331:287|433:261|450:164,1,335.999989746094,2|0,0:0|0:0,0:0:0:0:
419,33,57999,1,8,0:0:0:0:
304,64,58103,2,0,P|259:72|212:67,1,83.9999974365235,8|0,0:3|0:3,0:3:0:0:
110,45,58312,6,0,P|11:158|161:240,1,350,4|8,0:0|0:0,0:0:0:0:
304,64,59110,2,0,L|295:14,2,46.6666666666667,8|8|8,0:0|0:0|0:0,0:0:0:0:
116,56,59458,2,0,L|28:99,1,93.3333333333333,0|0,3:0|3:0,0:0:0:0:
35,189,59666,2,0,L|118:244,1,93.3333333333333,0|0,3:0|3:0,0:0:0:0:
191,193,59874,2,0,L|198:94,1,93.3333333333333,0|0,3:0|3:0,0:0:0:0:
114,147,60083,1,12,0:0:0:0:
124,151,60708,6,0,L|136:71,1,70
368,148,60916,2,0,L|348:-12,1,140
120,208,61333,1,0,0:0:0:0:
440,188,61541,1,0,0:0:0:0:
264,96,61749,6,0,P|256:144|256:196,1,70,4|0,0:0|0:0,0:0:0:0:
292,312,61958,1,0,0:0:0:0:
380,244,62062,2,0,B|388:224|388:200|388:200|348:224|296:240,1,140
148,272,62374,1,0,0:0:0:0:
64,208,62478,2,0,B|40:152|80:96|80:96|92:120,1,140
152,264,62791,1,0,0:0:0:0:
432,172,62999,1,8,0:0:0:0:
164,84,63208,2,0,P|160:124|160:164,1,70
184,328,63416,5,0,0:0:0:0:
428,176,63624,1,0,0:0:0:0:
424,224,63728,1,0,0:0:0:0:
420,272,63833,1,0,0:0:0:0:
247,355,64041,1,8,0:1:0:0:
160,264,64145,2,0,B|138:236|138:236|201:236|269:227,1,140
350,220,64458,1,0,0:0:0:0:
244,64,64666,1,0,0:0:0:0:
36,211,64874,5,0,0:0:0:0:
83,272,64978,1,8,0:1:0:0:
160,264,65083,2,0,P|182:233|196:194,1,70
244,64,65291,1,0,0:0:0:0:
296,324,65499,1,8,0:0:0:0:
452,128,65708,1,0,0:0:0:0:
380,72,65812,2,0,B|352:60|320:56|320:56|316:96|316:96|292:128,1,140
204,240,66124,6,0,P|192:204|188:164,1,70
192,20,66333,1,0,0:0:0:0:
88,200,66541,2,0,P|86:162|93:122,1,70
184,16,66749,1,4,0:1:0:0:
352,184,66958,5,0,0:0:0:0:
393,188,67062,1,0,0:0:0:0:
434,186,67166,1,0,0:0:0:0:
176,348,67374,1,0,0:0:0:0:
168,344,67478,2,0,P|144:260|152:196,1,140,8|0,0:1|0:0,0:0:0:0:
184,108,67791,1,0,0:0:0:0:
448,236,67999,2,0,B|384:260|324:236|324:236|276:216|216:232,1,210
140,256,68416,5,4,0:0:0:0:
376,168,68624,2,0,P|384:116|384:96,1,70
240,20,68833,2,0,P|232:72|232:92,1,70
268,240,69041,1,0,0:0:0:0:
372,176,69145,2,0,B|428:160|428:160|508:176,1,140
384,332,69458,6,0,B|356:360|356:360|340:236,1,140,8|0,0:0|0:0,0:0:0:0:
288,124,69770,2,0,B|275:24|275:24|247:52,1,140,8|0,0:0|0:0,0:0:0:0:
124,192,70083,6,0,P|168:196|204:192,1,70,2|0,0:0|0:0,0:0:0:0:
296,132,70291,2,0,P|356:120|444:132,1,140
225,255,70708,1,0,0:0:0:0:
217,260,70812,2,0,P|157:272|69:260,1,140
221,120,71124,2,0,P|227:168|228:201,1,70
216,351,71333,1,8,0:1:0:0:
60,160,71541,1,0,0:0:0:0:
380,168,71749,5,4,0:0:0:0:
124,48,71958,1,0,0:0:0:0:
152,328,72166,1,0,0:0:0:0:
320,140,72374,1,0,0:0:0:0:
344,224,72478,2,0,P|348:284|328:368,1,140
216,272,72791,5,8,0:0:0:0:
153,264,72895,1,8,0:0:0:0:
90,269,72999,1,8,0:0:0:0:
43,216,73103,1,8,0:0:0:0:
32,146,73208,1,8,0:0:0:0:
53,79,73312,1,8,0:0:0:0:
103,32,73416,6,0,B|153:17|153:17|203:34|203:34|252:23|252:23|302:39,1,195.999994018555,4|0,0:0|0:0,0:0:0:0:
435,120,73728,2,0,B|385:135|385:135|335:118|335:118|286:129|286:129|236:113,1,195.999994018555,4|0,0:1|0:0,0:0:0:0:
138,101,74041,2,0,P|56:192|232:328,1,391.99998803711,4|0,0:0|0:0,0:0:0:0:
296,288,74562,1,8,0:0:0:0:
300,284,74666,1,8,0:0:0:0:
232,20,74874,1,8,0:0:0:0:
136,264,75083,6,0,P|84:272|52:272,1,83.9999974365235,4|0,0:0|0:0,0:0:0:0:
244,176,75291,2,0,P|296:168|328:168,1,83.9999974365235
160,76,75499,1,2,0:3:0:0:
72,176,75603,2,0,B|132:196|132:196|236:180,1,167.999994873047,0|8,0:0|0:0,0:0:0:0:
360,160,75916,6,0,P|364:204|360:248,1,83.9999974365235,2|0,0:3|0:0,0:0:0:0:
208,260,76124,2,0,P|204:304|208:348,1,83.9999974365235
368,360,76333,1,2,0:3:0:0:
436,244,76437,2,0,B|380:236|380:236|324:244|324:244|256:232,1,167.999994873047,0|8,0:0|0:0,0:0:0:0:
232,136,76749,6,0,L|331:152,1,83.9999974365235,2|0,0:3|0:0,0:0:0:0:
252,316,76958,2,0,L|153:300,1,83.9999974365235
48,248,77166,1,2,0:3:0:0:
168,220,77270,2,0,P|188:172|168:44,1,167.999994873047,0|8,0:0|0:0,0:0:0:0:
36,128,77583,6,0,B|84:148|84:148|204:136,1,167.999994873047,2|0,0:3|0:0,0:0:0:0:
448,108,77999,1,2,0:3:0:0:
260,324,78208,5,0,0:0:0:0:
248,264,78312,1,8,0:0:0:0:
236,204,78416,2,0,L|260:32,1,167.999994873047,2|0,0:3|0:0,0:0:0:0:
496,204,78833,2,0,B|444:228|444:228|328:220,1,167.999994873047,2|0,0:3|0:0,0:0:0:0:
240,212,79145,1,8,0:0:0:0:
288,132,79249,6,0,L|376:124,1,83.9999974365235,2|0,0:3|0:0,0:0:0:0:
408,308,79458,2,0,L|320:300,1,83.9999974365235,8|0,0:0|0:0,0:0:0:0:
148,204,79666,1,0,3:0:0:0:
120,235,79770,1,0,3:0:0:0:
112,276,79874,1,0,3:0:0:0:
117,317,79978,1,0,3:0:0:0:
147,355,80083,6,0,B|173:368|202:370|202:370|236:316|223:210,1,195.999994018555,4|0,0:0|0:0,0:0:0:0:
160,132,80395,6,0,P|159:67|295:32,1,224,4|0,0:1|0:0,0:0:0:0:
396,135,80708,6,0,B|311:164|311:164|161:131|161:131|63:160,1,335.999989746094,4|0,0:0|0:0,0:0:0:0:
4,312,81333,5,0,3:0:0:0:
44,320,81437,1,0,3:0:0:0:
84,328,81541,1,0,3:0:0:0:
124,336,81645,1,0,3:0:0:0:
164,344,81749,6,0,B|212:352|212:352|340:320,1,167.999994873047,4|0,0:1|0:0,0:0:0:0:
496,208,82166,1,2,0:3:0:0:
412,148,82270,2,0,P|404:100|408:56,1,83.9999974365235
320,200,82478,1,8,0:0:0:0:
248,128,82583,2,0,P|188:104|92:148,1,167.999994873047,2|0,0:3|0:0,0:0:0:0:
152,364,82999,6,0,B|184:316|184:316|180:200,1,167.999994873047,2|0,0:3|0:0,0:0:0:0:
168,76,83312,1,8,0:0:0:0:
100,156,83416,2,0,P|160:180|256:136,1,167.999994873047,2|0,0:3|0:0,0:0:0:0:
56,80,83833,6,0,B|8:64|8:64|28:188,1,167.999994873047,2|0,0:3|0:0,0:0:0:0:
56,292,84145,1,8,0:0:0:0:
96,141,84249,2,0,P|169:104|248:128,1,167.999994873047,2|0,0:3|0:0,0:0:0:0:
196,356,84666,1,2,0:3:0:0:
376,112,84874,5,0,0:0:0:0:
392,152,84978,1,8,0:0:0:0:
408,192,85083,2,0,L|388:360,1,167.999994873047,2|0,0:3|0:0,0:0:0:0:
188,144,85499,1,2,0:3:0:0:
172,184,85604,2,0,L|182:275,1,83.9999974365235
232,364,85812,1,8,0:0:0:0:
300,276,85916,6,0,B|344:244|344:244|464:256,1,167.999994873047,2|0,0:3|0:0,0:0:0:0:
196,140,86333,2,0,B|172:196|172:196|188:312,1,167.999994873047,2|0,0:3|0:0,0:0:0:0:
312,348,86645,1,8,0:0:0:0:
320,344,86749,6,0,P|376:244|340:148,1,210.000008010865,4|0,0:0|0:0,0:0:0:0:
240,232,87062,6,0,B|176:260|84:232|60:160|60:160|112:168,1,251.999992309571,4|0,0:0|0:0,0:0:0:0:
272,160,87374,6,0,P|288:100|260:32,1,125.999996154785,4|0,0:1|0:0,0:0:0:0:
176,8,87583,6,0,L|124:16,3,46.6666666666667,8|8|8|8,0:0|0:0|0:0|0:0,0:0:0:0:
180,104,87895,1,8,0:0:0:0:
104,120,87999,1,8,0:0:0:0:
77,168,88103,1,8,0:0:0:0:
69,223,88208,1,8,0:0:0:0:
79,277,88312,1,8,0:0:0:0:
110,322,88416,6,0,P|151:335|184:336,1,70,4|0,0:0|0:0,0:0:0:0:
302,272,88624,2,0,P|315:231|316:198,1,70,8|0,0:0|0:0,0:0:0:0:
155,180,88833,2,0,B|97:190|97:190|14:173,1,140,2|0,0:0|0:0,0:0:0:0:
243,41,89249,2,0,B|301:31|301:31|384:48,1,140,2|0,0:0|0:0,0:0:0:0:
490,72,89562,1,8,0:0:0:0:
425,162,89666,2,0,B|415:220|415:220|432:303,1,140,2|0,0:0|0:0,0:0:0:0:
214,234,90083,6,0,L|144:245,1,70,2|0,0:0|0:0,0:0:0:0:
299,125,90291,2,0,L|369:114,1,70,8|0,0:0|0:0,0:0:0:0:
150,171,90499,2,0,B|64:184|64:184|4:170,1,140,2|0,0:0|0:0,0:0:0:0:
312,250,90916,2,0,B|398:263|398:263|458:249,1,140,2|0,0:0|0:0,0:0:0:0:
341,98,91228,1,8,0:0:0:0:
251,196,91333,2,0,B|234:245|234:245|258:334,1,140,2|0,0:0|0:0,0:0:0:0:
471,162,91749,6,0,L|392:168,1,70,4|0,0:0|0:0,0:0:0:0:
270,86,91958,2,0,L|282:12,1,70,8|0,0:0|0:0,0:0:0:0:
354,222,92166,2,0,P|366:283|351:364,1,140,2|0,0:0|0:0,0:0:0:0:
57,361,92583,2,0,P|45:300|60:219,1,140,2|0,0:0|0:0,0:0:0:0:
118,139,92895,1,8,0:0:0:0:
207,208,92999,2,0,L|291:200,1,70,2|0,0:0|0:0,0:0:0:0:
359,113,93208,2,0,L|275:121,1,70
122,132,93416,5,2,0:0:0:0:
388,183,93624,1,8,0:0:0:0:
92,198,93833,2,0,P|76:264|96:349,1,140,2|0,0:0|0:0,0:0:0:0:
343,362,94249,2,0,P|359:296|339:211,1,140,2|0,0:0|0:0,0:0:0:0:
274,133,94562,1,8,0:0:0:0:
216,236,94666,1,2,0:0:0:0:
163,255,94770,1,8,0:0:0:0:
107,255,94874,1,0,3:0:0:0:
55,239,94978,6,0,B|38:188|38:188|58:81,1,154.000004699707,4|0,0:0|0:0,0:0:0:0:
139,7,95291,2,0,L|147:86,1,77.0000023498536,4|0,0:1|0:0,0:0:0:0:
165,189,95499,2,0,P|227:213|321:183,1,154.000004699707,2|0,0:3|0:0,0:0:0:0:
387,87,95812,6,0,P|325:63|229:94,1,161.000003070831,2|2,0:0|0:0,0:0:0:0:
159,179,96124,1,8,0:0:0:0:
63,105,96228,1,8,0:0:0:0:
56,100,96333,2,0,B|36:161|36:161|49:268,1,161.000003070831,2|0,0:3|0:0,0:0:0:0:
120,343,96645,6,0,P|215:368|305:325,1,167.999994873047,8|0,0:0|0:0,0:0:0:0:
376,250,96958,2,0,L|380:160,1,83.9999974365235,4|0,0:1|0:0,0:0:0:0:
333,56,97166,2,0,B|302:82|302:82|296:221,1,167.999994873047,2|0,0:3|0:0,0:0:0:0:
280,336,97478,6,0,P|201:367|116:334,1,175,2|2,0:0|0:0,0:0:0:0:
49,242,97791,1,2,0:0:0:0:
96,148,97895,1,8,0:0:0:0:
198,169,97999,2,0,B|260:180|260:180|381:157,1,175,2|0,0:3|0:0,0:0:0:0:
445,79,98312,6,0,B|382:67|382:67|259:91,1,181.999991668702,8|0,0:0|0:0,0:0:0:0:
187,170,98624,2,0,P|60:183|124:22,1,363.999983337403,4|0,0:0|0:0,0:0:0:0:
219,71,99145,6,0,P|287:107|402:96,1,189.000000720978,2|0,0:0|0:0,0:0:0:0:
475,28,99458,1,8,0:0:0:0:
461,102,99562,1,8,0:0:0:0:
464,177,99666,1,8,0:3:0:0:
488,248,99770,1,0,0:3:0:0:
171,184,99978,1,4,0:0:0:0:
163,190,100291,6,0,L|153:277,1,83.9999974365235
274,112,100499,1,0,0:0:0:0:
315,164,100603,1,0,0:0:0:0:
326,230,100708,1,0,0:0:0:0:
312,295,100812,1,0,0:0:0:0:
264,341,100916,2,0,L|159:330,1,83.9999974365235
45,268,101124,2,0,L|56:373,1,83.9999974365235
211,185,101333,2,0,L|200:80,1,83.9999974365235
64,24,101541,1,0,0:0:0:0:
48,88,101645,1,0,0:0:0:0:
32,152,101749,6,0,L|116:144,1,70,4|0,0:0|0:0,0:0:0:0:
276,88,101958,2,0,L|192:96,1,70
158,233,102166,2,0,P|80:249|18:225,1,140
250,157,102583,2,0,P|279:233|260:300,1,140
159,368,102895,2,0,B|150:332|150:332|159:299|159:299|149:264|149:264|159:227,1,140
197,105,103208,2,0,L|190:29,1,70,2|0,0:0|0:0,0:0:0:0:
73,169,103416,6,0,L|149:162,1,70
268,116,103624,1,2,0:0:0:0:
317,230,103728,1,0,0:0:0:0:
407,144,103833,2,0,B|421:77|421:77|401:8,1,140
247,190,104249,2,0,B|194:202|194:202|145:188|145:188|94:203|94:203|39:190,1,210
9,91,104666,1,0,0:0:0:0:
86,58,104770,1,0,0:0:0:0:
163,90,104874,2,0,P|208:99|247:95,1,70,2|0,0:0|0:0,0:0:0:0:
333,68,105083,5,2,0:0:0:0:
388,110,105187,1,0,0:0:0:0:
409,176,105291,1,0,0:0:0:0:
390,243,105395,1,0,0:0:0:0:
335,287,105499,2,0,B|302:300|302:300|270:295|270:295|232:310|193:301,1,140
83,271,105812,6,0,P|64:194|85:125,1,140
214,200,106124,2,0,P|264:209|302:207,1,70
396,199,106333,1,0,0:0:0:0:
343,101,106437,1,0,0:0:0:0:
460,87,106541,2,0,L|465:161,1,70
476,268,106749,6,0,P|398:330|286:294,1,210
258,193,107166,1,0,0:0:0:0:
373,220,107270,2,0,L|380:143,1,70
389,36,107478,1,0,0:0:0:0:
256,192,107583,12,2,108208,0:0:0:0:
213,231,108416,6,0,P|127:251|69:239,1,140,2|0,0:0|0:0,0:0:0:0:
323,299,108833,1,0,0:0:0:0:
345,232,108937,1,0,0:0:0:0:
334,162,109041,2,0,L|258:170,1,70
140,97,109249,2,0,L|151:170,1,70
182,326,109458,1,0,0:0:0:0:
271,264,109562,2,0,B|282:216|282:216|262:114,1,140
163,231,109874,2,0,P|113:240|78:238,1,70,2|0,0:0|0:0,0:0:0:0:
5,149,110083,5,0,0:0:0:0:
272,165,110291,1,2,0:0:0:0:
9,160,110499,2,0,L|17:234,1,70
279,162,110708,2,0,L|271:236,1,70
87,352,110916,2,0,L|79:278,1,70
244,321,111124,1,0,0:0:0:0:
251,313,111228,2,0,B|264:254|264:254|251:163,1,140,0|2,0:0|0:0,0:0:0:0:
67,219,111541,2,0,L|75:145,1,70,2|0,0:0|0:0,0:0:0:0:
152,24,111749,6,0,L|160:98,1,70,2|0,0:0|0:0,0:0:0:0:
183,236,111958,1,0,0:0:0:0:
252,156,112062,2,0,P|320:132|386:148,1,140
475,264,112374,2,0,P|431:270|380:268,1,70
192,240,112583,5,0,0:0:0:0:
505,172,112791,1,0,0:0:0:0:
185,233,112999,1,0,0:0:0:0:
179,226,113103,2,0,L|193:143,1,70
213,25,113312,1,0,0:0:0:0:
274,128,113416,6,0,P|321:136|356:134,1,70,2|0,0:0|0:0,0:0:0:0:
462,45,113624,2,0,P|415:37|380:39,1,70,8|0,0:0|0:0,0:0:0:0:
208,94,113833,1,0,3:0:0:0:
200,163,113937,1,0,3:0:0:0:
168,225,114041,1,0,3:0:0:0:
106,258,114145,1,8,0:0:0:0:
36,267,114249,6,0,L|48:190,1,70,0|0,3:0|3:0,0:0:0:0:
94,29,114458,2,0,L|106:106,1,70,8|8,0:0|0:0,0:0:0:0:
171,233,114666,1,8,0:0:0:0:
231,267,114770,1,8,0:0:0:0:
300,270,114874,1,0,3:0:0:0:
364,242,114978,1,8,0:0:0:0:
404,185,115083,6,0,P|411:131|402:90,1,77.0000023498536,4|0,0:0|0:0,0:0:0:0:
271,143,115291,1,2,0:0:0:0:
262,145,115395,1,0,0:0:0:0:
165,83,115499,1,0,0:0:0:0:
157,80,115603,2,0,P|155:123|149:161,1,77.0000023498536,0|2,0:0|0:0,0:0:0:0:
97,287,115812,1,0,0:0:0:0:
15,195,115916,5,0,0:0:0:0:
11,187,116020,2,0,P|60:186|95:192,1,77.0000023498536,0|2,0:0|0:0,0:0:0:0:
200,241,116228,2,0,P|260:259|360:223,1,154.000004699707,2|0,0:0|0:0,0:0:0:0:
448,138,116541,2,0,L|441:227,1,77.0000023498536,2|2,0:0|0:0,0:0:0:0:
393,363,116749,6,0,L|386:274,1,77.0000023498536
376,123,116958,1,2,0:0:0:0:
281,186,117062,2,0,B|242:198|242:198|181:190,1,77.0000023498536,2|0,0:0|0:0,0:0:0:0:
84,176,117270,1,0,0:0:0:0:
167,74,117374,2,0,P|216:194|163:283,1,231.000007049561,2|0,0:0|0:0,0:0:0:0:
79,334,117791,6,0,L|159:343,1,77.0000023498536,2|2,0:0|0:0,0:0:0:0:
287,254,117999,2,0,L|207:263,1,77.0000023498536
74,182,118208,2,0,L|154:173,1,77.0000023498536,2|2,0:0|0:0,0:0:0:0:
294,158,118416,1,0,0:0:0:0:
56,323,118624,5,2,0:0:0:0:
49,327,118728,2,0,L|71:168,1,154.000004699707,2|0,0:0|0:0,0:0:0:0:
320,312,119041,1,2,0:0:0:0:
327,316,119145,2,0,L|305:163,1,154.000004699707
131,351,119458,1,2,0:0:0:0:
123,348,119562,2,0,L|129:259,1,77.0000023498536,2|0,0:0|3:0,0:0:0:0:
123,164,119770,2,0,P|211:190|272:175,1,154.000004699707,8|0,0:3|0:0,0:0:0:0:
358,101,120083,6,0,B|306:84|306:84|258:103|199:105,1,154.000004699707,0|8,0:0|0:3,0:0:0:0:
105,79,120395,2,0,P|38:140|98:248,1,231.000007049561,2|2,0:0|0:0,0:0:0:0:
387,210,120916,6,0,L|305:204,1,77.0000023498536
123,164,121124,2,0,L|205:170,1,77.0000023498536
373,129,121333,2,0,B|392:173|392:173|379:286,1,154.000004699707,2|2,0:0|0:0,0:0:0:0:
270,367,121645,6,0,B|251:323|251:323|264:210,1,154.000004699707,4|0,0:1|0:0,0:0:0:0:
278,110,121958,1,2,0:0:0:0:
460,305,122166,2,0,P|414:314|385:314,1,77.0000023498536
261,211,122374,2,0,P|168:187|97:298,1,231.000007049561,10|0,0:0|0:0,0:0:0:0:
189,365,122791,2,0,P|198:309|197:288,1,77.0000023498536,2|2,0:0|0:0,0:0:0:0:
85,152,122999,5,0,0:0:0:0:
63,78,123103,1,0,0:0:0:0:
115,20,123208,1,2,0:0:0:0:
189,37,123312,2,0,B|251:47|311:31|311:31|294:67,1,154.000004699707,2|0,0:0|0:0,0:0:0:0:
241,159,123624,2,0,P|234:204|240:241,1,77.0000023498536,2|0,0:0|0:0,0:0:0:0:
327,322,123833,2,0,B|353:257|337:190|337:190|360:134|427:140,1,231.000007049561,8|0,0:0|0:0,0:0:0:0:
494,231,124249,6,0,L|405:229,1,77.0000023498536
309,96,124458,2,0,L|220:94,1,77.0000023498536,2|0,0:0|0:0,0:0:0:0:
94,242,124666,2,0,L|183:240,1,77.0000023498536,8|0,0:0|0:0,0:0:0:0:
347,150,124874,2,0,B|412:232|344:326|344:326|289:319|289:319|251:332|222:322,1,308.000009399414,2|2,0:0|0:0,0:0:0:0:
28,152,125499,6,0,P|68:141|109:142,1,77.0000023498536,8|0,0:0|0:0,0:0:0:0:
248,241,125708,2,0,P|208:252|167:251,1,77.0000023498536,2|0,0:0|0:0,0:0:0:0:
22,312,125916,2,0,B|5:254|5:254|25:152,1,154.000004699707,0|2,0:0|0:0,0:0:0:0:
323,280,126333,2,0,B|336:245|336:245|331:198,1,77.0000023498536
312,68,126541,1,8,0:0:0:0:
304,44,126645,1,8,0:0:0:0:
296,20,126749,1,8,0:0:0:0:
96,227,126958,6,0,B|142:238|142:238|181:231|181:231|212:239|212:239|267:227,1,167.999994873047,2|0,0:0|0:0,0:0:0:0:
395,142,127270,2,0,B|349:131|349:131|310:138|310:138|279:130|279:130|224:142,1,167.999994873047,2|0,0:0|0:0,0:0:0:0:
57,169,127583,1,2,0:0:0:0:
53,176,127999,6,0,B|39:216|39:216|54:252|54:252|38:294|38:294|54:345,1,167.999994873047,0|0,3:0|0:0,0:0:0:0:
286,369,128416,6,0,P|306:308|305:270,1,90.9999958343508,4|0,0:0|0:0,0:0:0:0:
214,96,128624,2,0,P|193:156|194:194,1,90.9999958343508
231,303,128833,1,8,0:0:0:0:
321,215,128937,2,0,L|417:223,1,90.9999958343508,8|0,0:0|0:0,0:0:0:0:
506,312,129145,6,0,B|458:340|458:340|356:332,1,154.000004699707,4|0,0:1|0:0,0:0:0:0:
229,250,129458,2,0,L|326:241,1,77.0000023498536
435,231,129666,1,8,0:0:0:0:
324,162,129770,2,0,P|309:200|305:243,1,77.0000023498536,8|0,0:0|0:0,0:0:0:0:
236,343,129978,6,0,P|104:348|69:294,1,195.999994018555,4|0,0:0|0:0,0:0:0:0:
169,166,130291,2,0,P|178:219|169:268,1,97.9999970092774
42,216,130499,1,8,0:0:0:0:
109,107,130603,2,0,B|153:87|153:87|209:94,1,97.9999970092774,8|0,0:0|0:0,0:0:0:0:
321,157,130812,6,0,P|424:186|487:133,1,167.999994873047,2|0,0:0|0:0,0:0:0:0:
510,39,131124,2,0,B|472:21|472:21|417:27,1,83.9999974365235
291,41,131333,1,8,0:0:0:0:
395,95,131437,2,0,P|402:155|390:200,1,83.9999974365235,8|0,0:3|0:0,0:0:0:0:
311,297,131645,6,0,B|298:242|298:242|313:196|313:196|302:152,1,140,4|0,0:0|0:0,0:0:0:0:
227,68,131958,2,0,P|77:67|136:214,1,350
240,192,132583,2,0,B|401:162|401:162|366:201,1,210
272,293,132999,6,0,P|262:327|263:371,1,70,0|0,3:0|0:0,0:0:0:0:
173,162,133208,2,0,P|162:127|139:91,1,70,0|0,3:0|0:0,0:0:0:0:
28,273,133416,6,0,L|175:258,1,140,4|0,0:0|0:0,0:0:0:0:
355,90,133833,2,0,L|208:75,1,140
350,255,134249,2,0,L|497:240,1,140
207,75,134666,5,0,0:0:0:0:
261,359,134874,1,0,0:0:0:0:
451,138,135083,6,0,P|403:125|376:124,1,70,4|0,0:0|0:0,0:0:0:0:
258,190,135291,1,2,0:0:0:0:
190,209,135395,1,8,0:0:0:0:
121,193,135499,2,0,P|112:155|116:110,1,70,2|0,0:0|0:0,0:0:0:0:
224,25,135708,2,0,P|233:63|229:108,1,70
196,280,135916,6,0,B|147:301|147:301|49:285,1,140,2|0,0:0|0:0,0:0:0:0:
20,125,136228,2,0,B|74:133|74:133|140:207,1,140,8|0,0:3|0:0,0:0:0:0:
268,251,136541,2,0,L|339:240,1,70,2|0,0:0|0:0,0:0:0:0:
493,144,136749,6,0,L|422:155,1,70
291,178,136958,1,2,0:0:0:0:
341,235,137062,1,0,0:0:0:0:
416,228,137166,2,0,B|425:178|425:178|410:87,1,140,2|0,0:0|0:0,0:0:0:0:
190,33,137583,6,0,P|147:119|175:180,1,140,2|0,0:0|0:0,0:0:0:0:
229,223,137895,2,0,B|351:203|351:203|332:236,1,140,8|0,0:3|0:0,0:0:0:0:
278,313,138208,2,0,P|224:325|184:316,1,70,2|0,0:0|0:0,0:0:0:0:
96,288,138416,5,0,0:0:0:0:
229,77,138624,1,2,0:0:0:0:
248,149,138728,1,8,0:0:0:0:
229,223,138833,2,0,P|225:313|242:366,1,140,2|0,0:0|0:0,0:0:0:0:
442,208,139249,2,0,B|469:180|469:180|388:189|388:189|351:183,1,140,2|0,0:0|0:0,0:0:0:0:
250,141,139562,2,0,B|223:113|223:113|305:123|305:123|341:119,1,140,8|0,0:3|0:0,0:0:0:0:
476,101,139874,1,2,0:0:0:0:
363,284,140083,6,0,P|355:324|352:362,1,70
255,153,140291,2,0,P|247:113|244:75,1,70,2|8,0:0|0:0,0:0:0:0:
140,263,140499,1,2,0:0:0:0:
135,271,140603,2,0,L|212:266,1,70
311,214,140812,6,0,B|332:179|332:179|154:188,1,210
52,191,141228,2,0,P|14:123|52:56,1,140,8|0,0:3|0:0,0:0:0:0:
137,19,141541,2,0,L|131:98,1,70,2|0,0:0|0:0,0:0:0:0:
120,251,141749,5,4,0:0:0:0:
357,208,141958,2,0,L|349:130,1,70,2|8,0:0|0:0,0:0:0:0:
196,159,142166,2,0,L|210:10,1,140,2|0,0:0|0:0,0:0:0:0:
366,214,142583,2,0,P|424:221|451:218,1,70,2|0,0:0|0:0,0:0:0:0:
323,117,142791,2,0,P|270:175|266:241,1,140
383,352,143103,2,0,P|397:275|369:216,1,140
273,296,143416,6,0,B|227:316|227:316|126:303,1,140
44,210,143728,2,0,B|90:190|90:190|191:203,1,140
288,218,144041,1,0,0:0:0:0:
53,353,144249,2,0,B|32:300|32:300|43:212,1,140,2|0,0:0|0:0,0:0:0:0:
64,115,144562,1,2,0:0:0:0:
68,110,144666,1,8,0:3:0:0:
295,213,144874,1,2,0:0:0:0:
114,295,145083,6,0,L|195:283,1,70,4|0,0:0|0:0,0:0:0:0:
371,225,145291,2,0,L|290:213,1,70,2|0,0:0|0:0,0:0:0:0:
60,200,145499,2,0,P|0:286|36:379,1,210,2|0,0:0|0:0,0:0:0:0:
202,376,145916,5,2,0:3:0:0:
219,315,146020,1,0,0:0:0:0:
224,252,146124,1,0,3:0:0:0:
217,189,146228,1,8,0:0:0:0:
212,125,146333,1,0,3:0:0:0:
237,59,146437,1,8,0:0:0:0:
296,22,146541,1,8,0:0:0:0:
365,27,146645,1,8,0:0:0:0:
427,62,146749,6,0,B|443:112|443:112|435:150|435:150|448:187|448:187|433:258,1,195.999994018555,4|0,0:0|0:0,0:0:0:0:
357,382,147062,2,0,B|341:332|341:332|349:294|349:294|336:257|336:257|351:186,1,195.999994018555,4|0,0:1|0:0,0:0:0:0:
342,70,147374,2,0,P|167:68|154:254,1,391.99998803711,4|0,0:0|0:0,0:0:0:0:
251,301,147895,1,8,0:0:0:0:
258,298,147999,1,8,0:0:0:0:
427,62,148208,1,8,0:0:0:0:
155,252,148416,6,0,L|66:247,1,83.9999974365235,4|0,0:0|0:0,0:0:0:0:
257,167,148624,2,0,L|346:172,1,83.9999974365235
162,77,148833,1,2,0:3:0:0:
96,162,148937,2,0,B|64:246|64:246|88:326,1,167.999994873047,0|8,0:0|0:0,0:0:0:0:
261,361,149249,6,0,P|275:299|273:269,1,83.9999974365235,2|0,0:3|0:0,0:0:0:0:
171,166,149458,2,0,P|217:156|261:159,1,83.9999974365235
411,187,149666,1,2,0:3:0:0:
324,90,149770,2,0,B|295:52|295:52|423:60,1,167.999994873047,0|8,0:0|0:0,0:0:0:0:
502,125,150083,6,0,P|509:161|508:209,1,83.9999974365235,2|0,0:3|0:0,0:0:0:0:
413,356,150291,2,0,P|406:320|407:272,1,83.9999974365235
402,155,150499,1,2,0:3:0:0:
324,90,150603,2,0,P|232:66|161:98,1,167.999994873047,0|8,0:0|0:0,0:0:0:0:
79,180,150916,6,0,B|49:227|49:227|172:207|172:207|247:212,1,251.999992309571,2|0,0:3|0:0,0:0:0:0:
353,221,151333,1,2,0:3:0:0:
74,98,151541,1,0,0:0:0:0:
368,212,151749,6,0,P|392:112|362:44,1,167.999994873047,2|0,0:3|0:0,0:0:0:0:
144,212,152166,2,0,P|120:112|150:44,1,167.999994873047,2|0,0:3|0:0,0:0:0:0:
255,130,152478,1,8,0:0:0:0:
360,74,152583,6,0,L|351:166,1,83.9999974365235,2|0,0:3|0:0,0:0:0:0:
277,289,152791,2,0,L|268:197,1,83.9999974365235,8|0,0:0|0:0,0:0:0:0:
178,74,152999,1,2,3:0:0:0:
151,106,153103,1,0,3:0:0:0:
135,145,153208,1,0,3:0:0:0:
128,186,153312,1,0,3:0:0:0:
131,224,153416,6,0,B|131:303|160:349|160:349|173:308|188:277,1,195.999994018555,4|0,0:0|0:0,0:0:0:0:
263,179,153728,6,0,P|413:179|443:250,1,224,4|0,0:1|0:0,0:0:0:0:
361,349,154041,6,0,B|310:280|352:196|352:196|396:105|344:21,1,335.999989746094,4|0,0:0|0:0,0:0:0:0:
205,115,154666,5,0,3:0:0:0:
173,127,154770,1,0,3:0:0:0:
140,133,154874,1,0,3:0:0:0:
106,131,154978,1,0,3:0:0:0:
73,121,155083,6,0,B|40:109|14:93|14:93|45:159|45:159|56:280,1,251.999992309571,4|0,0:1|0:0,0:0:0:0:
114,365,155499,2,0,B|144:326|144:326|153:192,1,167.999994873047,2|0,0:3|0:0,0:0:0:0:
162,97,155812,1,8,0:0:0:0:
252,168,155916,2,0,P|310:193|427:183,1,167.999994873047,2|0,0:3|0:0,0:0:0:0:
187,42,156333,6,0,B|159:95|159:95|176:223,1,167.999994873047,2|0,0:3|0:0,0:0:0:0:
199,314,156645,1,8,0:0:0:0:
275,222,156749,2,0,P|350:187|451:192,1,167.999994873047,2|0,0:3|0:0,0:0:0:0:
206,362,157166,6,0,B|178:309|178:309|190:180,1,167.999994873047,2|0,0:3|0:0,0:0:0:0:
206,77,157478,1,8,0:0:0:0:
294,156,157582,2,0,P|369:191|470:186,1,167.999994873047,2|0,0:3|0:0,0:0:0:0:
199,67,157999,5,2,0:3:0:0:
243,350,158208,1,0,0:0:0:0:
449,153,158416,6,0,P|380:127|285:150,1,167.999994873047,2|0,0:3|0:0,0:0:0:0:
94,281,158833,1,2,0:3:0:0:
30,203,158937,2,0,B|4:135|40:70|40:70|69:95,1,167.999994873047,0|8,0:0|0:0,0:0:0:0:
158,141,159249,6,0,B|222:154|222:154|331:139,1,167.999994873047,2|0,0:3|0:0,0:0:0:0:
493,302,159666,2,0,B|429:289|429:289|320:304,1,167.999994873047,2|0,0:3|0:0,0:0:0:0:
213,325,159978,1,8,0:0:0:0:
242,218,160083,6,0,B|255:152|234:67|234:67|195:119,1,210.000008010865,4|0,0:0|0:0,0:0:0:0:
87,218,160395,6,0,B|63:248|29:274|29:274|116:260|116:260|198:274,1,251.999992309571,4|0,0:0|0:0,0:0:0:0:
334,303,160708,6,0,B|375:315|375:315|282:324,1,125.999996154785,4|0,0:1|0:0,0:0:0:0:
121,341,160916,6,0,L|65:332,3,46.6666666666667,8|8|8|8,0:0|0:0|0:0|0:0,0:0:0:0:
197,273,161228,1,8,0:0:0:0:
138,212,161333,1,8,0:0:0:0:
118,159,161437,1,8,0:0:0:0:
120,103,161541,1,8,0:0:0:0:
144,52,161645,1,8,0:0:0:0:
184,13,161749,6,0,L|264:21,1,70,4|0,0:0|0:0,0:0:0:0:
293,130,161958,2,0,L|373:122,1,70,8|0,0:0|0:0,0:0:0:0:
456,24,162166,2,0,P|501:105|491:166,1,140,2|0,0:0|0:0,0:0:0:0:
401,257,162478,6,0,B|236:238|236:238|276:204,1,210,4|0,0:1|0:0,0:0:0:0:
373,114,162895,2,0,B|399:87|399:87|268:96,1,140,2|0,0:0|0:0,0:0:0:0:
163,103,163208,2,0,P|157:142|160:182,1,70,2|0,0:0|0:0,0:0:0:0:
226,333,163416,5,0,0:0:0:0:
336,173,163624,2,0,L|256:179,1,70,8|0,0:0|0:0,0:0:0:0:
154,237,163833,2,0,L|7:229,1,140,2|0,0:0|0:0,0:0:0:0:
251,108,164249,1,2,0:0:0:0:
329,166,164353,2,0,P|408:182|481:147,1,140,8|8,0:0|0:0,0:0:0:0:
502,72,164666,1,0,0:0:0:0:
208,162,164874,1,2,0:0:0:0:
462,340,165083,5,4,0:1:0:0:
380,163,165291,2,0,P|377:112|380:86,1,70,8|0,0:0|0:0,0:0:0:0:
331,258,165499,2,0,P|260:283|171:266,1,140,2|0,0:0|0:0,0:0:0:0:
12,209,165916,1,2,0:0:0:0:
108,187,166020,2,0,B|130:145|130:145|117:46,1,140,8|8,0:0|0:0,0:0:0:0:
27,28,166333,2,0,L|37:103,1,70
93,269,166541,2,0,L|103:194,1,70,2|0,0:1|0:0,0:0:0:0:
124,26,166749,5,0,0:0:0:0:
3,278,166958,1,8,0:0:0:0:
196,64,167166,2,0,P|242:147|217:224,1,140,2|0,0:0|0:0,0:0:0:0:
128,360,167582,1,2,0:0:0:0:
74,269,167687,2,0,B|123:252|123:252|223:268,1,140,8|8,0:0|0:0,0:0:0:0:
309,301,167999,5,8,0:0:0:0:
377,313,168103,1,8,0:0:0:0:
440,282,168208,1,0,3:0:0:0:
466,217,168312,1,4,0:0:0:0:
450,148,168416,6,0,L|373:154,1,70,4|0,0:0|0:0,0:0:0:0:
269,162,168624,1,8,0:0:0:0:
220,69,168728,2,0,P|166:161|288:264,1,280
368,215,169249,6,0,B|390:185|390:185|286:191,1,140
169,143,169562,2,0,B|147:113|147:113|251:119,1,140,8|0,0:0|0:0,0:0:0:0:
402,108,169874,1,2,0:0:0:0:
168,318,170083,5,0,0:0:0:0:
220,27,170291,1,8,0:0:0:0:
305,296,170499,2,0,P|400:321|452:302,1,140,2|0,0:0|0:0,0:0:0:0:
506,111,170916,1,2,0:0:0:0:
405,143,171020,2,0,B|355:153|355:153|262:136,1,140,8|8,0:0|0:0,0:0:0:0:
173,111,171333,1,2,0:0:0:0:
225,357,171541,1,0,3:0:0:0:
396,214,171749,5,4,0:1:0:0:
104,246,171958,1,8,0:0:0:0:
307,156,172166,2,0,B|322:205|322:205|309:301,1,140,2|0,0:0|0:0,0:0:0:0:
96,360,172583,1,2,0:0:0:0:
31,278,172687,2,0,B|24:241|24:241|45:135,1,140,8|8,0:0|0:0,0:0:0:0:
100,61,172999,2,0,P|154:53|179:53,1,70
259,122,173208,2,0,P|267:176|267:201,1,70,2|0,0:0|0:0,0:0:0:0:
193,334,173416,5,0,0:0:0:0:
112,156,173624,2,0,L|122:87,1,70,8|0,0:0|0:0,0:0:0:0:
199,327,173833,1,2,0:0:0:0:
104,164,174041,2,0,L|102:95,1,70
263,256,174249,6,0,P|372:263|416:242,1,140,2|0,0:0|0:0,0:0:0:0:
459,182,174562,1,0,3:0:0:0:
420,107,174666,1,0,3:0:0:0:
361,84,174770,1,0,3:0:0:0:
298,77,174874,1,0,3:0:0:0:
237,92,174978,1,4,0:0:0:0:
185,128,175083,6,0,L|194:206,1,70,4|0,0:0|0:0,0:0:0:0:
273,329,175291,2,0,L|282:251,1,70,8|0,0:0|0:0,0:0:0:0:
103,219,175499,2,0,P|80:293|115:377,1,140,2|0,0:0|0:0,0:0:0:0:
359,252,175916,1,2,0:0:0:0:
419,330,176020,2,0,B|368:350|368:350|274:329,1,140,8|8,0:0|0:0,0:0:0:0:
190,301,176333,2,0,L|202:222,1,70
246,93,176541,2,0,L|258:172,1,70,2|0,0:1|0:0,0:0:0:0:
284,319,176749,5,0,0:0:0:0:
472,201,176958,1,8,0:0:0:0:
300,109,177166,2,0,B|247:93|247:93|153:114,1,140,2|0,0:0|0:0,0:0:0:0:
6,232,177583,6,0,B|59:248|59:248|153:227,1,140,2|0,0:0|0:0,0:0:0:0:
252,195,177895,2,0,P|270:108|241:56,1,140,8|0,0:0|0:0,0:0:0:0:
168,132,178208,2,0,P|120:141|81:140,1,70,2|0,0:0|0:0,0:0:0:0:
2,122,178416,5,4,0:1:0:0:
72,363,178624,1,8,0:0:0:0:
175,129,178833,2,0,P|262:112|300:216,1,210,2|0,0:0|0:0,0:0:0:0:
230,321,179249,2,0,P|216:243|233:180,1,140,2|0,0:0|0:0,0:0:0:0:
358,101,179562,2,0,B|475:87|475:87|453:112,1,140,8|0,0:0|0:0,0:0:0:0:
387,188,179874,2,0,P|383:239|386:268,1,70,2|0,0:1|0:0,0:0:0:0:
421,365,180083,5,0,0:0:0:0:
491,162,180291,2,0,L|481:92,1,70,8|0,0:0|0:0,0:0:0:0:
383,182,180499,2,0,P|301:208|227:193,1,140,2|0,0:0|0:0,0:0:0:0:
73,57,180916,2,0,P|154:30|228:45,1,140,2|0,0:0|0:0,0:0:0:0:
298,71,181228,1,8,0:0:0:0:
239,133,181333,5,8,0:0:0:0:
213,190,181437,1,8,0:0:0:0:
211,252,181541,1,8,0:0:0:0:
230,311,181645,1,8,0:0:0:0:
274,355,181749,6,0,P|310:356|346:350,1,70,4|0,0:0|0:0,0:0:0:0:
439,259,181958,2,0,P|435:221|422:185,1,70,8|0,0:0|0:0,0:0:0:0:
302,254,182166,2,0,B|249:264|249:264|142:246,1,140,2|0,0:0|0:0,0:0:0:0:
23,84,182583,2,0,P|109:63|162:83,1,140,2|0,0:0|0:0,0:0:0:0:
244,167,182895,2,0,B|261:78|261:78|243:29,1,140,8|0,0:0|0:0,0:0:0:0:
94,175,183208,2,0,P|142:187|173:184,1,70,2|0,0:1|0:0,0:0:0:0:
326,146,183416,5,0,0:0:0:0:
90,106,183624,1,8,0:0:0:0:
381,84,183833,2,0,B|407:139|407:139|387:236,1,140,2|0,0:0|0:0,0:0:0:0:
244,346,184249,1,2,0:0:0:0:
184,261,184353,2,0,B|233:250|233:250|288:263|288:263|324:254,1,140,8|8,0:0|0:0,0:0:0:0:
403,226,184666,2,0,P|415:176|415:144,1,70
312,35,184874,2,0,P|300:85|300:117,1,70,2|0,0:1|0:0,0:0:0:0:
319,265,185083,5,4,0:1:0:0:
457,40,185291,1,8,0:0:0:0:
239,167,185499,2,0,B|185:185|185:185|82:174,1,140,2|0,0:0|0:0,0:0:0:0:
354,300,185916,2,0,P|377:232|368:152,1,140,2|0,0:0|0:0,0:0:0:0:
306,78,186228,1,8,0:0:0:0:
234,160,186333,2,0,L|309:155,1,70
442,140,186541,1,0,0:0:0:0:
474,209,186645,1,0,0:0:0:0:
444,279,186749,1,8,0:2:0:0:
436,284,186958,6,0,B|396:294|396:294|343:279,1,90.9999958343508
213,224,187166,1,0,0:0:0:0:
135,323,187270,2,0,L|230:318,1,90.9999958343508
344,272,187478,2,0,P|310:122|71:204,1,454.999979171754,4|2,0:0|0:0,0:0:0:0:
75,194,188416,6,0,P|125:198|152:194,1,70,4|0,0:0|0:0,0:0:0:0:
256,162,188624,2,0,L|247:236,1,70
225,343,188833,2,0,P|173:347|126:330,2,93.3333333333333,8|0|0,0:0|0:0|0:0,0:0:0:0:
339,304,189249,2,0,B|366:253|366:253|359:166,1,140,8|0,0:0|0:0,0:0:0:0:
172,71,189666,2,0,L|180:16,3,46.6666666666667,8|0|0|0,0:0|0:0|0:0|0:0,0:0:0:0:
65,167,190083,6,0,P|162:219|269:174,1,210,8|0,0:0|0:0,0:0:0:0:
323,113,190499,2,0,L|317:197,1,70,8|0,0:0|0:0,0:0:0:0:
309,289,190708,1,0,0:0:0:0:
309,297,190812,1,0,0:0:0:0:
225,234,190916,5,8,0:0:0:0:
220,229,191020,2,0,B|170:212|170:212|79:226,1,140
7,307,191333,2,0,L|84:294,1,70,8|0,0:0|0:0,0:0:0:0:
160,368,191541,2,0,L|237:355,1,70
344,328,191749,6,0,P|369:247|351:186,1,140,8|0,0:0|0:0,0:0:0:0:
287,106,192062,2,0,P|280:141|266:179,1,70,0|8,0:0|0:0,0:0:0:0:
190,255,192270,1,0,0:0:0:0:
197,262,192374,2,0,L|274:257,1,70
419,248,192583,2,0,P|432:202|428:152,2,93.3333333333333,8|0|0,0:0|0:0|0:0,0:0:0:0:
353,360,192999,2,0,L|207:353,1,140,8|0,0:0|0:0,0:0:0:0:
48,272,193416,5,8,0:0:0:0:
40,260,193520,1,0,0:0:0:0:
32,248,193624,2,0,L|128:244,1,70,2|0,0:0|0:0,0:0:0:0:
248,192,193833,5,8,0:0:0:0:
256,180,193937,1,0,0:0:0:0:
264,168,194041,2,0,L|168:164,1,70,2|0,0:0|0:0,0:0:0:0:
32,156,194249,6,0,P|25:119|30:76,1,70,8|0,0:0|0:0,0:0:0:0:
211,26,194458,2,0,P|218:63|213:106,1,70,2|0,0:0|0:0,0:0:0:0:
141,271,194666,2,0,P|134:234|139:191,1,70,8|0,0:0|0:0,0:0:0:0:
320,141,194875,2,0,P|327:178|322:221,1,70,2|0,0:0|0:0,0:0:0:0:
259,365,195083,5,4,0:0:0:0:
36,246,195291,1,0,0:0:0:0:
347,167,195499,1,8,0:0:0:0:
45,74,195708,1,0,0:0:0:0:
31,121,195812,1,0,0:0:0:0:
28,169,195916,2,0,L|35:247,1,70,8|0,0:0|0:0,0:0:0:0:
243,212,196124,2,0,L|236:290,1,70
99,362,196333,2,0,P|93:309|95:278,1,70,8|0,0:0|0:0,0:0:0:0:
124,157,196541,1,0,0:0:0:0:
127,150,196645,1,0,0:0:0:0:
227,200,196749,5,8,0:0:0:0:
235,206,196853,2,0,P|311:216|380:197,1,140
447,101,197166,2,0,L|364:105,1,70,8|0,0:0|0:0,0:0:0:0:
238,106,197374,2,0,P|232:60|236:25,1,70
378,197,197583,2,0,P|384:243|380:278,1,70,8|0,0:0|0:0,0:0:0:0:
277,352,197791,5,0,0:0:0:0:
270,356,197895,2,0,B|236:370|236:370|206:359|206:359|174:367|174:367|137:347,1,140
51,240,198208,1,0,0:0:0:0:
122,211,198312,1,0,0:0:0:0:
193,239,198416,6,0,P|277:202|268:30,1,280,8|8,0:0|0:0,0:0:0:0:
115,122,199041,2,0,L|192:117,1,70
365,39,199249,6,0,B|273:26|273:26|211:29,1,140,8|0,0:0|0:0,0:0:0:0:
121,40,199562,1,0,0:0:0:0:
193,117,199666,1,8,0:0:0:0:
125,198,199770,2,0,B|182:215|182:215|264:197,1,140
366,155,200083,6,0,L|357:249,1,70,8|0,0:0|0:0,0:0:0:0:
278,355,200291,2,0,L|269:261,1,70,0|0,3:0|0:0,0:0:0:0:
186,125,200499,1,0,0:0:0:0:
169,200,200603,1,8,0:0:0:0:
122,262,200708,2,0,L|39:259,1,70,8|0,0:0|0:0,0:0:0:0:
5,115,200916,6,0,L|88:118,1,70,0|0,3:0|0:0,0:0:0:0:
192,124,201124,1,8,0:0:0:0:
243,192,201228,1,8,0:0:0:0:
262,274,201333,2,0,P|316:325|404:314,1,140,0|0,3:0|3:0,0:0:0:0:
466,268,201645,1,8,0:0:0:0:
437,172,201749,6,0,L|354:177,1,77.0000023498536,4|0,0:0|0:0,0:0:0:0:
256,269,201958,2,0,L|173:264,1,77.0000023498536
76,182,202166,2,0,P|59:92|92:33,1,154.000004699707,8|0,0:0|0:0,0:0:0:0:
175,117,202478,2,0,P|225:126|268:120,1,77.0000023498536,0|8,0:0|0:0,0:0:0:0:
364,70,202687,1,0,0:0:0:0:
391,140,202791,1,0,0:0:0:0:
360,211,202895,2,0,L|276:201,1,77.0000023498536,0|8,0:0|0:0,0:0:0:0:
177,187,203103,1,0,0:0:0:0:
91,254,203208,2,0,B|64:199|64:199|86:89,1,154.000004699707,0|8,0:0|0:0,0:0:0:0:
349,214,203624,6,0,P|384:219|438:214,1,77.0000023498536
500,140,203833,2,0,L|511:88,2,51.3333348999024,8|0|0,0:0|0:0|0:0,0:0:0:0:
419,71,204041,2,0,L|414:15,2,51.3333348999024
350,129,204249,2,0,P|312:139|266:141,1,77.0000023498536,8|0,0:0|0:0,0:0:0:0:
134,77,204458,2,0,P|172:67|218:65,1,77.0000023498536
356,25,204666,2,0,B|367:72|367:72|350:150,1,102.666669799805,8|0,0:0|0:0,0:0:0:0:
308,212,204874,2,0,L|317:302,1,77.0000023498536
415,364,205083,5,8,0:0:0:0:
439,291,205187,1,0,0:0:0:0:
411,219,205291,2,0,L|330:227,1,77.0000023498536
164,297,205499,2,0,L|245:289,1,77.0000023498536,8|0,0:0|0:0,0:0:0:0:
406,213,205708,2,0,L|325:221,1,77.0000023498536
116,246,205916,6,0,P|107:184|122:124,1,102.666669799805,8|0,0:0|0:0,0:0:0:0:
175,68,206124,2,0,P|182:26|182:7,2,51.3333348999024
238,145,206333,2,0,P|245:187|245:206,2,51.3333348999024,8|0|0,0:0|0:0|0:0,0:0:0:0:
298,67,206541,2,0,P|342:59|376:61,1,77.0000023498536
467,123,206749,6,0,P|468:199|464:218,1,77.0000023498536,8|0,0:0|0:0,0:0:0:0:
432,310,206958,1,0,0:0:0:0:
353,342,207062,1,0,0:0:0:0:
277,304,207166,2,0,L|269:222,1,77.0000023498536,8|0,0:0|0:0,0:0:0:0:
230,69,207374,2,0,L|222:151,1,77.0000023498536
173,293,207583,2,0,P|97:312|28:270,1,154.000004699707,8|0,0:0|0:0,0:0:0:0:
356,260,207999,6,0,B|367:211|367:211|363:180,1,77.0000023498536,8|0,0:0|0:0,0:0:0:0:
339,62,208208,1,8,0:0:0:0:
333,56,208312,1,8,0:0:0:0:
268,160,208416,6,0,L|180:154,1,77.0000023498536,4|0,0:0|0:0,0:0:0:0:
61,137,208624,2,0,L|71:218,1,77.0000023498536
185,302,208833,1,8,0:0:0:0:
204,234,208937,1,0,0:0:0:0:
197,164,209041,1,0,0:0:0:0:
12,325,209249,6,0,L|96:318,1,77.0000023498536,8|0,0:0|0:0,0:0:0:0:
288,242,209458,2,0,L|204:235,1,77.0000023498536
14,148,209666,1,8,0:0:0:0:
80,109,209770,1,0,0:0:0:0:
156,117,209874,1,0,0:0:0:0:
218,162,209978,1,0,0:0:0:0:
293,181,210083,6,0,L|382:171,1,77.0000023498536,8|0,0:0|0:0,0:0:0:0:
493,94,210291,2,0,L|404:104,1,77.0000023498536
311,82,210499,2,0,P|308:43|315:1,1,77.0000023498536,8|0,0:0|0:0,0:0:0:0:
473,200,210708,2,0,P|476:239|469:281,1,77.0000023498536
324,361,210916,1,8,0:0:0:0:
240,80,211124,1,0,0:0:0:0:
128,301,211333,2,0,L|218:293,1,77.0000023498536,8|0,0:0|0:0,0:0:0:0:
399,203,211541,2,0,L|309:195,1,77.0000023498536
96,176,211749,5,8,0:0:0:0:
385,277,211958,1,0,0:0:0:0:
98,169,212166,1,8,0:0:0:0:
401,86,212374,1,0,0:0:0:0:
206,315,212583,5,8,0:0:0:0:
199,242,212687,1,0,0:0:0:0:
224,174,212791,1,0,0:0:0:0:
231,102,212895,1,0,0:0:0:0:
212,31,212999,1,8,0:0:0:0:
59,247,213208,5,0,0:0:0:0:
396,222,213416,1,8,0:0:0:0:
217,23,213624,6,0,B|207:56|207:56|188:82|188:82|179:112,1,83.9999974365235,2|0,0:0|0:0,0:0:0:0:
158,207,213833,1,8,0:0:0:0:
286,166,213937,2,0,B|276:199|276:199|257:225|257:225|248:255,1,83.9999974365235,2|0,0:0|0:0,0:0:0:0:
227,350,214146,1,0,0:0:0:0:
138,277,214249,6,0,L|52:285,1,83.9999974365235,8|0,0:0|0:0,0:0:0:0:
107,141,214458,1,8,0:0:0:0:
180,157,214562,1,8,0:0:0:0:
242,190,214666,1,8,0:3:0:0:
308,182,214770,1,8,0:3:0:0:
368,161,214874,1,0,3:0:0:0:
425,170,214978,1,0,3:0:0:0:
482,196,215083,6,0,P|505:263|345:347,1,272.999987503052,4|0,0:0|0:0,0:0:0:0:
288,263,215499,1,8,0:0:0:0:
404,262,215603,2,0,B|414:222|414:222|404:167,1,90.9999958343508,8|0,0:0|0:0,0:0:0:0:
320,53,215812,6,0,B|254:42|196:113|217:177|217:177|229:214|214:249|214:249|142:218,1,308.000009399414,4|0,0:1|0:0,0:0:0:0:
60,166,216333,1,8,0:0:0:0:
127,81,216437,2,0,L|211:83,1,77.0000023498536,8|0,0:0|0:0,0:0:0:0:
309,148,216645,6,0,P|444:194|442:6,1,391.99998803711,4|0,0:0|0:0,0:0:0:0:
319,32,217166,1,8,0:0:0:0:
402,101,217270,2,0,B|419:141|419:141|413:202,1,97.9999970092774,8|0,0:0|0:0,0:0:0:0:
399,304,217478,6,0,B|324:358|240:288|240:288|162:221|80:282,1,335.999989746094,2|0,0:0|0:0,0:0:0:0:
26,339,217999,1,8,0:0:0:0:
156,369,218103,2,0,P|169:319|164:281,1,83.9999974365235,8|0,0:3|0:0,0:0:0:0:
86,187,218312,6,0,P|90:78|278:155,1,391.99998803711,4|0,0:1|0:0,0:0:0:0:
255,264,218833,1,8,0:0:0:0:
180,169,218937,2,0,B|222:147|222:147|282:152,1,97.9999970092774,8|0,0:0|0:0,0:0:0:0:
407,176,219145,6,0,P|358:29|191:166,1,448,4|0,0:1|0:0,0:0:0:0:
257,264,219666,1,8,0:0:0:0:
313,166,219770,2,0,B|259:151|259:151|196:164,1,112,8|0,0:3|0:0,0:0:0:0:
147,263,219978,6,0,P|256:374|369:261,1,350,4|8,0:0|0:0,0:0:0:0:
259,79,220708,2,0,L|266:25,3,46.6666666666667,8|8|8|8,0:0|0:0|0:0|0:0,0:0:0:0:
222,254,221124,2,0,P|252:288|295:311,1,93.3333333333333,8|0,0:0|0:0,0:0:0:0:
326,190,221333,2,0,P|341:146|339:98,1,93.3333333333333,0|0,3:0|0:0,0:0:0:0:
219,131,221541,2,0,P|173:140|132:166,1,93.3333333333333,0|0,3:0|0:0,0:0:0:0:
256,192,221749,1,4,0:0:0:0:
359,74,222166,5,0,0:0:0:0:
373,295,222374,1,0,0:0:0:0:
138,88,222583,1,0,0:0:0:0:
152,309,222791,1,0,0:0:0:0:
152,309,223416,6,0,P|200:316|240:312,1,70,4|0,0:0|0:0,0:0:0:0:
296,228,223624,2,0,P|278:182|254:150,1,70
111,234,223833,1,0,0:0:0:0:
315,323,224041,1,0,0:0:0:0:
364,254,224145,2,0,B|386:193|358:136|358:136|341:159,1,140
289,233,224458,1,0,0:0:0:0:
90,166,224666,1,8,0:0:0:0:
315,83,224874,2,0,P|316:133|312:160,1,70
221,314,225083,5,0,0:0:0:0:
222,39,225291,1,0,0:0:0:0:
229,46,225395,2,0,P|247:116|231:187,1,140
185,258,225708,1,8,0:1:0:0:
103,274,225812,2,0,B|50:275|6:228|6:228|26:213|41:198,1,140
118,122,226124,1,0,0:0:0:0:
212,357,226333,1,0,0:0:0:0:
372,161,226541,5,0,0:0:0:0:
312,111,226645,1,8,0:1:0:0:
242,142,226749,2,0,L|249:221,1,70
293,345,226958,2,0,L|300:266,1,70
318,117,227166,1,8,0:1:0:0:
153,306,227374,5,0,0:0:0:0:
146,316,227478,2,0,B|124:351|124:351|232:336|232:336|294:346,1,210
383,361,227895,1,8,0:1:0:0:
430,282,227999,2,0,P|447:218|436:138,1,140
380,75,228312,1,8,0:0:0:0:
321,145,228416,6,0,L|241:151,1,70,4|0,0:1|0:0,0:0:0:0:
119,139,228624,2,0,B|166:127|166:127|256:145,1,140
292,353,229041,1,0,0:0:0:0:
240,280,229145,2,0,P|233:213|256:139,1,140,8|0,0:1|0:0,0:0:0:0:
316,77,229458,1,0,0:0:0:0:
380,351,229666,1,0,0:0:0:0:
489,92,229874,5,0,0:0:0:0:
417,120,229978,1,0,0:0:0:0:
341,136,230083,2,0,B|289:144|289:144|187:128,1,140,4|0,0:0|0:0,0:0:0:0:
23,102,230499,1,8,0:1:0:0:
243,8,230708,1,0,0:0:0:0:
289,74,230812,2,0,P|304:161|292:211,1,140
196,290,231124,6,0,P|171:199|198:139,1,140,8|0,0:0|0:0,0:0:0:0:
282,71,231437,2,0,B|401:70|401:70|381:87,1,140,8|0,0:1|0:0,0:0:0:0:
326,161,231749,6,0,L|250:157,1,70,2|0,0:0|0:0,0:0:0:0:
119,130,231958,2,0,L|136:284,1,140
400,152,232374,1,0,0:0:0:0:
404,158,232478,2,0,L|387:312,1,140
331,353,232791,1,0,0:0:0:0:
260,96,232999,1,8,0:1:0:0:
95,307,233208,5,0,0:0:0:0:
54,235,233312,1,0,0:0:0:0:
96,163,233416,2,0,L|176:166,1,70,4|0,0:0|0:0,0:0:0:0:
215,260,233624,2,0,L|296:254,1,70
392,216,233833,1,0,0:0:0:0:
141,371,234041,1,0,0:0:0:0:
95,307,234145,2,0,B|77:248|77:248|98:166,1,140
147,79,234458,5,8,0:0:0:0:
215,63,234562,1,8,0:0:0:0:
284,70,234666,1,0,3:0:0:0:
333,129,234770,1,8,0:0:0:0:
351,203,234874,1,8,0:0:0:0:
335,278,234978,1,8,0:0:0:0:
279,334,235083,6,0,B|227:348|227:348|167:338,1,97.9999970092774,4|0,0:0|0:0,0:0:0:0:
49,316,235291,1,8,0:0:0:0:
165,262,235395,2,0,B|181:216|181:216|171:152,1,97.9999970092774,4|0,0:1|0:0,0:0:0:0:
151,31,235603,1,8,0:0:0:0:
60,129,235708,6,0,B|131:194|224:147|224:147|300:107|387:140|391:218,1,391.99998803711,4|0,0:0|0:0,0:0:0:0:
364,319,236228,1,8,0:0:0:0:
359,326,236333,1,8,0:0:0:0:
91,263,236541,1,8,0:0:0:0:
400,236,236749,6,0,P|368:139|211:157,1,251.999992309571,4|0,0:0|0:0,0:0:0:0:
170,223,237166,6,0,L|262:214,1,83.9999974365235,2|0,0:0|0:0,0:0:0:0:
458,139,237374,2,0,L|366:148,1,83.9999974365235,8|0,0:0|0:0,0:0:0:0:
160,229,237583,2,0,L|258:218,1,83.9999974365235,2|0,0:0|0:0,0:0:0:0:
467,132,237791,2,0,L|369:143,1,83.9999974365235,8|0,0:0|0:0,0:0:0:0:
159,156,237999,5,2,0:0:0:0:
253,214,238103,2,0,P|283:284|249:375,1,167.999994873047,8|0,0:0|0:0,0:0:0:0:
137,382,238416,6,0,B|126:331|126:331|136:293|136:293|128:258|128:258|140:212,1,167.999994873047,2|0,0:0|0:0,0:0:0:0:
243,42,238833,6,0,L|252:130,1,83.9999974365235,2|0,0:0|0:0,0:0:0:0:
328,294,239041,2,0,L|319:206,1,83.9999974365235,8|0,0:0|0:0,0:0:0:0:
238,34,239249,2,0,L|228:127,1,83.9999974365235,2|0,0:0|0:0,0:0:0:0:
332,301,239457,2,0,L|342:208,1,83.9999974365235,8|0,0:0|0:0,0:0:0:0:
404,42,239666,5,2,0:0:0:0:
457,128,239770,2,0,B|403:142|403:142|343:126|343:126|291:139,1,167.999994873047,8|0,0:0|0:0,0:0:0:0:
181,190,240083,6,0,P|97:206|16:168,1,167.999994873047,2|0,0:0|0:0,0:0:0:0:
279,49,240499,6,0,L|290:136,1,83.9999974365235,2|0,0:0|0:0,0:0:0:0:
340,321,240708,2,0,L|329:234,1,83.9999974365235,8|0,0:0|0:0,0:0:0:0:
173,215,240916,2,0,L|260:204,1,83.9999974365235,2|0,0:0|0:0,0:0:0:0:
445,154,241125,2,0,L|358:165,1,83.9999974365235,8|0,0:0|0:0,0:0:0:0:
229,279,241333,5,0,3:0:0:0:
184,303,241437,1,0,3:0:0:0:
134,309,241541,1,0,3:0:0:0:
84,301,241645,1,0,3:0:0:0:
39,275,241749,6,0,B|28:217|28:217|42:159,1,97.9999970092774,4|0,0:0|0:0,0:0:0:0:
80,56,241958,1,0,0:0:0:0:
166,141,242062,6,0,B|247:187|345:137|345:137|322:120|304:103,1,224,2|0,0:3|0:0,0:0:0:0:
244,12,242374,6,0,P|237:58|220:100,1,83.9999974365235,4|0,0:0|0:0,0:0:0:0:
156,212,242583,2,0,P|160:302|307:343,1,251.999992309571
388,288,242999,5,0,3:0:0:0:
396,264,243103,1,0,3:0:0:0:
404,240,243208,1,0,3:0:0:0:
412,216,243312,1,0,3:0:0:0:
420,192,243416,6,0,B|413:165|391:137|391:137|289:185|196:165,1,251.999992309571,4|0,0:0|0:0,0:0:0:0:
77,108,243833,6,0,L|167:101,1,83.9999974365235,2|0,0:0|0:0,0:0:0:0:
319,240,244041,2,0,L|229:247,1,83.9999974365235,8|0,0:0|0:0,0:0:0:0:
69,102,244249,2,0,L|161:86,1,83.9999974365235,2|0,0:0|0:0,0:0:0:0:
326,245,244457,2,0,L|234:261,1,83.9999974365235,8|0,0:0|0:0,0:0:0:0:
58,277,244666,5,2,0:0:0:0:
8,189,244770,2,0,B|57:174|57:174|116:193|116:193|173:182,1,167.999994873047,8|0,0:0|0:0,0:0:0:0:
293,153,245083,6,0,P|331:238|313:320,1,167.999994873047,2|0,0:0|0:0,0:0:0:0:
56,367,245499,6,0,L|66:277,1,83.9999974365235,2|0,0:0|0:0,0:0:0:0:
152,87,245708,2,0,L|162:177,1,83.9999974365235,8|0,0:0|0:0,0:0:0:0:
51,375,245916,2,0,L|62:280,1,83.9999974365235,2|0,0:0|0:0,0:0:0:0:
156,78,246125,2,0,L|167:174,1,83.9999974365235,8|0,0:0|0:0,0:0:0:0:
235,369,246333,5,2,0:0:0:0:
315,332,246437,2,0,B|358:267|322:195|322:195|293:214,1,167.999994873047,8|0,0:0|0:0,0:0:0:0:
200,267,246749,6,0,B|153:282|153:282|117:272|117:272|82:280|82:280|33:266,1,167.999994873047,2|0,0:0|0:0,0:0:0:0:
184,41,247166,2,0,L|195:128,1,83.9999974365235,2|0,0:0|0:0,0:0:0:0:
281,238,247374,2,0,L|292:151,1,83.9999974365235,8|0,0:0|0:0,0:0:0:0:
383,41,247583,6,0,P|416:143|389:220,1,167.999994873047,2|0,0:0|0:0,0:0:0:0:
125,136,247999,1,2,0:0:0:0:
118,130,248103,2,0,B|67:94|67:94|184:83,1,167.999994873047,8|0,0:0|0:0,0:0:0:0:
292,141,248416,6,0,P|391:159|483:94,1,210.000008010865,4|0,0:0|0:0,0:0:0:0:
362,17,248728,6,0,B|334:63|360:120|360:120|399:201|358:273,1,251.999992309571,4|0,0:0|0:0,0:0:0:0:
259,354,249041,6,0,B|232:311|232:311|240:230,1,125.999996154785,4|0,0:0|0:0,0:0:0:0:
274,79,249249,6,0,L|266:14,3,55.9999982910157,8|8|8|8,0:0|0:0|0:0|0:0,0:0:0:0:
326,161,249562,1,8,0:0:0:0:
391,82,249666,2,0,P|429:72|475:75,1,83.9999974365235,8|8,0:0|0:0,0:0:0:0:
509,213,249874,2,0,P|471:223|425:220,1,83.9999974365235,8|8,0:0|0:0,0:0:0:0:
253,163,250083,6,0,P|248:105|257:65,1,90.9999958343508,4|0,0:0|0:0,0:0:0:0:
315,282,250291,2,0,P|320:340|311:380,1,90.9999958343508,2|0,0:0|0:0,0:0:0:0:
168,246,250499,1,2,0:0:0:0:
246,170,250603,2,0,L|341:163,1,90.9999958343508,0|2,0:0|0:0,0:0:0:0:
222,58,250812,6,0,P|107:68|69:131,1,181.999991668702,4|0,0:1|0:0,0:0:0:0:
163,240,251124,2,0,P|175:190|174:147,1,90.9999958343508,2|0,0:0|0:0,0:0:0:0:
15,172,251333,1,2,0:0:0:0:
72,264,251437,2,0,L|180:255,1,90.9999958343508,0|2,0:0|0:0,0:0:0:0:
252,175,251645,6,0,P|338:143|428:175,1,181.999991668702,4|0,0:1|0:0,0:0:0:0:
492,267,251958,2,0,B|454:281|454:281|394:277,1,90.9999958343508,2|0,0:0|0:0,0:0:0:0:
249,263,252166,1,2,0:0:0:0:
305,358,252270,2,0,B|329:332|329:332|337:274,1,90.9999958343508,0|2,0:0|0:0,0:0:0:0:
344,148,252478,6,0,P|231:96|169:121,1,181.999991668702
86,222,252791,2,0,P|143:228|178:225,1,90.9999958343508,2|0,0:0|0:0,0:0:0:0:
315,29,252999,2,0,P|281:76|266:107,1,90.9999958343508,2|0,0:0|0:0,0:0:0:0:
366,324,253208,2,0,P|343:271|323:243,1,90.9999958343508,2|0,0:0|0:0,0:0:0:0:
169,55,253416,6,0,B|150:106|150:106|150:145,1,90.9999958343508
222,314,253624,2,0,B|240:262|240:262|240:223,1,90.9999958343508,2|0,0:0|0:0,0:0:0:0:
242,88,253833,1,2,0:0:0:0:
154,154,253937,2,0,P|109:163|61:158,1,90.9999958343508,0|2,0:0|0:0,0:0:0:0:
0,57,254145,6,0,B|55:34|55:34|183:52,1,181.999991668702,4|0,0:0|0:0,0:0:0:0:
328,86,254458,2,0,P|380:71|413:48,1,90.9999958343508,2|0,0:3|0:0,0:0:0:0:
282,202,254666,2,0,P|268:254|272:294,1,90.9999958343508
204,105,254874,1,8,0:0:0:0:
151,155,254978,1,0,3:0:0:0:
158,228,255083,6,0,B|208:254|208:254|362:238,1,210.000008010865,4|0,0:0|0:0,0:0:0:0:
482,182,255395,6,0,P|453:48|360:45,1,238.00000453949,4|0,0:0|0:0,0:0:0:0:
271,138,255708,6,0,B|202:160|202:160|156:148|156:148|102:179|24:176|-12:85|39:18|103:17,1,398.999989345551,4|0,0:1|0:0,0:0:0:0:
203,34,256124,6,0,P|209:78|205:134,1,90.9999958343508,2|0,0:3|0:0,0:0:0:0:
88,286,256333,1,8,0:0:0:0:
414,263,256541,1,10,0:0:0:0:
120,356,256749,6,0,L|21:348,1,90.9999958343508,4|0,0:0|0:0,0:0:0:0:
195,233,256958,2,0,L|294:241,1,90.9999958343508,2|0,0:0|0:0,0:0:0:0:
201,357,257166,1,2,0:0:0:0:
125,279,257270,2,0,B|114:242|114:242|122:190,1,90.9999958343508,0|2,0:0|0:0,0:0:0:0:
145,65,257478,6,0,B|194:44|194:44|335:64,1,181.999991668702,4|0,0:0|0:0,0:0:0:0:
456,116,257791,2,0,L|364:121,1,90.9999958343508,2|0,0:0|0:0,0:0:0:0:
205,127,257999,1,2,0:0:0:0:
261,220,258103,2,0,P|267:271|261:311,1,90.9999958343508,0|2,0:0|0:0,0:0:0:0:
127,368,258312,6,0,B|113:319|113:319|121:283|121:283|103:231|120:180,1,181.999991668702,4|0,0:1|0:0,0:0:0:0:
179,90,258624,2,0,B|188:46|175:10|175:10|153:25,1,90.9999958343508,2|0,0:0|0:0,0:0:0:0:
41,102,258833,1,2,0:0:0:0:
119,180,258937,2,0,L|214:172,1,90.9999958343508,0|2,0:0|0:0,0:0:0:0:
336,122,259145,6,0,P|429:123|469:213,1,181.999991668702
422,303,259458,2,0,L|316:294,1,90.9999958343508,2|0,0:0|0:0,0:0:0:0:
145,252,259666,2,0,L|251:243,1,90.9999958343508,2|0,0:0|0:0,0:0:0:0:
429,313,259874,2,0,L|323:304,1,90.9999958343508,2|0,0:0|0:0,0:0:0:0:
126,345,260083,6,0,L|140:248,1,90.9999958343508,4|0,0:0|0:0,0:0:0:0:
211,77,260291,2,0,L|225:174,1,90.9999958343508,2|0,0:0|0:0,0:0:0:0:
307,339,260499,1,2,0:0:0:0:
376,265,260603,2,0,B|388:220|388:220|383:172,1,90.9999958343508,0|2,0:0|0:0,0:0:0:0:
294,36,260812,6,0,P|255:137|306:199,1,181.999991668702,4|0,0:0|0:0,0:0:0:0:
440,105,261124,2,0,L|343:113,1,90.9999958343508,2|0,0:3|0:0,0:0:0:0:
194,186,261333,2,0,L|291:194,1,90.9999958343508
454,212,261541,1,2,0:3:0:0:
481,279,261645,1,0,3:0:0:0:
454,347,261749,6,0,B|403:365|403:365|357:355|357:355|307:367|307:367|232:347,1,210.000008010865,4|0,0:0|0:0,0:0:0:0:
148,316,262062,6,0,B|122:261|149:196|149:196|176:134|152:78,1,238.00000453949,4|0,0:0|0:0,0:0:0:0:
29,133,262374,6,0,B|80:167|139:150|139:150|196:159|196:159|258:146,1,224,4|0,0:1|0:0,0:0:0:0:
384,122,262687,6,0,B|407:84|383:43|383:43|304:17|198:44,1,251.999992309571,4|0,0:1|0:0,0:0:0:0:
100,56,262999,6,0,L|34:44,2,65.3333313395183,8|8|8,0:0|0:0|0:0,0:0:0:0:
165,120,263208,2,0,P|178:170|171:222,1,97.9999970092774,8|8,0:0|0:0,0:0:0:0:
125,324,263416,1,8,0:0:0:0:
53,239,263520,6,0,B|32:214|20:182|20:182|78:167|204:199,1,224,4|0,0:0|0:0,0:0:0:0:
307,231,263833,6,0,P|414:136|356:58,1,251.999992309571,4|0,0:0|0:0,0:0:0:0:
237,33,264145,6,0,B|218:92|218:92|247:192|247:192|231:263,1,238.00000453949,4|0,0:1|0:0,0:0:0:0:
147,367,264458,6,0,B|123:308|123:308|137:235,1,132.999996448517,4|0,0:1|0:0,0:0:0:0:
181,46,264718,5,8,0:0:0:0:
189,42,264770,2,0,B|214:25|259:32|259:32|274:56|273:99,1,132.999996448517,8|0,0:0|3:0,0:0:0:0:
245,222,264978,1,0,3:0:0:0:
171,166,265083,1,10,0:0:0:0:
165,172,265708,6,0,L|174:258,1,70
304,255,265916,2,0,L|313:169,1,70
186,329,266124,1,0,0:0:0:0:
125,346,266228,1,0,0:0:0:0:
70,318,266333,2,0,P|44:210|171:170,1,251.999992309571,4|0,0:1|0:0,0:0:0:0:
228,248,266749,6,0,L|304:255,1,70,4|0,0:0|0:0,0:0:0:0:
380,165,266958,2,0,L|360:89,1,70,8|0,0:0|0:0,0:0:0:0:
245,156,267166,2,0,P|144:183|42:130,1,210,2|2,0:0|0:1,0:0:0:0:
18,47,267583,5,2,0:0:0:0:
25,42,267687,2,0,B|75:21|75:21|163:34,1,140,2|8,0:1|0:0,0:0:0:0:
242,91,267999,2,0,L|322:79,1,70,2|0,0:0|0:0,0:0:0:0:
416,34,268208,2,0,L|408:113,1,70,2|0,0:1|0:0,0:0:0:0:
388,248,268416,5,0,0:0:0:0:
334,17,268624,1,8,0:0:0:0:
249,225,268833,2,0,B|229:297|269:372|269:372|283:344|304:319,1,210,2|2,0:0|0:1,0:0:0:0:
382,254,269249,5,2,0:0:0:0:
465,292,269353,2,0,B|476:243|476:243|462:143,1,140,2|8,0:1|0:0,0:0:0:0:
418,61,269666,2,0,P|307:58|297:176,1,210,2|0,0:0|0:0,0:0:0:0:
358,194,270083,6,0,L|363:125,1,70,4|0,0:1|0:0,0:0:0:0:
222,233,270291,2,0,L|217:164,1,70,8|0,0:0|0:0,0:0:0:0:
284,21,270499,2,0,B|298:78|298:78|289:194|289:194|298:247,1,210,2|2,0:0|0:1,0:0:0:0:
350,318,270916,5,2,0:0:0:0:
426,255,271020,2,0,P|366:220|294:235,1,140,2|8,0:1|0:0,0:0:0:0:
236,318,271333,2,0,L|142:311,1,70,2|0,0:0|0:0,0:0:0:0:
45,229,271541,2,0,L|139:236,1,70,2|0,0:1|0:0,0:0:0:0:
268,244,271749,5,2,0:1:0:0:
18,301,271958,1,8,0:0:0:0:
279,239,272166,2,0,P|296:311|281:378,1,140,2|0,0:0|0:0,0:0:0:0:
127,194,272583,5,2,0:0:0:0:
202,158,272687,2,0,B|246:146|246:146|304:163|304:163|357:152,1,140,2|8,0:1|0:0,0:0:0:0:
436,117,272999,1,0,3:0:0:0:
442,75,273103,1,8,0:0:0:0:
421,37,273208,1,0,3:0:0:0:
383,17,273312,6,0,B|327:5|327:5|232:25,1,154.000004699707,4|0,0:0|0:0,0:0:0:0:
115,58,273624,2,0,L|126:143,1,77.0000023498536,4|0,0:1|0:0,0:0:0:0:
197,273,273833,2,0,L|213:119,1,154.000004699707,2|0,0:0|0:0,0:0:0:0:
276,40,274145,6,0,P|350:19|434:63,1,161.000003070831,2|2,0:1|0:1,0:0:0:0:
493,153,274458,2,0,L|502:69,1,80.5000015354157,2|8,0:1|0:0,0:0:0:0:
400,187,274666,2,0,B|352:204|352:204|240:186,1,161.000003070831,2|0,0:0|0:0,0:0:0:0:
113,153,274978,6,0,B|63:141|63:141|82:257,1,167.999994873047,8|0,0:0|0:0,0:0:0:0:
152,342,275291,2,0,L|166:253,1,83.9999974365235,4|0,0:0|0:0,0:0:0:0:
194,112,275499,2,0,P|264:76|358:108,1,167.999994873047,2|0,0:0|0:0,0:0:0:0:
431,189,275812,6,0,B|379:215|379:215|257:204,1,175,2|2,0:1|0:1,0:0:0:0:
133,181,276124,1,2,0:1:0:0:
96,240,276228,1,8,0:0:0:0:
122,305,276333,2,0,B|178:328|178:328|294:308,1,175,2|0,0:0|0:0,0:0:0:0:
415,283,276645,6,0,P|455:218|385:130,1,181.999991668702,8|0,0:0|0:0,0:0:0:0:
289,180,276958,2,0,P|169:161|288:27,1,363.999983337403,4|0,0:0|0:0,0:0:0:0:
366,57,277478,6,0,B|391:116|391:116|370:247,1,189.000000720978,2|0,0:1|0:0,0:0:0:0:
331,336,277791,1,8,0:0:0:0:
257,353,277895,1,8,0:0:0:0:
183,337,277999,1,8,0:0:0:0:
139,275,278103,1,8,0:3:0:0:
441,241,278312,1,4,0:0:0:0:
447,234,278624,5,0,0:0:0:0:
273,205,278833,1,8,0:0:0:0:
315,142,278937,2,0,B|321:110|321:110|312:68,1,62.9999980773926,8|0,0:0|0:0,0:0:0:0:
133,114,279249,5,0,0:0:0:0:
259,18,279458,1,8,0:3:0:0:
307,75,279562,2,0,B|313:107|313:107|304:149,1,62.9999980773926,8|0,0:3|0:0,0:0:0:0:
250,297,279874,5,0,0:0:0:0:
166,170,280083,1,8,0:3:0:0:
235,138,280187,2,0,B|267:132|267:132|309:141,1,62.9999980773926,8|0,0:3|0:0,0:0:0:0:
258,292,280499,5,0,0:0:0:0:
353,174,280708,1,0,3:0:0:0:
362,144,280812,1,8,0:0:0:0:
371,113,280916,6,0,L|366:43,1,62.9999980773926,8|0,0:0|0:0,0:0:0:0:
233,13,281124,2,0,L|238:83,1,62.9999980773926,8|0,0:3|0:0,0:0:0:0:
286,186,281333,1,8,0:0:0:0:
303,245,281437,1,8,0:3:0:0:
298,307,281541,1,0,3:0:0:0:
271,363,281645,1,12,0:0:0:0:
