osu file format v14

[General]
AudioFilename: audio.mp3
AudioLeadIn: 0
PreviewTime: 211754
Countdown: 0
SampleSet: Normal
StackLeniency: 0.7
Mode: 1
LetterboxInBreaks: 0
WidescreenStoryboard: 0

[Editor]
DistanceSpacing: 1
BeatDivisor: 4
GridSize: 4
TimelineZoom: 2.4

[Metadata]
Title:Akari ga Yattekita zo
TitleUnicode:アカリがやってきたぞっ
Artist:GYARI
ArtistUnicode:GYARI
Creator:Zennan
Version:Hai!
Source:
Tags:紲星あかり vocaloid voiceroid kizuna akari has arrived japanese jazz ココアシガレットp cocoa cigarette-p 葉狩はじめ hagari hajime 超銀河キズユカ歌合戦 onomatopoeia jubeat festo
BeatmapID:3747758
BeatmapSetID:1826183

[Difficulty]
HPDrainRate:5
CircleSize:5
OverallDifficulty:7
ApproachRate:5
SliderMultiplier:1.4
SliderTickRate:1

[Events]
//Background and Video events
Video,0,"output.mp4"
0,0,"akari.jpg",0,0
//Break Periods
//Storyboard Layer 0 (Background)
//Storyboard Layer 1 (Fail)
//Storyboard Layer 2 (Pass)
//Storyboard Layer 3 (Foreground)
//Storyboard Layer 4 (Overlay)
//Storyboard Sound Samples

[TimingPoints]
1746,441.176470588235,4,1,0,25,1,0
1746,-133.333333333333,4,1,0,25,0,0
7701,-133.33333,4,1,0,25,0,0
8143,-117.62196,4,1,0,25,0,0
8584,-105.2481,4,1,0,25,0,0
8804,-100,4,1,0,40,0,0
15863,-100,4,1,0,50,0,0
16084,-97.55666,4,1,0,50,0,0
16194,-96.38449,4,1,0,50,0,0
16304,-95.24015,4,1,0,50,0,0
16525,-93.02129,4,1,0,50,0,0
16745,-90.912834,4,1,0,50,0,0
16966,-88.888885,4,1,0,50,0,0
17076,-87.91472,4,1,0,50,0,0
17187,-86.95309,4,1,0,50,0,0
17407,-85.108025,4,1,0,50,0,0
17628,-83.33176,4,1,0,50,0,0
17848,-81.63567,4,1,0,50,0,0
18069,-80,4,1,0,50,0,0
18290,-78.42858,4,1,0,50,0,0
18510,-76.924416,4,1,0,50,0,0
18731,-75.470406,4,1,0,50,0,0
18841,-74.76698,4,1,0,50,0,0
19062,-73.39266,4,1,0,50,0,0
19172,-72.727264,4,1,0,50,0,0
19393,-71.426254,4,1,0,50,0,0
19613,-70.17655,4,1,0,50,0,0
19834,-68.96444,4,1,0,50,0,0
20054,-67.79869,4,1,0,50,0,0
20275,-66.666664,4,1,0,70,0,0
20606,-50,4,1,0,70,0,0
20937,-40,4,1,0,70,0,0
21157,-33.3333333333333,4,1,0,70,0,0
21598,-66.6666666666667,4,1,0,70,0,0
22260,-52.6315789473684,4,1,0,70,0,0
22481,-43.4782608695652,4,1,0,70,0,0
22922,-37.037037037037,4,1,0,70,0,0
23253,-76.9230769230769,4,1,0,70,0,0
36157,-66.6666666666667,4,1,0,70,0,0
37040,-83.3333333333333,4,1,0,60,0,0
50495,-66.6666666666667,4,1,0,60,0,0
50716,-50,4,1,0,60,0,0
50937,-40,4,1,0,60,0,0
51157,-76.9230769230769,4,1,0,60,0,0
72334,-76.92308,4,1,0,70,0,0
72444,-76.830986,4,1,0,70,0,0
72665,-76.64662,4,1,0,70,0,0
72775,-76.55518,4,1,0,70,0,0
72995,-76.37296,4,1,0,70,0,0
73216,-76.19079,4,1,0,70,0,0
73326,-76.10043,4,1,0,70,0,0
73547,-75.91956,4,1,0,70,0,0
73657,-75.82985,4,1,0,70,0,0
73878,-75.650246,4,1,0,70,0,0
74098,-75.472305,4,1,0,70,0,0
74209,-75.38284,4,1,0,70,0,0
74429,-75.206154,4,1,0,70,0,0
74540,-75.117325,4,1,0,70,0,0
74760,-74.94188,4,1,0,70,0,0
74981,-74.76646,4,1,0,70,0,0
75091,-74.67945,4,1,0,70,0,0
75312,-74.50526,4,1,0,70,0,0
75422,-74.41885,4,1,0,70,0,0
75643,-74.24587,4,1,0,70,0,0
75863,-74.07446,4,1,0,70,0,0
75973,-73.98906,4,1,0,70,0,0
76194,-73.81806,4,1,0,70,0,0
76304,-73.733246,4,1,0,70,0,0
76525,-73.56344,4,1,0,70,0,0
76745,-73.395164,4,1,0,70,0,0
76856,-73.310555,4,1,0,70,0,0
77076,-73.14344,4,1,0,70,0,0
77187,-73.05941,4,1,0,70,0,0
77407,-72.89343,4,1,0,70,0,0
77628,-72.72746,4,1,0,70,0,0
77738,-72.645134,4,1,0,70,0,0
77959,-72.48029,4,1,0,70,0,0
78179,-72.31693,4,1,0,70,0,0
78400,-72.15357,4,1,0,70,0,0
78620,-71.99168,4,1,0,70,0,0
78731,-71.91027,4,1,0,70,0,0
78951,-71.74947,4,1,0,70,0,0
79062,-71.66862,4,1,0,70,0,0
79172,-71.58867,4,1,0,70,0,0
79282,-71.50889,4,1,0,70,0,0
79393,-71.42857,4,1,0,70,0,0
80495,-71.42857,4,1,0,70,0,0
80716,-69.76499,4,1,0,70,0,0
80937,-68.17713,4,1,0,70,0,0
81047,-67.41344,4,1,0,70,0,0
81157,-66.666664,4,1,0,90,0,1
106745,-66.666664,4,1,0,90,0,1
106856,-67.803116,4,1,0,90,0,1
106966,-68.96821,4,1,0,90,0,1
107076,-70.17404,4,1,0,90,0,1
107187,-71.43435,4,1,0,90,0,1
107297,-72.72877,4,1,0,90,0,1
107407,-74.07097,4,1,0,90,0,1
107518,-75.47654,4,1,0,90,0,1
107628,-76.92308,4,1,0,80,0,0
109393,-37.037037037037,4,1,0,70,0,0
110054,-83.3333333333333,4,1,0,70,0,0
136745,-80,4,1,0,70,0,0
137628,-76.9230769230769,4,1,0,70,0,0
149539,-76.9230769230769,4,1,0,70,0,0
149540,-76.92065,4,1,0,70,0,0
149760,-76.388016,4,1,0,70,0,0
149981,-75.86035,4,1,0,70,0,0
150091,-75.60042,4,1,0,70,0,0
150312,-75.083534,4,1,0,70,0,0
150532,-74.57596,4,1,0,70,0,0
150753,-74.072945,4,1,0,70,0,0
150973,-73.5789,4,1,0,70,0,0
151084,-73.33213,4,1,0,70,0,0
151304,-72.84788,4,1,0,70,0,0
151415,-72.60598,4,1,0,70,0,0
151525,-72.36784,4,1,0,70,0,0
151635,-72.13125,4,1,0,70,0,0
151745,-71.8962,4,1,0,70,0,0
151966,-71.42857,4,1,0,70,0,0
153069,-71.42857,4,1,0,70,0,0
153290,-68.1818212809919,4,1,0,70,0,0
153400,-66.6666666666667,4,1,0,90,0,1
177113,-66.666664,4,1,0,90,0,1
177334,-67.35873,4,1,0,90,0,1
177665,-68.422554,4,1,0,90,0,1
177995,-69.51716,4,1,0,90,0,1
178216,-70.270004,4,1,0,90,0,1
178878,-72.625984,4,1,0,90,0,1
178988,-73.03285,4,1,0,90,0,1
179098,-73.444305,4,1,0,90,0,1
179429,-74.710846,4,1,0,90,0,1
179760,-76.02184,4,1,0,90,0,1
179981,-76.92308,4,1,0,80,0,0
202922,-76.92308,4,1,0,85,0,0
203143,-76.55435,4,1,0,85,0,0
203253,-76.37214,4,1,0,85,0,0
203363,-76.19079,4,1,0,85,0,0
203584,-75.82903,4,1,0,85,0,0
203694,-75.650246,4,1,0,85,0,0
203804,-75.472305,4,1,0,85,0,0
203915,-75.293594,4,1,0,85,0,0
204025,-75.117325,4,1,0,85,0,0
204245,-74.76725,4,1,0,85,0,0
204356,-74.59186,4,1,0,85,0,0
204466,-74.41885,4,1,0,85,0,0
204576,-74.24665,4,1,0,85,0,0
204687,-74.073685,4,1,0,85,0,0
204907,-73.733246,4,1,0,85,0,0
205018,-73.56267,4,1,0,85,0,0
205128,-73.3944,4,1,0,85,0,0
205238,-73.2269,4,1,0,85,0,0
205348,-73.060165,4,1,0,85,0,0
205459,-72.892685,4,1,0,85,0,0
205569,-72.72746,4,1,0,85,0,0
205790,-72.39777,4,1,0,85,0,0
205900,-72.23479,4,1,0,85,0,0
206010,-72.07253,4,1,0,85,0,0
206120,-71.911,4,1,0,85,0,0
206231,-71.74874,4,1,0,85,0,0
206341,-71.58867,4,1,0,85,0,0
206451,-71.4293,4,1,0,85,0,0
206782,-70.953995,4,1,0,85,0,0
207113,-70.48498,4,1,0,85,0,0
207444,-70.02212,4,1,0,85,0,0
207775,-69.5653,4,1,0,85,0,0
207885,-69.41481,4,1,0,85,0,0
207995,-69.26496,4,1,0,85,0,0
208106,-69.1144,4,1,0,85,0,0
208216,-68.96585,4,1,0,85,0,0
208437,-68.66932,4,1,0,85,0,0
208547,-68.52267,4,1,0,85,0,0
208657,-68.37664,4,1,0,85,0,0
208768,-68.22993,4,1,0,85,0,0
208878,-68.085144,4,1,0,85,0,0
208988,-67.94098,4,1,0,85,0,0
209098,-67.79742,4,1,0,85,0,0
209209,-67.65317,4,1,0,85,0,0
209319,-67.510826,4,1,0,85,0,0
209429,-67.36907,4,1,0,85,0,0
209540,-67.22665,4,1,0,85,0,0
209650,-67.08609,4,1,0,85,0,0
209760,-66.94611,4,1,0,85,0,0
209870,-66.806725,4,1,0,85,0,0
209981,-66.6666666666667,4,1,0,85,0,0
211745,-71.4285714285714,4,1,0,80,0,0
213069,-69.76499,4,1,0,80,0,0
213290,-68.17713,4,1,0,80,0,0
213400,-67.41344,4,1,0,80,0,0
213510,-66.666664,4,1,0,90,0,1
239098,-66.666664,4,1,0,90,0,1
239209,-67.803116,4,1,0,90,0,1
239319,-68.96821,4,1,0,90,0,1
239429,-70.17404,4,1,0,90,0,1
239540,-71.43435,4,1,0,90,0,1
239650,-72.72877,4,1,0,90,0,1
239760,-74.07097,4,1,0,90,0,1
239870,-75.463646,4,1,0,90,0,1
239981,-76.92308,4,1,0,80,0,0
240201,-75.760704,4,1,0,80,0,0
240422,-74.62788,4,1,0,80,0,0
240643,-73.528435,4,1,0,80,0,0
240863,-72.46567,4,1,0,80,0,0
241084,-71.42857,4,1,0,80,0,0
241304,-70.425224,4,1,0,80,0,0
241525,-69.44531,4,1,0,80,0,0
241635,-68.96767,4,1,0,80,0,0
242187,-66.666664,4,1,0,90,0,1
268878,-68.1818212809919,4,1,0,90,0,1
268988,-69.7674434829638,4,1,0,90,0,1
269098,-71.4285714285714,4,1,0,90,0,1
269209,-73.1707674003743,4,1,0,90,0,1
269319,-75.0001875004688,4,1,0,90,0,1
269540,-76.9230769230769,4,1,0,80,0,1
269981,-50,4,1,0,80,0,1
270422,-76.9230769230769,4,1,0,80,0,1
270863,-50,4,1,0,80,0,1
271304,-76.9230769230769,4,1,0,80,0,1
271745,-50,4,1,0,80,0,1
272628,-50,4,1,0,80,0,1
275275,-66.6666666666667,4,1,0,80,0,0
276157,-58.8235294117647,4,1,0,80,0,0
276598,-45.4545454545455,4,1,0,80,0,0
277040,-37.037037037037,4,1,0,70,0,0
277370,-66.6666666666667,4,1,0,70,0,0
290275,-66.666664,4,1,0,80,0,0
290716,-58.826664,4,1,0,80,0,0
290937,-55.552757,4,1,0,80,0,0
291010,-54.549946,4,1,0,80,0,0
291084,-53.569695,4,1,0,80,0,0
291157,-52.636604,4,1,0,80,0,0
291378,-50,4,1,0,100,0,0
291598,-50,4,1,0,95,0,0
291819,-50,4,1,0,90,0,0
292040,-50,4,1,0,85,0,0
292260,-50,4,1,0,80,0,0
292481,-50,4,1,0,75,0,0
292701,-50,4,1,0,70,0,0
292922,-50,4,1,0,65,0,0
293143,-50,4,1,0,60,0,0
293363,-50,4,1,0,55,0,0
293584,-50,4,1,0,50,0,0
293804,-50,4,1,0,45,0,0
294025,-50,4,1,0,40,0,0
294245,-50,4,1,0,35,0,0
294466,-50,4,1,0,30,0,0
294687,-50,4,1,0,25,0,0
294907,-50,4,1,0,20,0,0
295128,-50,4,1,0,15,0,0
295348,-50,4,1,0,10,0,0
295569,-50,4,1,0,5,0,0
297995,-50,4,1,0,40,0,0

[HitObjects]
261,199,1746,5,0,0:0:0:0:
261,199,1966,5,8,0:0:0:0:
266,200,2407,1,8,0:0:0:0:
266,197,2848,1,8,0:0:0:0:
266,200,3290,1,8,0:0:0:0:
266,197,3731,1,8,0:0:0:0:
266,200,4172,1,8,0:0:0:0:
266,197,4613,1,8,0:0:0:0:
266,200,5054,1,8,0:0:0:0:
267,204,5275,1,0,0:0:0:0:
266,197,5495,1,8,0:0:0:0:
266,200,5937,1,8,0:0:0:0:
266,197,6378,1,8,0:0:0:0:
266,200,6819,1,8,0:0:0:0:
266,197,7260,1,8,0:0:0:0:
266,200,7701,1,8,0:0:0:0:
266,197,8143,1,8,0:0:0:0:
266,200,8584,1,8,0:0:0:0:
272,199,8804,1,0,0:0:0:0:
272,196,9025,1,8,0:0:0:0:
266,200,9245,1,0,0:0:0:0:
266,200,9466,1,8,0:0:0:0:
271,193,9687,1,0,0:0:0:0:
272,196,9907,1,8,0:0:0:0:
272,196,10018,1,0,0:0:0:0:
267,193,10238,1,8,0:0:0:0:
268,193,10348,1,0,0:0:0:0:
268,193,10569,1,8,0:0:0:0:
274,187,11010,1,8,0:0:0:0:
273,195,11231,1,0,0:0:0:0:
277,187,11451,1,8,0:0:0:0:
281,187,11672,1,0,0:0:0:0:
281,187,11782,1,8,0:0:0:0:
284,179,12003,1,8,0:0:0:0:
280,184,12113,1,0,0:0:0:0:
282,182,12334,1,8,0:0:0:0:
283,179,12775,1,8,0:0:0:0:
280,178,12995,1,0,0:0:0:0:
282,182,13216,1,8,0:0:0:0:
282,178,13437,1,0,0:0:0:0:
282,181,13547,1,8,0:0:0:0:
282,181,13657,1,0,0:0:0:0:
284,180,13878,1,0,0:0:0:0:
282,182,14098,1,8,0:0:0:0:
282,178,14319,1,8,0:0:0:0:
282,181,14540,1,0,0:0:0:0:
286,170,14760,1,0,0:0:0:0:
285,173,14981,1,8,0:0:0:0:
287,168,15201,1,8,0:0:0:0:
287,177,15312,1,0,0:0:0:0:
287,178,15422,1,8,0:0:0:0:
288,166,15863,1,8,0:0:0:0:
284,158,16084,1,0,0:0:0:0:
281,162,16194,1,0,0:0:0:0:
283,161,16304,1,8,0:0:0:0:
286,157,16525,1,0,0:0:0:0:
282,154,16745,1,8,0:0:0:0:
274,143,16966,1,0,0:0:0:0:
274,150,17076,1,8,0:0:0:0:
275,148,17187,1,0,0:0:0:0:
275,148,17407,1,8,0:0:0:0:
276,142,17628,1,8,0:0:0:0:
271,154,17848,1,0,0:0:0:0:
274,150,18069,1,8,0:0:0:0:
275,148,18290,1,0,0:0:0:0:
276,151,18510,1,8,0:0:0:0:
274,149,18731,1,0,0:0:0:0:
274,149,18841,1,8,0:0:0:0:
273,154,19062,1,8,0:0:0:0:
275,148,19172,1,0,0:0:0:0:
276,151,19393,1,8,0:0:0:0:
268,159,19613,1,0,0:0:0:0:
266,164,19834,1,8,0:0:0:0:
270,163,20054,1,0,0:0:0:0:
270,162,20275,1,8,0:0:0:0:
266,164,20606,1,4,0:0:0:0:
270,162,20937,1,12,0:0:0:0:
270,160,21598,1,8,0:0:0:0:
275,159,22260,1,0,0:0:0:0:
275,159,22481,1,8,0:0:0:0:
275,159,22922,1,12,0:0:0:0:
275,159,23253,1,0,0:0:0:0:
275,159,23363,1,8,0:0:0:0:
275,159,23584,1,8,0:0:0:0:
275,159,23804,1,8,0:0:0:0:
275,159,23915,1,0,0:0:0:0:
275,159,24135,1,8,0:0:0:0:
275,159,24245,1,0,0:0:0:0:
275,159,24466,1,0,0:0:0:0:
275,159,24687,1,0,0:0:0:0:
275,159,24797,1,8,0:0:0:0:
275,159,25018,1,0,0:0:0:0:
275,159,25128,1,8,0:0:0:0:
271,135,25348,1,8,0:0:0:0:
267,155,25569,1,8,0:0:0:0:
267,155,25679,1,0,0:0:0:0:
267,155,25900,1,8,0:0:0:0:
270,156,26010,1,0,0:0:0:0:
271,152,26231,1,0,0:0:0:0:
267,155,26451,1,0,0:0:0:0:
267,155,26562,1,8,0:0:0:0:
267,155,26782,1,0,0:0:0:0:
267,155,26893,1,8,0:0:0:0:
266,155,27113,1,8,0:0:0:0:
267,155,27334,1,8,0:0:0:0:
267,155,27444,1,0,0:0:0:0:
267,155,27665,1,8,0:0:0:0:
267,155,27775,1,0,0:0:0:0:
271,151,27995,1,8,0:0:0:0:
274,153,28216,1,0,0:0:0:0:
267,155,28437,1,0,0:0:0:0:
271,148,28657,1,8,0:0:0:0:
271,151,28878,1,0,0:0:0:0:
266,148,29098,1,0,0:0:0:0:
265,144,29319,1,8,0:0:0:0:
271,148,29540,1,8,0:0:0:0:
271,141,29760,1,0,0:0:0:0:
277,149,29981,1,0,0:0:0:0:
277,149,30091,1,8,0:0:0:0:
283,146,30312,1,0,0:0:0:0:
283,146,30422,1,8,0:0:0:0:
277,149,30643,1,8,0:0:0:0:
277,149,30863,1,8,0:0:0:0:
282,151,30973,1,0,0:0:0:0:
281,155,31194,1,8,0:0:0:0:
281,155,31304,1,0,0:0:0:0:
277,149,31525,1,0,0:0:0:0:
284,148,31745,1,0,0:0:0:0:
285,149,31856,1,8,0:0:0:0:
281,155,32076,1,0,0:0:0:0:
285,143,32187,1,8,0:0:0:0:
277,149,32407,1,8,0:0:0:0:
285,135,32628,1,8,0:0:0:0:
284,137,32738,1,0,0:0:0:0:
283,138,32959,1,8,0:0:0:0:
282,140,33069,1,0,0:0:0:0:
280,142,33290,1,0,0:0:0:0:
282,145,33510,1,0,0:0:0:0:
282,145,33620,1,8,0:0:0:0:
282,145,33841,1,0,0:0:0:0:
282,145,33951,1,8,0:0:0:0:
271,154,34172,1,8,0:0:0:0:
293,146,34393,1,8,0:0:0:0:
293,146,34503,1,0,0:0:0:0:
293,146,34723,1,8,0:0:0:0:
293,146,34834,1,0,0:0:0:0:
292,146,35054,1,0,0:0:0:0:
293,146,35275,1,0,0:0:0:0:
293,146,35348,1,8,0:0:0:0:
287,145,35422,1,8,0:0:0:0:
286,145,35495,1,0,0:0:0:0:
297,143,35606,1,8,0:0:0:0:
293,146,35826,1,0,0:0:0:0:
286,146,36047,1,0,0:0:0:0:
293,146,36157,1,12,0:0:0:0:
288,147,36598,1,12,0:0:0:0:
286,146,37040,1,0,0:0:0:0:
293,146,37150,1,8,0:0:0:0:
288,147,37370,1,8,0:0:0:0:
288,147,37481,1,0,0:0:0:0:
286,146,37922,1,0,0:0:0:0:
286,146,38032,1,8,0:0:0:0:
288,147,38363,1,8,0:0:0:0:
288,147,38473,1,0,0:0:0:0:
286,146,38584,1,8,0:0:0:0:
286,146,38804,1,0,0:0:0:0:
278,145,38915,1,8,0:0:0:0:
278,145,39025,1,0,0:0:0:0:
278,142,39245,1,0,0:0:0:0:
278,142,39466,1,8,0:0:0:0:
278,145,39687,1,0,0:0:0:0:
281,143,39797,1,0,0:0:0:0:
278,145,39907,1,8,0:0:0:0:
278,145,40018,1,8,0:0:0:0:
278,142,40348,1,0,0:0:0:0:
278,142,40569,1,8,0:0:0:0:
278,145,40679,1,0,0:0:0:0:
281,143,41010,1,8,0:0:0:0:
278,137,41120,1,0,0:0:0:0:
256,179,41341,1,8,0:0:0:0:
256,179,41672,1,0,0:0:0:0:
256,179,41893,1,8,0:0:0:0:
256,179,42334,1,8,0:0:0:0:
266,176,42554,1,0,0:0:0:0:
252,191,42775,1,8,0:0:0:0:
252,191,42885,1,0,0:0:0:0:
252,191,42995,1,8,0:0:0:0:
252,191,43106,1,0,0:0:0:0:
252,191,43437,1,0,0:0:0:0:
256,188,43878,1,8,0:0:0:0:
258,195,44098,1,8,0:0:0:0:
256,199,44319,1,8,0:0:0:0:
256,192,44540,12,0,45422,0:0:0:0:
257,192,45863,5,8,0:0:0:0:
257,192,45973,1,0,0:0:0:0:
257,192,46084,1,8,0:0:0:0:
257,192,46194,1,0,0:0:0:0:
257,198,46304,1,0,0:0:0:0:
257,192,46415,1,8,0:0:0:0:
257,192,46745,1,0,0:0:0:0:
257,192,46856,1,8,0:0:0:0:
257,192,46966,1,0,0:0:0:0:
257,192,47076,1,8,0:0:0:0:
257,192,47187,1,8,0:0:0:0:
257,192,47297,1,0,0:0:0:0:
257,192,47628,1,0,0:0:0:0:
254,196,48069,1,8,0:0:0:0:
257,192,48510,1,8,0:0:0:0:
254,196,48731,1,0,0:0:0:0:
255,189,48841,1,8,0:0:0:0:
257,192,49393,1,8,0:0:0:0:
251,186,49723,1,0,0:0:0:0:
251,186,49834,1,8,0:0:0:0:
253,187,50165,1,8,0:0:0:0:
251,186,50495,1,4,0:0:0:0:
251,186,50716,1,12,0:0:0:0:
251,186,50937,1,12,0:0:0:0:
251,186,51157,1,8,0:0:0:0:
251,180,51378,1,8,0:0:0:0:
252,171,51488,1,0,0:0:0:0:
255,162,51598,1,8,0:0:0:0:
251,171,51709,1,0,0:0:0:0:
256,171,51929,1,8,0:0:0:0:
255,173,52150,1,8,0:0:0:0:
254,161,52370,1,0,0:0:0:0:
251,171,52481,1,8,0:0:0:0:
251,163,52701,1,8,0:0:0:0:
253,157,52922,1,8,0:0:0:0:
250,158,53143,1,8,0:0:0:0:
254,161,53253,1,8,0:0:0:0:
250,164,53363,1,0,0:0:0:0:
251,171,53473,1,8,0:0:0:0:
249,173,53694,1,0,0:0:0:0:
250,165,53915,1,8,0:0:0:0:
250,158,54135,1,0,0:0:0:0:
253,148,54245,1,0,0:0:0:0:
253,148,54466,1,8,0:0:0:0:
255,149,54687,1,0,0:0:0:0:
256,150,54907,1,8,0:0:0:0:
258,150,55128,1,8,0:0:0:0:
253,148,55238,1,0,0:0:0:0:
253,148,55348,1,0,0:0:0:0:
253,148,55459,1,8,0:0:0:0:
261,140,55679,1,8,0:0:0:0:
256,150,55900,1,0,0:0:0:0:
257,141,56010,1,0,0:0:0:0:
256,141,56231,1,8,0:0:0:0:
259,139,56451,1,0,0:0:0:0:
259,148,56672,1,8,0:0:0:0:
256,150,56893,1,8,0:0:0:0:
258,148,57003,1,8,0:0:0:0:
258,148,57223,1,0,0:0:0:0:
259,148,57554,1,0,0:0:0:0:
256,150,57775,1,8,0:0:0:0:
255,152,58216,1,8,0:0:0:0:
255,152,58326,1,8,0:0:0:0:
253,155,58547,1,0,0:0:0:0:
252,156,58657,1,8,0:0:0:0:
251,133,58878,1,0,0:0:0:0:
259,169,58988,1,8,0:0:0:0:
257,162,59319,1,8,0:0:0:0:
249,147,59540,1,8,0:0:0:0:
249,147,59650,1,0,0:0:0:0:
249,148,59760,1,8,0:0:0:0:
249,148,59870,1,0,0:0:0:0:
248,147,59981,1,8,0:0:0:0:
252,149,60201,1,0,0:0:0:0:
252,148,60312,1,0,0:0:0:0:
249,147,60422,1,8,0:0:0:0:
253,153,60532,1,0,0:0:0:0:
253,153,60643,1,0,0:0:0:0:
253,153,60753,1,8,0:0:0:0:
254,152,61304,1,0,0:0:0:0:
253,153,61415,1,0,0:0:0:0:
253,153,61525,1,8,0:0:0:0:
253,153,61635,1,0,0:0:0:0:
254,152,61745,1,8,0:0:0:0:
254,152,61856,1,0,0:0:0:0:
254,152,61966,1,8,0:0:0:0:
254,152,62076,1,0,0:0:0:0:
255,158,62187,1,8,0:0:0:0:
255,159,62297,1,8,0:0:0:0:
255,159,62407,1,0,0:0:0:0:
255,162,62518,1,0,0:0:0:0:
260,160,62628,1,8,0:0:0:0:
258,160,62738,1,0,0:0:0:0:
258,160,62848,1,8,0:0:0:0:
258,160,62959,1,0,0:0:0:0:
258,160,63069,1,8,0:0:0:0:
255,158,63179,1,8,0:0:0:0:
255,159,63290,1,0,0:0:0:0:
255,159,63400,1,0,0:0:0:0:
255,162,63510,1,8,0:0:0:0:
260,160,63620,1,0,0:0:0:0:
258,160,63731,1,8,0:0:0:0:
258,160,63841,1,0,0:0:0:0:
258,160,63951,1,8,0:0:0:0:
250,163,64062,1,0,0:0:0:0:
214,160,64282,1,8,0:0:0:0:
260,160,64613,1,0,0:0:0:0:
258,160,64834,1,8,0:0:0:0:
263,160,65275,1,12,0:0:0:0:
260,160,65606,1,0,0:0:0:0:
263,160,65716,1,8,0:0:0:0:
261,151,65937,1,8,0:0:0:0:
257,157,66157,1,8,0:0:0:0:
256,157,66268,1,0,0:0:0:0:
255,157,66488,1,8,0:0:0:0:
255,157,66598,1,0,0:0:0:0:
259,146,66819,1,0,0:0:0:0:
257,157,67040,1,0,0:0:0:0:
257,157,67150,1,8,0:0:0:0:
256,152,67370,1,0,0:0:0:0:
256,152,67481,1,8,0:0:0:0:
259,146,67701,1,8,0:0:0:0:
257,157,67922,1,8,0:0:0:0:
257,157,68032,1,0,0:0:0:0:
256,152,68253,1,8,0:0:0:0:
256,152,68363,1,0,0:0:0:0:
257,157,68584,1,0,0:0:0:0:
263,160,68804,1,0,0:0:0:0:
260,160,68915,1,8,0:0:0:0:
260,160,69135,1,0,0:0:0:0:
263,160,69245,1,8,0:0:0:0:
256,142,69466,1,8,0:0:0:0:
257,157,69687,1,8,0:0:0:0:
256,157,69797,1,0,0:0:0:0:
255,157,70018,1,8,0:0:0:0:
255,157,70128,1,0,0:0:0:0:
251,162,70348,1,0,0:0:0:0:
252,185,70569,1,0,0:0:0:0:
257,189,71010,1,0,0:0:0:0:
257,189,71120,1,8,0:0:0:0:
256,181,71451,1,8,0:0:0:0:
256,175,71562,1,8,0:0:0:0:
260,175,71672,1,0,0:0:0:0:
273,173,71782,1,8,0:0:0:0:
265,167,71893,1,0,0:0:0:0:
260,167,72113,1,8,0:0:0:0:
263,160,72334,1,0,0:0:0:0:
260,160,72444,1,8,0:0:0:0:
260,160,72665,1,0,0:0:0:0:
263,160,72775,1,8,0:0:0:0:
253,145,72995,1,8,0:0:0:0:
257,157,73216,1,8,0:0:0:0:
256,157,73326,1,0,0:0:0:0:
255,157,73547,1,8,0:0:0:0:
255,157,73657,1,0,0:0:0:0:
253,145,73878,1,0,0:0:0:0:
257,157,74098,1,0,0:0:0:0:
257,157,74209,1,8,0:0:0:0:
256,152,74429,1,0,0:0:0:0:
256,152,74540,1,8,0:0:0:0:
253,145,74760,1,8,0:0:0:0:
256,152,74981,1,8,0:0:0:0:
256,152,75091,1,0,0:0:0:0:
256,152,75312,1,8,0:0:0:0:
256,152,75422,1,0,0:0:0:0:
257,157,75643,1,0,0:0:0:0:
257,157,75863,1,0,0:0:0:0:
257,157,75973,1,8,0:0:0:0:
255,157,76194,1,0,0:0:0:0:
255,157,76304,1,8,0:0:0:0:
249,147,76525,1,8,0:0:0:0:
257,157,76745,1,8,0:0:0:0:
252,147,76856,1,0,0:0:0:0:
255,157,77076,1,8,0:0:0:0:
255,157,77187,1,0,0:0:0:0:
249,147,77407,1,0,0:0:0:0:
257,157,77628,1,0,0:0:0:0:
257,157,77738,1,8,0:0:0:0:
257,157,77959,1,0,0:0:0:0:
251,152,78179,1,0,0:0:0:0:
257,157,78400,1,8,0:0:0:0:
254,140,78620,1,8,0:0:0:0:
257,157,78731,1,0,0:0:0:0:
260,148,78951,1,8,0:0:0:0:
257,154,79062,1,0,0:0:0:0:
251,152,79172,1,8,0:0:0:0:
252,153,79282,1,0,0:0:0:0:
257,142,79393,1,8,0:0:0:0:
265,145,79613,1,12,0:0:0:0:
249,126,79834,1,12,0:0:0:0:
259,135,80054,1,4,0:0:0:0:
258,137,80275,1,12,0:0:0:0:
258,137,80495,1,12,0:0:0:0:
258,137,80716,1,4,0:0:0:0:
256,142,80937,1,8,0:0:0:0:
256,142,81047,1,0,0:0:0:0:
258,137,81157,1,8,0:0:0:0:
258,137,81268,1,0,0:0:0:0:
258,137,81378,1,8,0:0:0:0:
258,137,81488,1,0,0:0:0:0:
258,137,81598,1,8,0:0:0:0:
263,142,81709,1,0,0:0:0:0:
263,140,81819,1,0,0:0:0:0:
265,130,81929,1,0,0:0:0:0:
257,134,82040,1,8,0:0:0:0:
258,137,82150,1,8,0:0:0:0:
258,137,82260,1,0,0:0:0:0:
258,137,82370,1,8,0:0:0:0:
253,134,82481,1,0,0:0:0:0:
258,137,82591,1,8,0:0:0:0:
254,136,82701,1,0,0:0:0:0:
250,138,82812,1,8,0:0:0:0:
256,134,82922,1,0,0:0:0:0:
257,134,83032,1,0,0:0:0:0:
251,132,83143,1,8,0:0:0:0:
251,132,83253,1,0,0:0:0:0:
256,130,83363,1,8,0:0:0:0:
256,130,83473,1,8,0:0:0:0:
258,137,83584,1,0,0:0:0:0:
243,131,83694,1,8,0:0:0:0:
252,128,83804,1,0,0:0:0:0:
252,128,83915,1,0,0:0:0:0:
257,134,84025,1,8,0:0:0:0:
233,130,84135,1,0,0:0:0:0:
245,126,84245,1,8,0:0:0:0:
245,131,84356,1,0,0:0:0:0:
245,127,84466,1,8,0:0:0:0:
244,129,84576,1,8,0:0:0:0:
243,131,84687,1,0,0:0:0:0:
246,125,84797,1,0,0:0:0:0:
246,125,84907,1,8,0:0:0:0:
247,123,85018,1,0,0:0:0:0:
245,125,85128,1,8,0:0:0:0:
245,126,85238,1,0,0:0:0:0:
245,124,85348,1,0,0:0:0:0:
245,127,85459,1,0,0:0:0:0:
244,129,85569,1,8,0:0:0:0:
243,131,85679,1,8,0:0:0:0:
243,132,85790,1,0,0:0:0:0:
240,133,85900,1,8,0:0:0:0:
245,130,86010,1,0,0:0:0:0:
245,130,86120,1,8,0:0:0:0:
245,134,86231,1,0,0:0:0:0:
245,132,86341,1,8,0:0:0:0:
246,133,86451,1,0,0:0:0:0:
246,132,86562,1,0,0:0:0:0:
250,131,86672,1,8,0:0:0:0:
259,128,86782,1,0,0:0:0:0:
247,130,86893,1,8,0:0:0:0:
245,130,87003,1,0,0:0:0:0:
245,130,87113,1,8,0:0:0:0:
245,134,87223,1,8,0:0:0:0:
252,127,87334,1,0,0:0:0:0:
251,128,87444,1,0,0:0:0:0:
251,128,87554,1,8,0:0:0:0:
250,131,87665,1,0,0:0:0:0:
245,122,87775,1,8,0:0:0:0:
249,118,87885,1,0,0:0:0:0:
242,125,87995,1,8,0:0:0:0:
242,125,88106,1,8,0:0:0:0:
238,113,88216,1,0,0:0:0:0:
245,132,88326,1,0,0:0:0:0:
245,131,88437,1,8,0:0:0:0:
245,131,88547,1,0,0:0:0:0:
245,125,88657,1,8,0:0:0:0:
245,122,88768,1,0,0:0:0:0:
242,125,88878,1,8,0:0:0:0:
242,125,88988,1,8,0:0:0:0:
242,125,89098,1,0,0:0:0:0:
241,122,89209,1,0,0:0:0:0:
241,122,89319,1,8,0:0:0:0:
241,122,89429,1,0,0:0:0:0:
242,119,89540,1,8,0:0:0:0:
245,125,89650,1,0,0:0:0:0:
240,127,89760,1,8,0:0:0:0:
242,125,89870,1,8,0:0:0:0:
241,117,89981,1,0,0:0:0:0:
242,125,90091,1,0,0:0:0:0:
240,128,90201,1,8,0:0:0:0:
240,128,90312,1,0,0:0:0:0:
241,122,90422,1,8,0:0:0:0:
242,119,90532,1,8,0:0:0:0:
245,125,90643,1,0,0:0:0:0:
244,123,90753,1,8,0:0:0:0:
243,133,90863,1,0,0:0:0:0:
237,130,90973,1,0,0:0:0:0:
242,125,91084,1,8,0:0:0:0:
245,120,91194,1,0,0:0:0:0:
249,120,91304,1,0,0:0:0:0:
249,120,91415,1,0,0:0:0:0:
249,120,91525,1,8,0:0:0:0:
251,122,91635,1,0,0:0:0:0:
244,123,91745,1,8,0:0:0:0:
251,122,91856,1,0,0:0:0:0:
242,119,91966,1,0,0:0:0:0:
246,120,92076,1,0,0:0:0:0:
245,120,92187,1,8,0:0:0:0:
244,123,92297,1,0,0:0:0:0:
244,123,92407,1,0,0:0:0:0:
244,123,92518,1,0,0:0:0:0:
243,106,92628,1,8,0:0:0:0:
241,108,92738,1,0,0:0:0:0:
240,110,92848,1,0,0:0:0:0:
239,100,92959,1,8,0:0:0:0:
246,109,93069,1,0,0:0:0:0:
244,104,93179,1,0,0:0:0:0:
242,100,93290,1,8,0:0:0:0:
242,101,93400,1,0,0:0:0:0:
245,107,93510,1,0,0:0:0:0:
242,105,93620,1,0,0:0:0:0:
242,100,93731,1,8,0:0:0:0:
244,100,93841,1,0,0:0:0:0:
242,94,93951,1,8,0:0:0:0:
243,96,94062,1,0,0:0:0:0:
245,107,94172,1,8,0:0:0:0:
245,107,94282,1,0,0:0:0:0:
245,107,94393,1,8,0:0:0:0:
245,107,94503,1,0,0:0:0:0:
249,105,94613,1,8,0:0:0:0:
251,104,94723,1,0,0:0:0:0:
250,105,94834,1,8,0:0:0:0:
250,105,94944,1,0,0:0:0:0:
249,100,95054,1,8,0:0:0:0:
249,103,95165,1,8,0:0:0:0:
245,107,95275,1,0,0:0:0:0:
249,104,95385,1,0,0:0:0:0:
251,106,95495,1,8,0:0:0:0:
249,105,95606,1,0,0:0:0:0:
256,103,95716,1,8,0:0:0:0:
256,102,95826,1,0,0:0:0:0:
255,98,95937,1,0,0:0:0:0:
255,98,96047,1,0,0:0:0:0:
259,102,96157,1,8,0:0:0:0:
259,99,96268,1,8,0:0:0:0:
259,99,96378,1,0,0:0:0:0:
258,99,96488,1,8,0:0:0:0:
258,97,96598,1,0,0:0:0:0:
256,97,96709,1,8,0:0:0:0:
262,97,96819,1,0,0:0:0:0:
262,97,96929,1,8,0:0:0:0:
260,93,97040,1,0,0:0:0:0:
264,91,97150,1,0,0:0:0:0:
265,91,97260,1,8,0:0:0:0:
266,91,97370,1,0,0:0:0:0:
260,88,97481,1,8,0:0:0:0:
260,88,97591,1,8,0:0:0:0:
260,88,97701,1,0,0:0:0:0:
260,88,97812,1,0,0:0:0:0:
255,87,97922,1,8,0:0:0:0:
260,93,98032,1,0,0:0:0:0:
258,92,98143,1,8,0:0:0:0:
258,92,98253,1,0,0:0:0:0:
261,95,98363,1,8,0:0:0:0:
261,99,98473,1,0,0:0:0:0:
261,99,98584,1,8,0:0:0:0:
261,99,98694,1,8,0:0:0:0:
270,95,98804,1,0,0:0:0:0:
268,96,98915,1,0,0:0:0:0:
268,96,99025,1,8,0:0:0:0:
267,97,99135,1,0,0:0:0:0:
271,96,99245,1,8,0:0:0:0:
270,95,99356,1,0,0:0:0:0:
269,97,99466,1,0,0:0:0:0:
266,96,99576,1,0,0:0:0:0:
270,93,99687,1,8,0:0:0:0:
267,102,99797,1,8,0:0:0:0:
268,96,99907,1,0,0:0:0:0:
268,96,100018,1,8,0:0:0:0:
271,79,100128,1,0,0:0:0:0:
274,87,100238,1,8,0:0:0:0:
277,93,100348,1,0,0:0:0:0:
277,93,100459,1,8,0:0:0:0:
277,93,100569,1,0,0:0:0:0:
277,89,100679,1,0,0:0:0:0:
277,89,100790,1,8,0:0:0:0:
277,89,100900,1,0,0:0:0:0:
277,90,101010,1,8,0:0:0:0:
277,89,101120,1,0,0:0:0:0:
274,87,101231,1,8,0:0:0:0:
277,93,101341,1,8,0:0:0:0:
277,93,101451,1,0,0:0:0:0:
277,93,101562,1,0,0:0:0:0:
277,89,101672,1,8,0:0:0:0:
277,89,101782,1,0,0:0:0:0:
277,89,101893,1,8,0:0:0:0:
277,90,102003,1,0,0:0:0:0:
275,84,102113,1,8,0:0:0:0:
274,87,102223,1,8,0:0:0:0:
277,93,102334,1,0,0:0:0:0:
277,93,102444,1,0,0:0:0:0:
277,93,102554,1,8,0:0:0:0:
277,89,102665,1,0,0:0:0:0:
277,89,102775,1,8,0:0:0:0:
274,94,102885,1,0,0:0:0:0:
273,93,102995,1,8,0:0:0:0:
273,93,103106,1,8,0:0:0:0:
274,87,103216,1,0,0:0:0:0:
277,93,103326,1,0,0:0:0:0:
277,93,103437,1,8,0:0:0:0:
277,93,103547,1,0,0:0:0:0:
272,91,103657,1,8,0:0:0:0:
277,89,103768,1,0,0:0:0:0:
280,88,103878,1,8,0:0:0:0:
280,88,103988,1,8,0:0:0:0:
279,91,104098,1,0,0:0:0:0:
279,90,104209,1,0,0:0:0:0:
277,93,104319,1,8,0:0:0:0:
277,93,104429,1,0,0:0:0:0:
283,85,104540,1,0,0:0:0:0:
284,83,104650,1,0,0:0:0:0:
284,83,104760,1,8,0:0:0:0:
276,93,104870,1,0,0:0:0:0:
280,88,104981,1,8,0:0:0:0:
279,91,105091,1,0,0:0:0:0:
283,81,105201,1,0,0:0:0:0:
283,82,105312,1,8,0:0:0:0:
280,83,105422,1,0,0:0:0:0:
283,85,105532,1,0,0:0:0:0:
279,85,105643,1,8,0:0:0:0:
284,83,105753,1,0,0:0:0:0:
284,80,105863,1,8,0:0:0:0:
281,71,105973,1,0,0:0:0:0:
272,82,106084,1,0,0:0:0:0:
276,86,106194,1,0,0:0:0:0:
276,86,106304,1,8,0:0:0:0:
280,83,106415,1,0,0:0:0:0:
283,85,106525,1,0,0:0:0:0:
279,85,106635,1,0,0:0:0:0:
284,83,106745,1,8,0:0:0:0:
284,80,106856,1,0,0:0:0:0:
281,71,106966,1,8,0:0:0:0:
282,76,107076,1,0,0:0:0:0:
282,76,107187,1,8,0:0:0:0:
282,77,107297,1,8,0:0:0:0:
282,77,107407,1,0,0:0:0:0:
283,85,107518,1,0,0:0:0:0:
279,85,107628,1,12,0:0:0:0:
284,80,107848,1,8,0:0:0:0:
282,76,108069,1,8,0:0:0:0:
282,76,108179,1,0,0:0:0:0:
285,86,108400,1,8,0:0:0:0:
284,77,108620,1,8,0:0:0:0:
284,80,108841,1,0,0:0:0:0:
282,76,108951,1,0,0:0:0:0:
283,83,109172,1,0,0:0:0:0:
255,193,109393,1,12,0:0:0:0:
262,184,110054,1,0,0:0:0:0:
258,189,110165,1,8,0:0:0:0:
254,182,110495,1,8,0:0:0:0:
260,184,110716,1,8,0:0:0:0:
260,184,110826,1,8,0:0:0:0:
258,189,110937,1,8,0:0:0:0:
258,189,111047,1,0,0:0:0:0:
260,185,111378,1,0,0:0:0:0:
260,184,111598,1,0,0:0:0:0:
260,184,111709,1,0,0:0:0:0:
260,184,111819,1,8,0:0:0:0:
262,184,111929,1,0,0:0:0:0:
260,185,112260,1,8,0:0:0:0:
260,184,112701,1,8,0:0:0:0:
261,188,112922,1,8,0:0:0:0:
260,185,113032,1,0,0:0:0:0:
260,185,113143,1,8,0:0:0:0:
260,185,113253,1,0,0:0:0:0:
259,189,113363,1,8,0:0:0:0:
259,189,113473,1,8,0:0:0:0:
259,190,113584,1,0,0:0:0:0:
258,190,113694,1,0,0:0:0:0:
261,188,113804,1,8,0:0:0:0:
261,188,113915,1,0,0:0:0:0:
262,188,114025,1,8,0:0:0:0:
262,189,114135,1,0,0:0:0:0:
260,185,114245,1,8,0:0:0:0:
261,181,114356,1,8,0:0:0:0:
260,185,114466,1,0,0:0:0:0:
261,182,114576,1,0,0:0:0:0:
258,180,114797,1,8,0:0:0:0:
259,180,114907,1,0,0:0:0:0:
261,177,115128,1,0,0:0:0:0:
261,181,115348,1,0,0:0:0:0:
262,172,115569,1,8,0:0:0:0:
258,180,115790,1,8,0:0:0:0:
272,174,116010,1,0,0:0:0:0:
268,179,116120,1,8,0:0:0:0:
261,181,116231,1,8,0:0:0:0:
266,182,116341,1,0,0:0:0:0:
261,188,116451,1,8,0:0:0:0:
260,185,116562,1,8,0:0:0:0:
260,185,116672,1,0,0:0:0:0:
260,185,116782,1,0,0:0:0:0:
259,189,116893,1,8,0:0:0:0:
259,189,117003,1,8,0:0:0:0:
259,190,117113,1,0,0:0:0:0:
258,190,117223,1,0,0:0:0:0:
261,188,117334,1,8,0:0:0:0:
261,188,117444,1,0,0:0:0:0:
262,188,117554,1,8,0:0:0:0:
262,189,117665,1,0,0:0:0:0:
260,185,117775,1,8,0:0:0:0:
261,181,117885,1,0,0:0:0:0:
261,181,117995,1,8,0:0:0:0:
261,182,118106,1,0,0:0:0:0:
258,182,118216,1,8,0:0:0:0:
258,182,118437,1,0,0:0:0:0:
258,182,118657,1,0,0:0:0:0:
260,185,118768,1,8,0:0:0:0:
256,184,118988,1,8,0:0:0:0:
258,182,119319,1,8,0:0:0:0:
258,182,119540,1,0,0:0:0:0:
260,185,119760,1,8,0:0:0:0:
261,188,119981,1,8,0:0:0:0:
260,185,120091,1,8,0:0:0:0:
260,185,120201,1,0,0:0:0:0:
260,185,120312,1,0,0:0:0:0:
259,189,120422,1,8,0:0:0:0:
259,189,120532,1,0,0:0:0:0:
259,190,120643,1,8,0:0:0:0:
258,190,120753,1,0,0:0:0:0:
261,188,120863,1,8,0:0:0:0:
261,188,120973,1,8,0:0:0:0:
262,188,121084,1,0,0:0:0:0:
262,189,121194,1,0,0:0:0:0:
260,185,121304,1,8,0:0:0:0:
261,181,121415,1,0,0:0:0:0:
261,181,121525,1,8,0:0:0:0:
261,182,121635,1,8,0:0:0:0:
261,178,121745,1,0,0:0:0:0:
260,182,121856,1,8,0:0:0:0:
261,181,121966,1,0,0:0:0:0:
262,179,122076,1,0,0:0:0:0:
262,179,122187,1,0,0:0:0:0:
262,179,122297,1,8,0:0:0:0:
261,181,122518,1,0,0:0:0:0:
256,186,122628,1,12,0:0:0:0:
256,186,122848,1,4,0:0:0:0:
259,182,123069,1,8,0:0:0:0:
258,183,123179,1,0,0:0:0:0:
256,182,123290,1,0,0:0:0:0:
256,181,123400,1,8,0:0:0:0:
261,188,123510,1,8,0:0:0:0:
260,185,123620,1,0,0:0:0:0:
260,185,123731,1,8,0:0:0:0:
260,185,123841,1,0,0:0:0:0:
259,189,123951,1,8,0:0:0:0:
259,189,124062,1,0,0:0:0:0:
259,190,124172,1,8,0:0:0:0:
258,190,124282,1,0,0:0:0:0:
261,188,124393,1,8,0:0:0:0:
261,188,124503,1,8,0:0:0:0:
262,188,124613,1,0,0:0:0:0:
262,189,124723,1,0,0:0:0:0:
260,185,124834,1,8,0:0:0:0:
261,181,124944,1,8,0:0:0:0:
261,181,125054,1,0,0:0:0:0:
261,182,125165,1,0,0:0:0:0:
266,181,125275,1,8,0:0:0:0:
266,181,125495,1,0,0:0:0:0:
266,179,125606,1,8,0:0:0:0:
266,180,125826,1,8,0:0:0:0:
261,181,126047,1,0,0:0:0:0:
266,181,126268,1,8,0:0:0:0:
261,173,126598,1,8,0:0:0:0:
261,173,126819,1,0,0:0:0:0:
261,188,127040,1,8,0:0:0:0:
260,185,127150,1,0,0:0:0:0:
260,185,127260,1,8,0:0:0:0:
260,185,127370,1,0,0:0:0:0:
259,189,127481,1,8,0:0:0:0:
259,189,127591,1,8,0:0:0:0:
259,190,127701,1,8,0:0:0:0:
258,190,127812,1,8,0:0:0:0:
261,188,127922,1,0,0:0:0:0:
261,188,128032,1,8,0:0:0:0:
262,188,128143,1,0,0:0:0:0:
262,189,128253,1,8,0:0:0:0:
260,185,128363,1,0,0:0:0:0:
261,181,128473,1,0,0:0:0:0:
261,181,128584,1,8,0:0:0:0:
261,182,128694,1,0,0:0:0:0:
268,175,128915,1,0,0:0:0:0:
266,171,129135,1,0,0:0:0:0:
272,172,129245,1,8,0:0:0:0:
268,169,129466,1,0,0:0:0:0:
269,171,129687,1,8,0:0:0:0:
268,175,129797,1,0,0:0:0:0:
268,175,129907,1,8,0:0:0:0:
266,171,130018,1,8,0:0:0:0:
268,147,130128,1,8,0:0:0:0:
268,164,130238,1,0,0:0:0:0:
268,169,130348,1,8,0:0:0:0:
268,169,130459,1,0,0:0:0:0:
261,188,130569,1,8,0:0:0:0:
260,185,130790,1,8,0:0:0:0:
260,185,130900,1,8,0:0:0:0:
259,189,131010,1,0,0:0:0:0:
259,189,131120,1,8,0:0:0:0:
259,190,131231,1,8,0:0:0:0:
258,190,131341,1,0,0:0:0:0:
261,188,131451,1,8,0:0:0:0:
261,188,131562,1,8,0:0:0:0:
262,188,131672,1,0,0:0:0:0:
260,185,131893,1,8,0:0:0:0:
261,181,132003,1,8,0:0:0:0:
261,181,132113,1,0,0:0:0:0:
261,173,132223,1,8,0:0:0:0:
252,187,132444,1,8,0:0:0:0:
257,180,132554,1,8,0:0:0:0:
257,177,132665,1,0,0:0:0:0:
257,177,132775,1,0,0:0:0:0:
257,177,132885,1,8,0:0:0:0:
257,177,132995,1,8,0:0:0:0:
257,177,133106,1,0,0:0:0:0:
261,182,133216,1,8,0:0:0:0:
257,183,133437,1,8,0:0:0:0:
257,182,133657,1,8,0:0:0:0:
256,195,133878,1,8,0:0:0:0:
259,192,133988,1,0,0:0:0:0:
261,188,134098,1,8,0:0:0:0:
260,185,134209,1,8,0:0:0:0:
260,185,134319,1,0,0:0:0:0:
260,185,134429,1,8,0:0:0:0:
259,189,134540,1,0,0:0:0:0:
259,189,134650,1,0,0:0:0:0:
259,190,134760,1,8,0:0:0:0:
258,190,134870,1,0,0:0:0:0:
261,188,134981,1,8,0:0:0:0:
261,188,135091,1,8,0:0:0:0:
262,188,135201,1,0,0:0:0:0:
262,189,135312,1,8,0:0:0:0:
269,192,135422,1,0,0:0:0:0:
261,181,135532,1,0,0:0:0:0:
261,181,135643,1,8,0:0:0:0:
261,182,135753,1,8,0:0:0:0:
267,181,135863,1,0,0:0:0:0:
262,181,136084,1,8,0:0:0:0:
262,180,136194,1,8,0:0:0:0:
266,167,136415,1,8,0:0:0:0:
261,176,136635,1,0,0:0:0:0:
256,192,136745,12,0,137407,0:0:0:0:
261,176,137628,5,0,0:0:0:0:
261,176,137738,1,8,0:0:0:0:
261,176,137959,1,0,0:0:0:0:
261,176,138069,1,8,0:0:0:0:
261,176,138290,1,8,0:0:0:0:
261,176,138510,1,8,0:0:0:0:
261,176,138620,1,0,0:0:0:0:
261,176,138841,1,8,0:0:0:0:
261,176,138951,1,0,0:0:0:0:
261,176,139172,1,0,0:0:0:0:
261,176,139393,1,0,0:0:0:0:
261,176,139503,1,8,0:0:0:0:
256,172,139723,1,0,0:0:0:0:
256,172,139834,1,8,0:0:0:0:
249,179,140054,1,8,0:0:0:0:
256,172,140275,1,8,0:0:0:0:
256,172,140385,1,0,0:0:0:0:
256,172,140606,1,8,0:0:0:0:
256,172,140716,1,0,0:0:0:0:
256,172,140937,1,0,0:0:0:0:
261,176,141157,1,0,0:0:0:0:
261,176,141268,1,8,0:0:0:0:
261,176,141488,1,0,0:0:0:0:
261,176,141598,1,8,0:0:0:0:
262,175,141819,1,8,0:0:0:0:
261,176,142040,1,8,0:0:0:0:
261,176,142150,1,0,0:0:0:0:
261,176,142370,1,8,0:0:0:0:
261,176,142481,1,0,0:0:0:0:
262,175,142701,1,0,0:0:0:0:
261,176,142922,1,8,0:0:0:0:
261,176,143143,1,0,0:0:0:0:
261,176,143363,1,8,0:0:0:0:
264,183,143473,1,8,0:0:0:0:
261,176,143584,1,0,0:0:0:0:
256,172,143804,1,8,0:0:0:0:
256,172,144025,1,0,0:0:0:0:
256,172,144245,1,8,0:0:0:0:
261,176,144356,1,8,0:0:0:0:
256,172,144466,1,0,0:0:0:0:
261,176,144687,5,0,0:0:0:0:
261,176,144797,1,8,0:0:0:0:
261,176,145018,1,0,0:0:0:0:
261,176,145128,1,8,0:0:0:0:
261,176,145348,1,8,0:0:0:0:
261,176,145569,1,8,0:0:0:0:
261,176,145679,1,0,0:0:0:0:
261,176,145900,1,8,0:0:0:0:
261,176,146010,1,0,0:0:0:0:
269,160,146231,1,0,0:0:0:0:
261,176,146451,1,0,0:0:0:0:
261,176,146562,1,8,0:0:0:0:
256,172,146782,1,0,0:0:0:0:
256,172,146893,1,8,0:0:0:0:
255,177,147113,1,8,0:0:0:0:
256,172,147334,1,8,0:0:0:0:
256,172,147444,1,0,0:0:0:0:
256,172,147665,1,8,0:0:0:0:
256,172,147775,1,0,0:0:0:0:
256,172,147995,1,0,0:0:0:0:
259,161,148216,1,0,0:0:0:0:
261,176,148326,1,8,0:0:0:0:
261,176,148547,1,0,0:0:0:0:
261,176,148657,1,8,0:0:0:0:
237,178,148878,1,8,0:0:0:0:
261,176,149098,1,8,0:0:0:0:
261,176,149209,1,0,0:0:0:0:
261,176,149429,1,8,0:0:0:0:
261,176,149540,1,0,0:0:0:0:
268,177,149760,1,0,0:0:0:0:
261,176,149981,1,0,0:0:0:0:
261,176,150091,1,8,0:0:0:0:
256,172,150312,1,0,0:0:0:0:
256,172,150532,1,8,0:0:0:0:
256,172,150753,1,0,0:0:0:0:
256,172,150973,1,0,0:0:0:0:
256,172,151084,1,8,0:0:0:0:
256,172,151304,1,8,0:0:0:0:
250,169,151415,1,0,0:0:0:0:
256,172,151525,1,8,0:0:0:0:
244,174,151635,1,0,0:0:0:0:
254,165,151745,1,8,0:0:0:0:
248,178,151966,1,12,0:0:0:0:
252,167,152187,1,12,0:0:0:0:
252,167,152407,1,4,0:0:0:0:
254,165,152628,1,12,0:0:0:0:
252,167,152848,1,12,0:0:0:0:
252,167,153069,1,4,0:0:0:0:
252,167,153290,1,8,0:0:0:0:
252,167,153400,1,4,0:0:0:0:
252,167,153731,1,8,0:0:0:0:
252,167,153951,1,0,0:0:0:0:
252,167,154172,1,8,0:0:0:0:
252,167,154393,1,8,0:0:0:0:
252,167,154503,1,0,0:0:0:0:
254,175,154613,1,8,0:0:0:0:
252,167,154723,1,0,0:0:0:0:
252,167,154944,1,8,0:0:0:0:
259,168,155054,1,0,0:0:0:0:
252,167,155165,1,8,0:0:0:0:
252,167,155495,1,8,0:0:0:0:
255,171,155716,1,0,0:0:0:0:
256,168,155937,1,8,0:0:0:0:
259,164,156047,1,0,0:0:0:0:
262,163,156378,1,8,0:0:0:0:
256,168,156598,1,0,0:0:0:0:
256,168,156819,1,8,0:0:0:0:
256,168,156929,1,0,0:0:0:0:
251,168,157150,1,0,0:0:0:0:
254,165,157260,1,8,0:0:0:0:
254,162,157481,1,0,0:0:0:0:
256,168,157701,1,8,0:0:0:0:
260,173,157922,1,8,0:0:0:0:
257,172,158032,1,0,0:0:0:0:
262,173,158143,1,8,0:0:0:0:
257,172,158253,1,0,0:0:0:0:
256,168,158473,1,8,0:0:0:0:
256,168,158584,1,0,0:0:0:0:
256,168,158694,1,8,0:0:0:0:
255,169,159025,1,8,0:0:0:0:
249,166,159135,1,0,0:0:0:0:
254,162,159245,1,8,0:0:0:0:
246,162,159356,1,8,0:0:0:0:
256,168,159466,1,8,0:0:0:0:
256,168,159576,1,4,0:0:0:0:
255,169,159907,1,8,0:0:0:0:
257,170,160128,1,0,0:0:0:0:
256,159,160348,1,8,0:0:0:0:
256,159,160459,1,0,0:0:0:0:
255,169,160679,1,0,0:0:0:0:
260,165,160790,1,8,0:0:0:0:
259,161,161010,1,0,0:0:0:0:
261,162,161231,1,8,0:0:0:0:
261,162,161341,1,0,0:0:0:0:
268,162,161562,1,0,0:0:0:0:
269,162,161672,1,8,0:0:0:0:
275,165,161893,1,0,0:0:0:0:
274,162,162113,1,8,0:0:0:0:
273,162,162223,1,0,0:0:0:0:
273,165,162444,1,0,0:0:0:0:
276,162,162554,1,8,0:0:0:0:
275,165,162775,1,0,0:0:0:0:
275,165,162885,1,0,0:0:0:0:
274,162,163106,1,8,0:0:0:0:
277,180,163437,1,8,0:0:0:0:
267,162,163657,1,0,0:0:0:0:
279,168,163768,1,0,0:0:0:0:
275,165,163878,1,8,0:0:0:0:
279,164,164098,1,0,0:0:0:0:
277,163,164319,1,8,0:0:0:0:
279,167,164540,1,0,0:0:0:0:
279,167,164760,1,8,0:0:0:0:
279,164,164981,1,0,0:0:0:0:
277,163,165201,1,0,0:0:0:0:
277,157,165312,1,8,0:0:0:0:
278,151,165422,1,0,0:0:0:0:
278,151,165532,1,0,0:0:0:0:
276,154,165643,1,12,0:0:0:0:
282,154,165863,1,0,0:0:0:0:
279,138,165973,1,0,0:0:0:0:
281,151,166084,1,8,0:0:0:0:
281,151,166304,1,0,0:0:0:0:
284,152,166525,1,8,0:0:0:0:
283,146,166856,1,8,0:0:0:0:
286,152,166966,1,0,0:0:0:0:
286,156,167187,1,0,0:0:0:0:
284,152,167407,1,8,0:0:0:0:
286,152,167518,1,0,0:0:0:0:
296,147,167628,1,12,0:0:0:0:
295,147,167848,1,8,0:0:0:0:
286,142,168069,1,0,0:0:0:0:
284,152,168290,1,8,0:0:0:0:
277,153,168510,1,8,0:0:0:0:
285,151,168620,1,0,0:0:0:0:
287,149,168731,1,8,0:0:0:0:
284,152,168841,1,0,0:0:0:0:
284,152,169062,1,8,0:0:0:0:
284,152,169172,1,0,0:0:0:0:
284,152,169282,1,8,0:0:0:0:
285,151,169613,1,8,0:0:0:0:
284,152,169834,1,0,0:0:0:0:
284,152,170054,1,8,0:0:0:0:
289,146,170275,1,0,0:0:0:0:
290,154,170495,1,8,0:0:0:0:
295,147,170716,1,0,0:0:0:0:
295,147,170937,1,8,0:0:0:0:
295,143,171047,1,0,0:0:0:0:
306,142,171157,1,12,0:0:0:0:
293,148,171378,1,8,0:0:0:0:
301,149,171598,1,8,0:0:0:0:
295,147,171709,1,0,0:0:0:0:
295,147,171819,1,0,0:0:0:0:
291,141,171929,1,8,0:0:0:0:
295,143,172040,1,8,0:0:0:0:
292,141,172150,1,0,0:0:0:0:
298,128,172260,1,8,0:0:0:0:
292,141,172370,1,0,0:0:0:0:
292,141,172591,1,8,0:0:0:0:
292,137,172701,1,0,0:0:0:0:
296,138,172812,1,8,0:0:0:0:
292,141,173143,1,0,0:0:0:0:
287,142,173253,1,0,0:0:0:0:
290,134,173363,1,8,0:0:0:0:
292,141,173473,1,8,0:0:0:0:
292,141,173584,1,8,0:0:0:0:
290,136,173694,1,4,0:0:0:0:
302,142,174025,1,8,0:0:0:0:
303,142,174245,1,0,0:0:0:0:
303,144,174466,1,8,0:0:0:0:
308,141,174576,1,0,0:0:0:0:
306,157,174797,1,0,0:0:0:0:
309,142,174907,1,8,0:0:0:0:
316,143,175128,1,0,0:0:0:0:
312,139,175348,1,8,0:0:0:0:
311,139,175459,1,0,0:0:0:0:
307,147,175679,1,0,0:0:0:0:
309,142,175790,1,8,0:0:0:0:
299,136,176010,1,0,0:0:0:0:
298,138,176231,1,8,0:0:0:0:
299,140,176341,1,0,0:0:0:0:
296,130,176562,1,0,0:0:0:0:
292,132,176672,1,8,0:0:0:0:
298,138,177113,1,8,0:0:0:0:
299,140,177334,1,12,0:0:0:0:
298,142,177665,1,4,0:0:0:0:
298,143,177995,1,12,0:0:0:0:
299,140,178216,1,12,0:0:0:0:
255,187,178878,1,8,0:0:0:0:
255,187,178988,1,8,0:0:0:0:
255,187,179098,1,8,0:0:0:0:
256,181,179429,1,0,0:0:0:0:
256,181,179760,1,0,0:0:0:0:
255,187,179981,1,4,0:0:0:0:
251,183,180863,1,4,0:0:0:0:
251,183,181157,1,4,0:0:0:0:
260,190,181451,1,4,0:0:0:0:
259,191,181745,1,12,0:0:0:0:
260,187,182076,1,8,0:0:0:0:
261,184,182407,1,8,0:0:0:0:
260,181,182738,1,8,0:0:0:0:
264,177,183069,1,8,0:0:0:0:
263,177,183179,1,8,0:0:0:0:
263,177,183290,1,0,0:0:0:0:
262,177,183400,1,8,0:0:0:0:
260,181,183510,1,0,0:0:0:0:
263,173,183731,1,0,0:0:0:0:
259,168,183841,1,0,0:0:0:0:
262,169,183951,1,8,0:0:0:0:
263,170,184172,1,0,0:0:0:0:
262,177,184393,1,12,0:0:0:0:
263,173,184687,1,12,0:0:0:0:
262,177,184981,1,4,0:0:0:0:
263,173,185275,1,4,0:0:0:0:
263,173,185606,1,0,0:0:0:0:
262,177,185937,1,0,0:0:0:0:
265,177,186268,1,0,0:0:0:0:
267,171,186598,1,8,0:0:0:0:
265,173,186709,1,8,0:0:0:0:
262,177,186819,1,0,0:0:0:0:
262,177,186929,1,8,0:0:0:0:
266,164,187040,1,4,0:0:0:0:
266,169,187260,1,8,0:0:0:0:
264,164,187370,1,0,0:0:0:0:
262,170,187481,1,8,0:0:0:0:
267,171,187591,1,8,0:0:0:0:
269,163,187701,1,0,0:0:0:0:
261,146,187812,1,0,0:0:0:0:
272,157,187922,1,12,0:0:0:0:
270,159,188143,1,0,0:0:0:0:
269,158,188253,1,0,0:0:0:0:
269,158,188363,1,8,0:0:0:0:
269,158,188473,1,8,0:0:0:0:
269,158,188584,1,8,0:0:0:0:
269,163,188694,1,0,0:0:0:0:
269,156,188804,1,12,0:0:0:0:
270,159,189135,1,8,0:0:0:0:
269,158,189466,1,8,0:0:0:0:
267,164,189797,1,8,0:0:0:0:
271,164,190128,1,8,0:0:0:0:
271,164,190238,1,8,0:0:0:0:
271,164,190348,1,0,0:0:0:0:
270,164,190459,1,8,0:0:0:0:
267,164,190569,1,0,0:0:0:0:
267,164,190790,1,0,0:0:0:0:
266,161,190900,1,0,0:0:0:0:
266,161,191010,1,8,0:0:0:0:
268,157,191231,1,0,0:0:0:0:
270,164,191451,1,4,0:0:0:0:
267,164,191745,1,4,0:0:0:0:
269,169,192040,1,4,0:0:0:0:
270,164,192334,1,12,0:0:0:0:
272,173,192665,1,0,0:0:0:0:
274,170,192995,1,0,0:0:0:0:
269,169,193326,1,0,0:0:0:0:
272,173,193657,1,8,0:0:0:0:
266,170,193768,1,8,0:0:0:0:
266,165,193878,1,0,0:0:0:0:
269,162,193988,1,0,0:0:0:0:
260,163,194098,1,12,0:0:0:0:
269,169,194319,1,0,0:0:0:0:
260,167,194540,1,12,0:0:0:0:
265,163,194760,1,0,0:0:0:0:
269,162,194981,1,12,0:0:0:0:
268,162,195201,1,0,0:0:0:0:
268,162,195422,1,12,0:0:0:0:
265,163,195643,1,0,0:0:0:0:
269,162,195863,1,12,0:0:0:0:
268,162,196194,1,8,0:0:0:0:
265,163,196525,1,8,0:0:0:0:
269,162,196856,1,8,0:0:0:0:
268,162,197187,1,8,0:0:0:0:
268,157,197297,1,8,0:0:0:0:
265,163,197407,1,0,0:0:0:0:
267,148,197518,1,8,0:0:0:0:
267,151,197628,1,4,0:0:0:0:
270,151,197959,1,0,0:0:0:0:
262,142,198290,1,0,0:0:0:0:
259,136,198510,1,12,0:0:0:0:
263,142,198731,1,0,0:0:0:0:
260,139,198951,1,12,0:0:0:0:
262,142,199172,1,0,0:0:0:0:
257,143,199393,1,12,0:0:0:0:
254,141,199613,1,0,0:0:0:0:
248,142,199723,1,0,0:0:0:0:
253,141,199944,1,0,0:0:0:0:
255,141,200054,1,0,0:0:0:0:
257,143,200275,1,12,0:0:0:0:
259,138,200495,1,8,0:0:0:0:
259,137,200606,1,8,0:0:0:0:
260,138,200716,1,0,0:0:0:0:
260,136,200937,1,8,0:0:0:0:
261,139,201157,1,8,0:0:0:0:
261,137,201268,1,8,0:0:0:0:
259,138,201378,1,0,0:0:0:0:
259,138,201488,1,8,0:0:0:0:
259,137,201598,1,0,0:0:0:0:
260,136,201709,1,0,0:0:0:0:
260,136,201819,1,8,0:0:0:0:
263,132,201929,1,8,0:0:0:0:
261,139,202040,1,4,0:0:0:0:
260,131,202260,1,0,0:0:0:0:
260,129,202370,1,0,0:0:0:0:
262,130,202481,1,8,0:0:0:0:
263,131,202591,1,0,0:0:0:0:
263,131,202701,1,8,0:0:0:0:
264,132,202812,1,0,0:0:0:0:
263,132,202922,1,12,0:0:0:0:
266,129,203143,1,8,0:0:0:0:
266,129,203253,1,8,0:0:0:0:
260,129,203363,1,0,0:0:0:0:
265,122,203584,1,8,0:0:0:0:
265,126,203694,1,8,0:0:0:0:
267,126,203804,1,0,0:0:0:0:
264,125,203915,1,8,0:0:0:0:
266,129,204025,1,0,0:0:0:0:
266,129,204245,1,0,0:0:0:0:
263,122,204356,1,0,0:0:0:0:
265,122,204466,1,8,0:0:0:0:
265,122,204576,1,8,0:0:0:0:
265,126,204687,1,4,0:0:0:0:
269,122,204907,1,0,0:0:0:0:
269,123,205018,1,0,0:0:0:0:
269,123,205128,1,8,0:0:0:0:
272,122,205238,1,8,0:0:0:0:
272,122,205348,1,0,0:0:0:0:
272,122,205459,1,8,0:0:0:0:
275,122,205569,1,4,0:0:0:0:
274,121,205790,1,0,0:0:0:0:
274,122,205900,1,0,0:0:0:0:
274,123,206010,1,8,0:0:0:0:
274,123,206120,1,8,0:0:0:0:
276,122,206231,1,8,0:0:0:0:
278,122,206341,1,0,0:0:0:0:
272,122,206451,1,12,0:0:0:0:
274,121,206782,1,8,0:0:0:0:
273,116,207113,1,8,0:0:0:0:
274,116,207444,1,8,0:0:0:0:
274,116,207775,1,8,0:0:0:0:
273,116,207885,1,0,0:0:0:0:
273,108,207995,1,8,0:0:0:0:
273,116,208106,1,0,0:0:0:0:
272,124,208216,1,12,0:0:0:0:
268,118,208437,1,0,0:0:0:0:
272,110,208547,1,0,0:0:0:0:
272,108,208657,1,8,0:0:0:0:
274,116,208768,1,0,0:0:0:0:
273,116,208878,1,0,0:0:0:0:
272,114,208988,1,0,0:0:0:0:
273,116,209098,1,8,0:0:0:0:
272,112,209209,1,0,0:0:0:0:
272,113,209319,1,0,0:0:0:0:
272,115,209429,1,0,0:0:0:0:
276,104,209540,1,8,0:0:0:0:
276,104,209650,1,8,0:0:0:0:
277,108,209760,1,0,0:0:0:0:
273,116,209870,1,8,0:0:0:0:
256,191,211745,1,0,0:0:0:0:
259,186,211966,1,12,0:0:0:0:
256,191,212187,1,12,0:0:0:0:
256,191,212407,1,4,0:0:0:0:
256,191,212628,1,12,0:0:0:0:
256,190,212848,1,12,0:0:0:0:
261,182,213069,1,4,0:0:0:0:
261,182,213290,1,8,0:0:0:0:
263,186,213400,1,0,0:0:0:0:
262,182,213510,1,8,0:0:0:0:
263,184,213620,1,0,0:0:0:0:
263,183,213731,1,8,0:0:0:0:
263,183,213841,1,0,0:0:0:0:
276,169,213951,1,8,0:0:0:0:
276,169,214062,1,0,0:0:0:0:
277,169,214172,1,8,0:0:0:0:
279,165,214282,1,0,0:0:0:0:
271,164,214393,1,8,0:0:0:0:
270,165,214503,1,8,0:0:0:0:
274,173,214613,1,0,0:0:0:0:
274,173,214723,1,8,0:0:0:0:
271,172,214834,1,0,0:0:0:0:
282,175,214944,1,8,0:0:0:0:
276,169,215054,1,0,0:0:0:0:
277,175,215165,1,8,0:0:0:0:
277,177,215275,1,0,0:0:0:0:
277,177,215385,1,0,0:0:0:0:
277,177,215495,1,0,0:0:0:0:
277,177,215606,1,0,0:0:0:0:
277,178,215716,1,8,0:0:0:0:
272,167,215826,1,0,0:0:0:0:
272,173,215937,1,8,0:0:0:0:
276,175,216047,1,0,0:0:0:0:
271,175,216157,1,8,0:0:0:0:
277,175,216268,1,0,0:0:0:0:
277,177,216378,1,0,0:0:0:0:
276,168,216488,1,0,0:0:0:0:
270,198,216598,1,8,0:0:0:0:
267,181,216709,1,0,0:0:0:0:
267,185,216819,1,8,0:0:0:0:
267,184,216929,1,8,0:0:0:0:
269,176,217040,1,0,0:0:0:0:
271,175,217150,1,0,0:0:0:0:
269,175,217260,1,0,0:0:0:0:
269,174,217370,1,0,0:0:0:0:
272,178,217481,1,8,0:0:0:0:
273,173,217591,1,0,0:0:0:0:
273,173,217701,1,8,0:0:0:0:
275,177,217812,1,0,0:0:0:0:
277,175,217922,1,8,0:0:0:0:
277,175,218032,1,8,0:0:0:0:
277,175,218143,1,0,0:0:0:0:
275,171,218253,1,8,0:0:0:0:
276,172,218363,1,0,0:0:0:0:
276,172,218473,1,8,0:0:0:0:
273,173,218584,1,0,0:0:0:0:
273,173,218694,1,8,0:0:0:0:
275,177,218804,1,0,0:0:0:0:
277,175,218915,1,0,0:0:0:0:
277,175,219025,1,8,0:0:0:0:
269,171,219135,1,0,0:0:0:0:
269,177,219245,1,8,0:0:0:0:
269,177,219356,1,0,0:0:0:0:
269,168,219466,1,8,0:0:0:0:
261,176,219576,1,8,0:0:0:0:
265,175,219687,1,0,0:0:0:0:
265,175,219797,1,0,0:0:0:0:
265,175,219907,1,8,0:0:0:0:
265,175,220018,1,0,0:0:0:0:
264,176,220128,1,8,0:0:0:0:
264,175,220238,1,0,0:0:0:0:
264,175,220348,1,8,0:0:0:0:
262,174,220459,1,8,0:0:0:0:
260,171,220569,1,0,0:0:0:0:
265,175,220679,1,0,0:0:0:0:
265,175,220790,1,8,0:0:0:0:
261,180,220900,1,0,0:0:0:0:
272,174,221010,1,8,0:0:0:0:
270,175,221120,1,0,0:0:0:0:
269,175,221231,1,8,0:0:0:0:
264,175,221341,1,8,0:0:0:0:
266,179,221451,1,0,0:0:0:0:
266,183,221562,1,0,0:0:0:0:
273,183,221672,1,8,0:0:0:0:
273,183,221782,1,0,0:0:0:0:
270,186,221893,1,8,0:0:0:0:
272,174,222003,1,0,0:0:0:0:
276,176,222113,1,8,0:0:0:0:
276,176,222223,1,8,0:0:0:0:
271,181,222334,1,0,0:0:0:0:
271,178,222444,1,0,0:0:0:0:
271,178,222554,1,8,0:0:0:0:
273,183,222665,1,0,0:0:0:0:
273,183,222775,1,8,0:0:0:0:
270,186,222885,1,8,0:0:0:0:
265,182,222995,1,0,0:0:0:0:
265,182,223106,1,8,0:0:0:0:
267,180,223216,1,0,0:0:0:0:
271,181,223326,1,0,0:0:0:0:
264,182,223437,1,0,0:0:0:0:
271,178,223547,1,8,0:0:0:0:
269,176,223657,1,8,0:0:0:0:
269,173,223768,1,0,0:0:0:0:
271,167,223878,1,8,0:0:0:0:
268,167,223988,1,0,0:0:0:0:
267,167,224098,1,8,0:0:0:0:
267,167,224209,1,0,0:0:0:0:
267,167,224319,1,0,0:0:0:0:
267,167,224429,1,0,0:0:0:0:
270,167,224540,1,8,0:0:0:0:
273,158,224650,1,0,0:0:0:0:
273,158,224760,1,0,0:0:0:0:
267,161,224870,1,0,0:0:0:0:
268,167,224981,1,8,0:0:0:0:
267,167,225091,1,0,0:0:0:0:
267,167,225201,1,0,0:0:0:0:
267,167,225312,1,8,0:0:0:0:
271,162,225422,1,0,0:0:0:0:
270,167,225532,1,0,0:0:0:0:
273,158,225643,1,8,0:0:0:0:
273,152,225753,1,0,0:0:0:0:
267,161,225863,1,0,0:0:0:0:
268,167,225973,1,0,0:0:0:0:
267,167,226084,1,8,0:0:0:0:
267,167,226194,1,0,0:0:0:0:
267,167,226304,1,8,0:0:0:0:
266,163,226415,1,0,0:0:0:0:
270,167,226525,1,0,0:0:0:0:
266,160,226635,1,0,0:0:0:0:
271,166,226745,1,8,0:0:0:0:
272,160,226856,1,0,0:0:0:0:
261,163,226966,1,0,0:0:0:0:
260,162,227076,1,8,0:0:0:0:
267,167,227187,1,8,0:0:0:0:
267,167,227297,1,0,0:0:0:0:
262,168,227407,1,8,0:0:0:0:
260,164,227518,1,8,0:0:0:0:
259,167,227628,1,0,0:0:0:0:
259,165,227738,1,0,0:0:0:0:
259,166,227848,1,8,0:0:0:0:
261,163,227959,1,0,0:0:0:0:
257,167,228069,1,8,0:0:0:0:
257,167,228179,1,0,0:0:0:0:
262,175,228290,1,8,0:0:0:0:
258,174,228400,1,0,0:0:0:0:
258,173,228510,1,8,0:0:0:0:
258,173,228620,1,8,0:0:0:0:
258,173,228731,1,0,0:0:0:0:
262,175,228841,1,8,0:0:0:0:
261,173,228951,1,0,0:0:0:0:
260,175,229062,1,8,0:0:0:0:
259,179,229172,1,0,0:0:0:0:
262,175,229282,1,8,0:0:0:0:
263,169,229393,1,0,0:0:0:0:
263,172,229503,1,0,0:0:0:0:
262,182,229613,1,0,0:0:0:0:
262,182,229723,1,0,0:0:0:0:
262,184,229834,1,8,0:0:0:0:
262,183,229944,1,0,0:0:0:0:
261,188,230054,1,8,0:0:0:0:
261,185,230165,1,0,0:0:0:0:
258,182,230275,1,8,0:0:0:0:
260,184,230385,1,0,0:0:0:0:
260,184,230495,1,8,0:0:0:0:
262,182,230606,1,0,0:0:0:0:
261,188,230716,1,8,0:0:0:0:
262,184,230826,1,0,0:0:0:0:
262,183,230937,1,8,0:0:0:0:
262,181,231047,1,8,0:0:0:0:
261,185,231157,1,0,0:0:0:0:
258,182,231268,1,0,0:0:0:0:
254,177,231378,1,0,0:0:0:0:
260,178,231488,1,0,0:0:0:0:
257,172,231598,1,8,0:0:0:0:
257,172,231709,1,0,0:0:0:0:
256,173,231819,1,8,0:0:0:0:
255,177,231929,1,0,0:0:0:0:
251,174,232040,1,8,0:0:0:0:
245,166,232150,1,8,0:0:0:0:
249,165,232260,1,0,0:0:0:0:
248,161,232370,1,8,0:0:0:0:
251,162,232481,1,0,0:0:0:0:
251,167,232591,1,8,0:0:0:0:
249,163,232701,1,0,0:0:0:0:
248,162,232812,1,8,0:0:0:0:
251,162,232922,1,0,0:0:0:0:
250,157,233032,1,0,0:0:0:0:
250,158,233143,1,8,0:0:0:0:
249,165,233253,1,0,0:0:0:0:
254,164,233363,1,8,0:0:0:0:
251,162,233473,1,0,0:0:0:0:
254,162,233584,1,8,0:0:0:0:
254,160,233694,1,8,0:0:0:0:
248,162,233804,1,0,0:0:0:0:
251,162,233915,1,0,0:0:0:0:
250,157,234025,1,8,0:0:0:0:
250,158,234135,1,0,0:0:0:0:
256,164,234245,1,8,0:0:0:0:
254,164,234356,1,0,0:0:0:0:
255,158,234466,1,8,0:0:0:0:
254,162,234576,1,8,0:0:0:0:
248,156,234687,1,0,0:0:0:0:
256,153,234797,1,0,0:0:0:0:
256,153,234907,1,8,0:0:0:0:
256,153,235018,1,0,0:0:0:0:
255,154,235128,1,8,0:0:0:0:
251,150,235238,1,0,0:0:0:0:
251,150,235348,1,8,0:0:0:0:
249,147,235459,1,8,0:0:0:0:
251,150,235569,1,0,0:0:0:0:
248,147,235679,1,0,0:0:0:0:
247,139,235790,1,8,0:0:0:0:
247,139,235900,1,0,0:0:0:0:
245,133,236010,1,8,0:0:0:0:
253,135,236120,1,0,0:0:0:0:
253,140,236231,1,8,0:0:0:0:
252,144,236341,1,8,0:0:0:0:
251,136,236451,1,0,0:0:0:0:
249,135,236562,1,0,0:0:0:0:
249,135,236672,1,8,0:0:0:0:
247,139,236782,1,0,0:0:0:0:
250,132,236893,1,8,0:0:0:0:
251,137,237003,1,8,0:0:0:0:
253,135,237113,1,8,0:0:0:0:
253,140,237223,1,0,0:0:0:0:
261,135,237334,1,8,0:0:0:0:
259,134,237444,1,0,0:0:0:0:
259,134,237554,1,0,0:0:0:0:
259,138,237665,1,8,0:0:0:0:
257,124,237775,1,0,0:0:0:0:
256,132,237885,1,0,0:0:0:0:
256,132,237995,1,8,0:0:0:0:
256,125,238106,1,0,0:0:0:0:
256,125,238216,1,8,0:0:0:0:
254,127,238326,1,0,0:0:0:0:
251,122,238437,1,0,0:0:0:0:
254,128,238547,1,0,0:0:0:0:
251,128,238657,1,8,0:0:0:0:
257,124,238768,1,0,0:0:0:0:
256,132,238878,1,0,0:0:0:0:
256,132,238988,1,0,0:0:0:0:
256,125,239098,1,8,0:0:0:0:
256,125,239209,1,0,0:0:0:0:
254,127,239319,1,0,0:0:0:0:
256,127,239429,1,8,0:0:0:0:
254,128,239540,1,0,0:0:0:0:
256,127,239650,1,8,0:0:0:0:
257,130,239760,1,0,0:0:0:0:
263,124,239870,1,8,0:0:0:0:
256,132,239981,1,4,0:0:0:0:
261,126,240201,1,12,0:0:0:0:
256,127,240422,1,12,0:0:0:0:
256,127,240643,1,4,0:0:0:0:
258,127,240863,1,12,0:0:0:0:
261,126,241084,1,12,0:0:0:0:
256,127,241304,1,4,0:0:0:0:
256,127,241525,1,8,0:0:0:0:
258,127,241635,1,0,0:0:0:0:
256,127,242187,1,12,0:0:0:0:
256,127,242407,1,12,0:0:0:0:
258,127,242628,1,8,0:0:0:0:
256,120,242738,1,8,0:0:0:0:
256,127,242848,1,0,0:0:0:0:
256,127,242959,1,8,0:0:0:0:
259,120,243069,1,0,0:0:0:0:
256,127,243179,1,8,0:0:0:0:
261,126,243290,1,0,0:0:0:0:
256,127,243400,1,8,0:0:0:0:
254,119,243510,1,0,0:0:0:0:
258,127,243620,1,0,0:0:0:0:
259,124,243731,1,8,0:0:0:0:
261,121,243951,1,0,0:0:0:0:
259,120,244062,1,0,0:0:0:0:
263,126,244172,1,8,0:0:0:0:
257,118,244282,1,0,0:0:0:0:
271,108,244393,1,0,0:0:0:0:
269,118,244503,1,0,0:0:0:0:
259,124,244613,1,8,0:0:0:0:
263,126,244834,1,0,0:0:0:0:
265,137,244944,1,0,0:0:0:0:
263,126,245054,1,8,0:0:0:0:
266,125,245165,1,8,0:0:0:0:
266,131,245275,1,0,0:0:0:0:
266,132,245385,1,0,0:0:0:0:
259,124,245495,1,8,0:0:0:0:
283,117,245606,1,0,0:0:0:0:
263,126,245716,1,0,0:0:0:0:
271,122,245826,1,0,0:0:0:0:
277,122,245937,1,8,0:0:0:0:
263,126,246047,1,0,0:0:0:0:
278,119,246157,1,8,0:0:0:0:
279,115,246268,1,8,0:0:0:0:
283,117,246378,1,0,0:0:0:0:
281,115,246488,1,8,0:0:0:0:
283,117,246598,1,0,0:0:0:0:
280,116,246709,1,8,0:0:0:0:
271,122,246819,1,0,0:0:0:0:
279,117,246929,1,8,0:0:0:0:
278,119,247040,1,0,0:0:0:0:
278,119,247150,1,0,0:0:0:0:
279,115,247260,1,8,0:0:0:0:
281,115,247370,1,0,0:0:0:0:
281,115,247481,1,8,0:0:0:0:
280,116,247591,1,0,0:0:0:0:
279,110,247701,1,8,0:0:0:0:
279,117,247812,1,8,0:0:0:0:
280,126,248143,1,8,0:0:0:0:
278,138,248363,1,0,0:0:0:0:
282,120,248473,1,0,0:0:0:0:
278,129,248584,1,8,0:0:0:0:
278,128,248694,1,0,0:0:0:0:
280,126,248804,1,12,0:0:0:0:
276,122,249025,1,8,0:0:0:0:
280,126,249135,1,8,0:0:0:0:
277,127,249245,1,0,0:0:0:0:
278,138,249356,1,0,0:0:0:0:
279,124,249466,1,8,0:0:0:0:
278,123,249576,1,8,0:0:0:0:
278,128,249687,1,0,0:0:0:0:
280,126,249797,1,0,0:0:0:0:
279,128,249907,1,8,0:0:0:0:
277,127,250128,1,0,0:0:0:0:
277,127,250238,1,0,0:0:0:0:
292,127,250348,1,8,0:0:0:0:
284,126,250459,1,0,0:0:0:0:
296,116,250569,1,0,0:0:0:0:
296,117,250679,1,0,0:0:0:0:
288,127,250790,1,8,0:0:0:0:
286,108,250900,1,8,0:0:0:0:
285,123,251010,1,0,0:0:0:0:
286,121,251120,1,0,0:0:0:0:
283,122,251231,1,0,0:0:0:0:
292,127,251341,1,8,0:0:0:0:
288,127,251672,1,8,0:0:0:0:
291,125,251893,1,0,0:0:0:0:
291,125,252003,1,0,0:0:0:0:
293,127,252113,1,8,0:0:0:0:
287,131,252223,1,0,0:0:0:0:
292,127,252334,1,12,0:0:0:0:
295,125,252554,1,0,0:0:0:0:
298,126,252775,1,12,0:0:0:0:
293,127,252995,1,0,0:0:0:0:
301,124,253216,1,12,0:0:0:0:
286,114,253437,1,0,0:0:0:0:
323,119,253547,1,12,0:0:0:0:
320,118,253878,1,12,0:0:0:0:
323,119,254098,1,0,0:0:0:0:
323,119,254319,1,12,0:0:0:0:
322,113,254540,1,4,0:0:0:0:
320,118,254760,1,8,0:0:0:0:
323,119,254981,1,0,0:0:0:0:
323,119,255091,1,0,0:0:0:0:
323,119,255201,1,8,0:0:0:0:
323,119,255312,1,0,0:0:0:0:
323,121,255422,1,0,0:0:0:0:
314,120,255532,1,0,0:0:0:0:
320,118,255643,1,8,0:0:0:0:
320,118,255753,1,0,0:0:0:0:
323,119,255863,1,12,0:0:0:0:
318,115,256084,1,8,0:0:0:0:
316,115,256304,1,0,0:0:0:0:
318,115,256415,1,0,0:0:0:0:
324,108,256525,1,8,0:0:0:0:
320,118,256635,1,0,0:0:0:0:
323,108,256745,1,8,0:0:0:0:
322,109,256856,1,8,0:0:0:0:
318,115,256966,1,0,0:0:0:0:
314,111,257076,1,8,0:0:0:0:
308,107,257187,1,0,0:0:0:0:
314,111,257297,1,8,0:0:0:0:
305,111,257407,1,0,0:0:0:0:
314,111,257518,1,8,0:0:0:0:
323,108,257628,1,0,0:0:0:0:
318,115,257738,1,0,0:0:0:0:
315,106,257848,1,8,0:0:0:0:
318,115,257959,1,0,0:0:0:0:
314,111,258069,1,0,0:0:0:0:
314,111,258179,1,0,0:0:0:0:
314,111,258290,1,8,0:0:0:0:
319,115,258400,1,8,0:0:0:0:
316,120,258510,1,0,0:0:0:0:
316,120,258620,1,0,0:0:0:0:
310,110,258731,1,8,0:0:0:0:
315,106,258841,1,8,0:0:0:0:
308,111,258951,1,0,0:0:0:0:
246,206,259062,1,0,0:0:0:0:
319,119,259172,1,8,0:0:0:0:
320,120,259282,1,0,0:0:0:0:
246,206,259393,1,0,0:0:0:0:
316,115,259613,1,8,0:0:0:0:
246,206,259834,1,0,0:0:0:0:
316,110,260054,1,8,0:0:0:0:
252,196,260275,1,8,0:0:0:0:
252,196,260385,1,0,0:0:0:0:
250,199,260495,1,0,0:0:0:0:
257,190,260606,1,8,0:0:0:0:
254,205,260716,1,0,0:0:0:0:
252,196,260826,1,8,0:0:0:0:
248,200,260937,1,0,0:0:0:0:
252,196,261047,1,0,0:0:0:0:
252,196,261157,1,12,0:0:0:0:
252,196,261378,1,0,0:0:0:0:
250,199,261488,1,0,0:0:0:0:
248,196,261598,1,8,0:0:0:0:
254,205,261709,1,0,0:0:0:0:
252,196,261819,1,8,0:0:0:0:
252,196,261929,1,8,0:0:0:0:
252,196,262040,1,0,0:0:0:0:
245,191,262150,1,0,0:0:0:0:
252,196,262260,1,8,0:0:0:0:
248,196,262481,1,0,0:0:0:0:
243,182,262591,1,0,0:0:0:0:
252,196,262701,1,8,0:0:0:0:
246,195,262812,1,0,0:0:0:0:
252,196,262922,1,12,0:0:0:0:
244,202,263143,1,8,0:0:0:0:
239,198,263363,1,0,0:0:0:0:
248,196,263473,1,0,0:0:0:0:
240,194,263584,1,8,0:0:0:0:
241,196,263694,1,0,0:0:0:0:
235,171,263804,1,0,0:0:0:0:
231,179,263915,1,0,0:0:0:0:
244,202,264025,1,8,0:0:0:0:
244,202,264135,1,0,0:0:0:0:
244,195,264245,1,0,0:0:0:0:
239,198,264356,1,0,0:0:0:0:
242,200,264466,1,8,0:0:0:0:
242,200,264576,1,0,0:0:0:0:
241,196,264687,1,12,0:0:0:0:
244,202,264907,1,8,0:0:0:0:
236,187,265128,1,0,0:0:0:0:
242,200,265348,1,8,0:0:0:0:
235,192,265569,1,0,0:0:0:0:
235,204,265790,1,8,0:0:0:0:
233,198,266010,1,0,0:0:0:0:
236,187,266120,1,0,0:0:0:0:
232,201,266231,1,8,0:0:0:0:
232,201,266341,1,0,0:0:0:0:
235,204,266451,1,12,0:0:0:0:
231,196,266672,1,8,0:0:0:0:
238,192,266893,1,0,0:0:0:0:
233,198,267003,1,0,0:0:0:0:
234,195,267113,1,8,0:0:0:0:
234,193,267223,1,0,0:0:0:0:
234,192,267334,1,0,0:0:0:0:
233,189,267444,1,0,0:0:0:0:
238,190,267554,1,8,0:0:0:0:
231,196,267665,1,0,0:0:0:0:
236,186,267775,1,0,0:0:0:0:
238,192,267885,1,8,0:0:0:0:
234,186,267995,1,8,0:0:0:0:
235,186,268106,1,0,0:0:0:0:
234,193,268216,1,12,0:0:0:0:
238,190,268437,1,8,0:0:0:0:
216,174,268657,1,0,0:0:0:0:
236,186,268768,1,0,0:0:0:0:
234,186,268878,1,8,0:0:0:0:
230,189,268988,1,0,0:0:0:0:
238,178,269098,1,0,0:0:0:0:
237,178,269209,1,0,0:0:0:0:
233,181,269319,1,8,0:0:0:0:
234,186,269540,1,0,0:0:0:0:
234,186,269760,1,8,0:0:0:0:
234,186,269870,1,0,0:0:0:0:
236,180,269981,1,12,0:0:0:0:
234,186,270422,1,0,0:0:0:0:
226,192,270643,1,8,0:0:0:0:
228,183,270753,1,0,0:0:0:0:
224,177,270863,1,12,0:0:0:0:
222,182,271304,1,0,0:0:0:0:
225,180,271525,1,8,0:0:0:0:
224,181,271635,1,0,0:0:0:0:
228,183,271745,1,12,0:0:0:0:
255,188,272628,1,12,0:0:0:0:
255,188,272959,1,4,0:0:0:0:
258,183,273290,1,12,0:0:0:0:
255,188,273510,1,4,0:0:0:0:
255,193,275275,1,4,0:0:0:0:
253,186,276157,1,12,0:0:0:0:
253,186,276598,1,12,0:0:0:0:
255,180,277040,1,12,0:0:0:0:
244,189,277370,1,0,0:0:0:0:
245,186,277481,1,8,0:0:0:0:
246,182,277701,1,8,0:0:0:0:
248,180,277922,1,8,0:0:0:0:
244,181,278032,1,0,0:0:0:0:
238,186,278253,1,8,0:0:0:0:
238,186,278363,1,0,0:0:0:0:
256,184,278584,1,0,0:0:0:0:
241,186,278804,1,0,0:0:0:0:
240,186,278915,1,8,0:0:0:0:
238,186,279135,1,0,0:0:0:0:
241,190,279245,1,8,0:0:0:0:
256,184,279466,1,8,0:0:0:0:
244,191,279687,1,8,0:0:0:0:
236,192,279797,1,0,0:0:0:0:
236,192,280018,1,8,0:0:0:0:
235,191,280128,1,0,0:0:0:0:
239,186,280348,1,0,0:0:0:0:
255,180,280569,1,0,0:0:0:0:
244,189,280679,1,8,0:0:0:0:
244,189,280900,1,0,0:0:0:0:
245,186,281010,1,8,0:0:0:0:
247,185,281231,1,8,0:0:0:0:
248,180,281451,1,8,0:0:0:0:
244,181,281562,1,0,0:0:0:0:
238,186,281782,1,8,0:0:0:0:
238,186,281893,1,0,0:0:0:0:
238,184,282113,1,0,0:0:0:0:
241,186,282334,1,0,0:0:0:0:
240,186,282444,1,8,0:0:0:0:
238,186,282775,1,0,0:0:0:0:
238,186,282885,1,8,0:0:0:0:
241,186,282995,1,0,0:0:0:0:
245,180,283106,1,8,0:0:0:0:
244,191,283216,1,0,0:0:0:0:
236,192,283326,1,0,0:0:0:0:
240,186,283437,1,8,0:0:0:0:
236,192,283547,1,0,0:0:0:0:
235,191,283657,1,8,0:0:0:0:
238,186,283768,1,0,0:0:0:0:
239,186,283878,1,8,0:0:0:0:
255,180,284098,1,0,0:0:0:0:
244,189,284209,1,8,0:0:0:0:
244,189,284429,1,0,0:0:0:0:
245,186,284540,1,8,0:0:0:0:
240,176,284760,1,8,0:0:0:0:
248,180,284981,1,8,0:0:0:0:
244,181,285091,1,0,0:0:0:0:
238,186,285312,1,8,0:0:0:0:
238,186,285422,1,0,0:0:0:0:
240,176,285643,1,0,0:0:0:0:
241,186,285863,1,0,0:0:0:0:
240,186,285973,1,8,0:0:0:0:
238,186,286194,1,0,0:0:0:0:
241,190,286304,1,8,0:0:0:0:
234,170,286525,1,8,0:0:0:0:
244,191,286745,1,8,0:0:0:0:
236,192,286856,1,0,0:0:0:0:
236,192,287076,1,8,0:0:0:0:
235,191,287187,1,0,0:0:0:0:
239,186,287407,1,0,0:0:0:0:
255,180,287628,1,0,0:0:0:0:
244,189,287738,1,8,0:0:0:0:
244,189,287959,1,0,0:0:0:0:
245,186,288069,1,8,0:0:0:0:
247,166,288290,1,8,0:0:0:0:
248,180,288510,1,8,0:0:0:0:
244,181,288620,1,0,0:0:0:0:
238,186,288841,1,8,0:0:0:0:
238,186,288951,1,0,0:0:0:0:
238,180,289172,1,0,0:0:0:0:
241,186,289393,1,0,0:0:0:0:
242,187,289466,1,8,0:0:0:0:
240,186,289540,1,8,0:0:0:0:
242,187,289613,1,0,0:0:0:0:
238,186,289723,1,8,0:0:0:0:
239,181,289944,1,0,0:0:0:0:
238,180,290165,1,0,0:0:0:0:
244,191,290275,1,12,0:0:0:0:
236,192,290716,1,12,0:0:0:0:
243,187,290937,1,0,0:0:0:0:
246,189,291010,1,0,0:0:0:0:
246,187,291084,1,0,0:0:0:0:
244,191,291157,1,8,0:0:0:0:
256,199,291378,1,12,0:0:0:0:
256,192,291598,12,0,298216,0:0:0:0:
