osu file format v14

[General]
AudioFilename: audio.mp3
AudioLeadIn: 0
PreviewTime: 74578
Countdown: 0
SampleSet: Soft
StackLeniency: 0.7
Mode: 0
LetterboxInBreaks: 0
WidescreenStoryboard: 1

[Editor]
DistanceSpacing: 1
BeatDivisor: 4
GridSize: 4
TimelineZoom: 1.1

[Metadata]
Title:Akane-chan Will Go Along With Anything You Say
TitleUnicode:何でも言うことを聞いてくれるアカネチャン
Artist:GYARI
ArtistUnicode:GYARI
Creator:happy30
Version:TAG2
Source:
Tags:
BeatmapID:1809730
BeatmapSetID:861694

[Difficulty]
HPDrainRate:7
CircleSize:4
OverallDifficulty:8
ApproachRate:8.8
SliderMultiplier:1.8
SliderTickRate:1

[Events]
//Background and Video events
0,0,"Seyanabg.png",0,0
//Break Periods
//Storyboard Layer 0 (Background)
//Storyboard Layer 1 (Fail)
//Storyboard Layer 2 (Pass)
//Storyboard Layer 3 (Foreground)
//Storyboard Sound Samples

[TimingPoints]
1662,416.666666666667,4,2,0,40,1,0
8328,-400,4,2,0,40,0,0
21557,-100,4,2,0,65,0,0
58224,-500,4,2,0,40,0,0
60828,-1000,4,2,0,40,0,0
68328,-500,4,2,0,40,0,0
74162,-100,4,2,0,65,0,0
94370,-133.333333333333,4,2,0,40,0,0
95412,-100,4,2,0,40,0,0
104995,-1000,4,2,0,40,0,0
111037,-100,4,2,0,65,0,0

[Colours]
Combo1 : 128,128,255
Combo2 : 255,128,128
SliderBorder : 0,0,0

[HitObjects]
64,236,1662,22,0,P|112:252|144:276,1,90,0|2,1:0|2:0,2:0:0:0:
56,216,1974,1,0,2:0:0:0:
208,164,2078,2,0,P|180:172|156:188,2,45,0|0|0,2:0|2:0|2:0,2:0:0:0:
212,148,2391,1,2,2:0:0:0:
456,108,2703,5,0,2:3:0:0:
212,196,3328,6,0,P|216:248|216:320,1,90,2|0,0:0|0:0,0:0:0:0:
200,272,3641,2,0,P|198:227|192:192,1,45
128,192,3849,2,0,P|84:184|40:180,2,45
140,180,4162,1,0,0:0:0:0:
140,180,4318,1,0,0:0:0:0:
412,96,4474,6,0,P|452:102|499:84,1,90
308,304,4995,5,0,1:0:0:0:
308,304,5134,1,0,0:0:0:0:
308,304,5273,1,0,0:0:0:0:
184,300,5828,2,0,P|172:232|152:180,2,90
192,288,6453,2,0,P|252:280|284:288,1,90
300,192,6870,1,0,0:0:0:0:
288,176,6974,2,0,P|256:168|224:172,2,45
72,232,7703,2,0,L|80:280,1,45,8|0,3:0|0:0,0:0:0:0:
8,144,7912,2,0,L|0:96,1,45,8|0,0:3|0:0,0:0:0:0:
432,352,8328,6,0,P|256:364|80:352,1,348.75,4|4,1:0|1:0,0:0:0:0:
85,352,12078,1,0,1:0:0:0:
85,352,12495,1,0,1:0:0:0:
85,352,12912,1,0,1:0:0:0:
132,236,14474,1,0,1:0:0:0:
132,236,14787,1,0,0:0:0:0:
132,236,14995,2,0,P|256:340|380:236,1,348.75,4|4,1:0|0:0,0:0:0:0:
32,356,21557,2,0,P|24:300|0:220,1,135,0|2,1:0|3:0,0:0:0:0:
164,316,22391,2,0,P|156:260|132:180,1,135,0|2,1:0|3:0,0:0:0:0:
300,352,23224,2,0,P|292:296|268:216,1,135,0|2,1:0|3:0,0:0:0:0:
432,312,24058,2,0,P|424:256|400:176,1,135,0|2,1:0|3:0,0:0:0:0:
512,44,24891,2,0,P|504:100|480:180,1,135,4|6,1:0|3:2,0:0:0:0:
380,36,25724,2,0,P|372:92|348:172,1,135,0|2,1:0|3:0,0:0:0:0:
220,352,26557,1,0,1:0:0:0:
304,176,28745,6,0,P|310:204|316:232,1,45,4|0,3:0|3:0,3:0:0:0:
320,236,28953,1,0,0:0:0:0:
384,164,29057,2,0,P|388:141|393:120,1,45,4|0,3:0|2:0,0:0:0:0:
116,140,29370,1,8,3:0:0:0:
296,164,29578,1,4,3:0:0:0:
80,222,29787,1,4,3:0:0:0:
76,240,29995,2,0,P|72:268|68:288,1,45,0|0,3:0|0:0,0:0:0:0:
8,188,30203,2,0,P|4:160|0:140,1,45,4|0,3:0|0:0,0:0:0:0:
76,240,30412,1,0,3:0:0:0:
456,108,30828,5,2,0:0:0:0:
240,164,31662,6,0,L|248:112,1,45,4|0,3:0|0:0,0:0:0:0:
248,176,31870,2,0,L|256:228,1,45,8|0,3:0|0:0,0:0:0:0:
164,196,32078,2,0,P|116:188|72:188,1,90,4|0,3:0|0:0,0:0:0:0:
68,176,32495,1,4,3:0:0:0:
180,96,32912,2,0,P|203:87|228:84,1,45,4|0,3:0|0:0,0:0:0:0:
168,80,33120,1,0,0:0:0:0:
148,208,33224,2,0,P|124:272|112:328,1,90,2|0,3:0|0:0,0:0:0:0:
24,316,33537,1,0,0:0:0:0:
0,328,33641,2,0,P|24:264|36:208,1,90,2|0,3:0|0:0,0:0:0:0:
276,248,34162,2,0,P|228:248|204:240,2,45,2|0|0,3:0|0:0|0:0,0:0:0:0:
292,260,34474,1,0,0:0:0:0:
456,108,34787,5,6,0:0:0:0:
64,224,35620,6,0,P|40:232|20:212,1,45,0|0,3:0|0:0,0:0:0:0:
156,140,35828,1,4,3:0:0:0:
156,140,36037,2,0,L|160:200,1,45,2|0,3:0|0:0,0:0:0:0:
208,84,36245,1,4,3:0:0:0:
208,84,36453,1,0,0:0:0:0:
56,328,36662,1,8,3:0:0:0:
240,280,37078,1,4,3:0:0:0:
28,240,37495,1,4,3:0:0:0:
20,232,37703,2,0,P|17:202|12:184,1,45
512,20,37912,5,0,0:0:0:0:
120,84,38328,6,0,P|112:144|112:184,1,90,4|0,3:0|0:0,0:0:0:0:
118,188,38641,1,0,0:0:0:0:
196,136,38745,2,0,P|212:132|240:132,1,45,4|0,3:0|0:0,0:0:0:0:
104,256,39057,1,0,0:0:0:0:
88,264,39162,2,0,P|73:303|72:352,1,90,4|0,3:0|0:0,0:0:0:0:
76,264,39474,2,0,P|61:303|60:352,1,90,4|0,3:0|0:0,0:0:0:0:
164,272,39787,1,2,3:0:0:0:
8,200,39995,1,0,1:0:0:0:
224,160,40203,2,0,P|228:180|232:204,2,45,4|0|0,3:0|0:0|0:0,0:0:0:0:
240,144,40516,2,0,L|244:84,1,45,4|0,3:0|0:0,0:0:0:0:
456,108,40828,5,2,0:0:0:0:
156,200,41245,6,0,P|112:184|104:184,1,45,2|0,3:0|0:0,0:0:0:0:
44,204,41453,1,0,0:0:0:0:
44,204,41662,2,0,L|36:152,1,45,4|0,1:0|1:0,0:0:0:0:
240,96,41870,1,0,3:0:0:0:
144,208,42078,2,0,P|124:260|120:300,1,90,2|0,3:0|0:0,0:0:0:0:
248,364,42391,2,0,P|268:312|272:272,1,90,2|0,3:0|0:0,0:0:0:0:
272,264,42703,2,0,P|252:248|228:240,1,45
456,108,43120,5,2,0:0:0:0:
112,152,43328,6,0,P|172:120|208:112,1,90,4|0,3:0|0:0,0:0:0:0:
352,64,43745,2,0,P|313:40|271:26,1,90,4|0,3:0|0:0,0:0:0:0:
256,20,44057,1,0,0:0:0:0:
204,116,44162,2,0,P|209:136|212:168,1,45,4|0,3:0|0:0,0:0:0:0:
104,160,44370,2,0,P|98:180|96:212,1,45,4|0,3:0|0:0,0:0:0:0:
456,108,44787,5,2,0:0:0:0:
256,264,44793,5,4,3:0:0:0:
256,264,44891,1,0,0:0:0:0:
256,264,44995,2,0,P|244:320|236:356,1,90
20,324,45307,2,0,P|8:268|0:232,1,90,0|0,3:0|0:0,0:0:0:0:
168,108,45724,1,0,0:0:0:0:
160,124,45828,2,0,L|168:176,1,45,0|0,3:0|0:0,0:0:0:0:
312,140,46037,2,0,L|320:88,1,45,0|0,3:0|0:0,0:0:0:0:
320,76,46245,1,2,3:0:0:0:
456,108,46453,5,2,0:0:0:0:
252,288,46460,6,0,L|256:340,1,45,0|0,1:0|0:0,0:0:0:0:
72,268,46662,2,0,P|16:272|-16:276,2,60,0|0|0,3:0|3:0|3:0,0:0:0:0:
240,180,47078,2,0,P|268:180|288:180,2,45,0|0|0,3:0|3:0|3:0,0:0:0:0:
160,152,47391,1,0,0:0:0:0:
84,124,47495,2,0,P|56:124|36:124,2,45,0|0|0,3:0|3:0|3:0,0:0:0:0:
92,112,47807,1,0,3:0:0:0:
160,236,47912,2,0,P|168:268|168:292,1,45,0|0,3:0|0:0,0:0:0:0:
456,108,48120,5,2,0:0:0:0:
336,116,48328,6,0,P|340:86|344:60,2,45,2|2|2,0:0|0:0|0:0,0:0:0:0:
336,136,48641,1,2,0:0:0:0:
172,68,48901,2,0,P|168:38|164:12,2,45,2|2|2,0:0|0:0|0:0,0:0:0:0:
36,284,49578,2,0,L|40:224,1,45,2|0,0:0|0:0,0:0:0:0:
12,172,49775,1,2,0:0:0:0:
456,108,49787,5,2,0:0:0:0:
12,172,50412,5,0,0:0:0:0:
152,344,50828,2,0,P|160:288|164:260,1,45,4|0,3:0|0:0,0:0:0:0:
144,336,51037,1,0,0:0:0:0:
240,332,51141,2,0,P|249:282|260:240,1,90,2|0,3:0|0:0,0:0:0:0:
456,108,51453,5,2,0:0:0:0:
120,88,51662,6,0,P|64:92|28:76,1,90,4|0,3:0|0:0,0:0:0:0:
32,64,51974,1,0,0:0:0:0:
128,100,52078,2,0,P|148:131|160:176,1,45,4|4,3:0|3:0,0:0:0:0:
24,216,52287,2,0,P|34:195|47:177,2,45,0|0|0,3:0|3:0|3:0,0:0:0:0:
456,108,53120,5,2,0:0:0:0:
100,340,53146,5,0,0:0:0:0:
100,340,53328,1,0,0:0:0:0:
100,340,53537,2,0,P|104:288|100:248,1,90,0|0,3:0|0:0,0:0:0:0:
240,140,53953,2,0,P|240:172|244:204,1,45,4|0,3:0|0:0,0:0:0:0:
440,228,54266,2,0,P|438:257|436:292,1,45,2|0,0:0|0:0,0:0:0:0:
432,216,54474,1,0,0:0:0:0:
423,202,54578,1,2,0:0:0:0:
128,348,54995,6,0,L|316:348,1,180,4|0,1:0|1:0,0:0:0:0:
388,44,55724,2,0,L|160:44,1,225,4|0,1:0|1:0,0:0:0:0:
424,364,56557,2,0,P|424:268|456:136,1,225,4|0,1:0|1:0,0:0:0:0:
56,124,57391,2,0,P|56:220|24:352,1,225,0|0,1:0|1:0,0:0:0:0:
412,372,58224,2,0,L|416:216,1,153,4|0,1:0|0:0,0:0:0:0:
415,219,60203,1,0,0:0:0:0:
415,219,60412,1,0,0:0:0:0:
448,312,60620,5,2,1:2:0:0:
128,252,60828,1,2,1:2:0:0:
252,372,61245,5,0,0:0:0:0:
252,372,61453,1,0,0:0:0:0:
252,372,61662,2,0,L|144:372,1,108,4|0,1:0|1:0,0:0:0:0:
512,348,64578,1,0,0:0:0:0:
512,348,64786,1,0,0:0:0:0:
512,348,64995,2,0,L|512:240,1,108,4|0,1:0|1:0,0:0:0:0:
100,120,67912,1,0,0:0:0:0:
176,124,68120,1,0,0:0:0:0:
252,128,68329,2,0,L|468:132,1,216,4|0,1:0|1:0,0:0:0:0:
256,368,71245,1,0,0:0:0:0:
256,368,71453,1,0,0:0:0:0:
256,368,71662,2,0,P|264:304|264:256,1,108,4|0,1:0|1:0,0:0:0:0:
100,124,73328,1,6,1:0:0:0:
392,128,73641,1,6,1:0:0:0:
124,40,73953,1,6,1:0:0:0:
48,288,74578,1,0,1:0:0:0:
180,324,74787,1,0,0:0:0:0:
108,212,74995,2,0,P|136:160|208:124,1,135,4|2,1:0|3:0,0:0:0:0:
268,108,75412,1,0,1:0:0:0:
216,64,75516,1,0,1:0:0:0:
188,288,75724,2,0,P|216:340|344:348,1,180,0|2,1:0|3:0,0:0:0:0:
384,320,76245,1,0,1:0:0:0:
348,264,76349,1,0,1:0:0:0:
268,108,76557,2,0,P|296:56|424:48,1,180,4|2,1:0|3:0,0:0:0:0:
456,84,77078,1,0,1:0:0:0:
448,152,77182,1,0,1:0:0:0:
152,216,77391,2,0,P|136:152|176:64,1,135,0|2,1:0|3:0,0:0:0:0:
284,128,77912,1,0,1:0:0:0:
256,260,78120,1,0,1:0:0:0:
348,360,78328,2,0,P|408:368|476:288,1,135,4|2,1:0|3:0,0:0:0:0:
476,260,78745,1,0,1:0:0:0:
436,204,78849,1,0,1:0:0:0:
164,360,79057,2,0,P|104:368|36:288,1,135,0|2,1:0|3:0,0:0:0:0:
372,196,79995,1,6,1:0:0:0:
80,156,80307,1,6,1:0:0:0:
424,96,80620,1,6,1:0:0:0:
464,288,81245,1,4,1:0:0:0:
332,324,81454,1,0,1:0:0:0:
404,212,81662,2,0,P|376:160|304:124,1,135,0|2,1:0|3:0,0:0:0:0:
244,108,82079,1,0,1:0:0:0:
296,64,82183,1,0,1:0:0:0:
324,288,82391,2,0,P|296:340|168:348,1,180,0|2,1:0|3:0,0:0:0:0:
128,320,82912,1,0,1:0:0:0:
164,264,83016,1,0,1:0:0:0:
244,108,83224,2,0,P|216:56|88:48,1,180,0|2,1:0|3:0,0:0:0:0:
56,84,83745,1,0,1:0:0:0:
64,152,83849,1,0,1:0:0:0:
360,216,84058,2,0,P|376:152|336:64,1,135,0|2,1:0|3:0,0:0:0:0:
228,128,84579,1,0,1:0:0:0:
256,260,84787,1,0,1:0:0:0:
164,360,84995,2,0,P|104:368|36:288,1,135,0|2,1:0|3:0,0:0:0:0:
36,260,85412,1,0,1:0:0:0:
76,204,85516,1,0,1:0:0:0:
348,360,85724,2,0,P|408:368|476:288,1,135,0|2,1:0|3:0,0:0:0:0:
376,244,86662,5,0,1:0:0:0:
124,204,86974,1,0,1:0:0:0:
428,104,87287,2,0,P|480:156|452:268,1,180,4|0,1:0|0:0,0:0:0:0:
44,184,87912,5,2,1:0:0:0:
360,204,88120,1,2,1:0:0:0:
84,76,88328,1,2,1:0:0:0:
128,320,88745,1,0,1:0:0:0:
52,356,88849,1,2,1:0:0:0:
288,64,89057,1,2,1:0:0:0:
240,264,89578,1,0,1:0:0:0:
316,300,89682,1,2,1:0:0:0:
368,144,89891,1,2,1:0:0:0:
200,192,90412,1,2,1:0:0:0:
256,120,90724,1,2,1:0:0:0:
256,120,91245,5,4,1:0:0:0:
388,72,91453,1,0,1:0:0:0:
88,56,91662,2,0,P|80:120|80:168,1,90,0|0,1:0|1:0,1:0:0:0:
228,204,92078,5,2,1:0:0:0:
228,204,92182,1,0,1:0:0:0:
472,212,92391,2,0,P|480:276|472:364,1,135,2|0,1:0|1:0,1:0:0:0:
256,24,93328,5,4,1:0:0:0:
256,108,93641,5,6,1:0:0:0:
176,328,93953,5,0,1:0:0:0:
364,328,93981,5,2,1:0:0:0:
412,148,94578,6,0,P|376:116|329:114,1,67.5000025749208,0|0,1:0|0:0,0:0:0:0:
372,220,94995,2,0,P|431:231|467:194,1,101.250003862381,4|0,1:0|0:0,0:0:0:0:
216,152,95412,6,0,P|189:143|160:148,1,45,2|0,1:0|0:0,0:0:0:0:
184,344,95724,2,0,P|256:356|308:308,1,135,6|0,1:0|0:0,0:0:0:0:
236,60,96245,2,0,P|263:51|292:56,1,45,6|0,1:0|0:0,0:0:0:0:
148,248,96557,2,0,P|76:260|24:212,1,135,6|0,1:0|0:0,0:0:0:0:
352,112,97078,1,0,1:0:0:0:
500,256,97391,2,0,P|504:196|488:116,1,135,6|0,1:0|0:0,0:0:0:0:
352,112,97912,5,0,1:0:0:0:
256,204,98120,1,0,1:0:0:0:
292,336,98328,2,0,P|365:346|424:336,1,135,4|0,1:0|0:0,0:0:0:0:
196,64,98745,5,6,1:0:0:0:
196,64,98849,1,0,0:0:0:0:
220,284,99057,2,0,P|147:294|88:284,1,135,6|0,1:0|0:0,0:0:0:0:
192,308,103953,1,0,0:0:0:0:
272,348,104162,1,2,0:0:0:0:
360,328,104370,1,0,0:0:0:0:
392,244,104578,1,2,0:0:0:0:
392,244,104995,2,0,L|383:152,1,90,2|0,0:0|0:0,0:0:0:0:
376,156,107287,1,0,0:0:0:0:
296,196,107496,1,2,0:0:0:0:
208,176,107704,1,0,0:0:0:0:
176,92,107912,1,2,0:0:0:0:
156,256,108328,2,0,L|148:363,1,108,2|0,0:0|0:0,0:0:0:0:
448,288,111557,2,0,P|392:296|312:320,1,135,4|2,1:0|3:0,0:0:0:0:
352,0,112391,2,0,P|360:56|384:136,1,135,4|2,1:0|3:0,0:0:0:0:
64,96,113224,2,0,P|120:88|200:64,1,135,0|2,1:0|3:0,0:0:0:0:
160,384,114057,2,0,P|152:328|128:248,1,135,0|2,1:0|3:0,0:0:0:0:
464,268,114891,2,0,P|472:212|496:132,1,135,4|4,1:0|2:0,0:0:0:0:
112,232,115724,2,0,P|104:176|80:96,1,135,0|2,1:0|3:0,0:0:0:0:
81,100,116557,1,4,1:0:0:0:
