osu file format v14

[General]
AudioFilename: audio.mp3
AudioLeadIn: 0
PreviewTime: 79487
Countdown: 0
SampleSet: Normal
StackLeniency: 0.7
Mode: 0
LetterboxInBreaks: 0
WidescreenStoryboard: 1

[Editor]
Bookmarks: 58311
DistanceSpacing: 1.5
BeatDivisor: 4
GridSize: 16
TimelineZoom: 1.5

[Metadata]
Title:Akari ga Yatte Kita Zou
TitleUnicode:アカリがやってきたぞっ
Artist:GYARI (ft. Kizuna Akari)
ArtistUnicode:GYARI (ft. Kizuna Akari)
Creator:Tyxant
Version:Special
Source:
Tags:Kizuna Akari ga Yatte Kita Zou Zot' Zo Tsu showed up GYARI アカリがやってきたぞっ Vocaloid Tyxant onomatopoeia Japanese Pop
BeatmapID:1827200
BeatmapSetID:874213

[Difficulty]
HPDrainRate:8
CircleSize:4
OverallDifficulty:9
ApproachRate:9
SliderMultiplier:2
SliderTickRate:2

[Events]
//Background and Video events
0,0,"Akari_ga_Yatte_Kita_Zou.png",0,0
Video,0,"アカリがやってきたぞっ (1).mp4"
//Break Periods
2,70422,71828
2,109687,122123
2,142775,144181
2,210165,211020
2,282186,283592
//Storyboard Layer 0 (Background)
//Storyboard Layer 1 (Fail)
//Storyboard Layer 2 (Pass)
//Storyboard Layer 3 (Foreground)
//Storyboard Sound Samples

[TimingPoints]
76,441.176470588235,4,2,0,50,1,0
15958,-100,4,1,0,50,0,0
36252,-50,4,1,0,50,0,0
36693,-40,4,1,0,50,0,0
37134,-100,4,2,0,50,0,0
40664,-66.6666666666667,4,2,0,50,0,0
41546,-100,4,2,0,50,0,0
50370,-100,4,1,0,50,0,0
79487,-100,4,1,0,50,0,0
81252,-100,4,1,0,50,0,1
107723,-100,4,2,0,50,0,0
123164,-50,4,2,0,50,0,0
125370,-100,4,2,0,50,0,0
127134,-50,4,2,0,50,0,0
128678,-100,4,2,0,50,0,0
130614,-50,4,2,0,50,0,0
132208,-100,4,2,0,50,0,0
134193,-50,4,2,0,50,0,0
135848,-100,4,2,0,50,0,0
137723,-100,4,1,0,50,0,0
152061,-100,4,2,0,50,0,0
180958,-100,4,1,0,50,0,0
181840,-100,4,1,0,50,0,0
192428,-80,4,1,0,50,0,0
193752,-100,4,1,0,50,0,0
208311,-100,4,1,0,50,0,0
210075,-100,4,2,0,50,0,0
213605,-100,4,1,0,50,0,1
240186,-100,4,1,0,50,0,0
242281,-100,4,1,0,50,0,1
259708,-40,4,1,0,50,0,1
260149,-100,4,1,0,50,0,1
276252,-50,4,1,0,50,0,0
276693,-40,4,1,0,50,0,0
277134,-100,4,1,0,50,0,0
290370,-50,4,1,0,50,0,0
290811,-40,4,1,0,50,0,0
291473,-40,4,2,0,50,0,0

[Colours]
Combo1 : 212,212,212
Combo2 : 255,128,0
Combo3 : 255,49,49
Combo4 : 99,77,204

[HitObjects]
256,192,1840,5,0,0:0:0:0:
80,144,2061,1,0,0:0:0:0:
440,144,2502,1,0,0:0:0:0:
136,344,2943,1,0,0:0:0:0:
256,8,3384,1,0,0:0:0:0:
384,336,3825,1,0,0:0:0:0:
80,144,4267,1,0,0:0:0:0:
440,144,4708,1,0,0:0:0:0:
136,344,5149,1,0,0:0:0:0:
200,267,5370,1,0,0:0:0:0:
260,193,5590,5,0,0:0:0:0:
132,308,6031,1,0,0:0:0:0:
243,48,6473,1,0,0:0:0:0:
394,306,6914,1,0,0:0:0:0:
496,24,7355,1,0,0:0:0:0:
279,231,7796,1,0,0:0:0:0:
32,59,8237,1,0,0:0:0:0:
100,351,8678,1,0,0:0:0:0:
247,321,8899,1,8,0:0:0:0:
379,28,9340,5,0,0:0:0:0:
83,80,9781,2,0,P|62:132|63:181,1,100,8|0,0:0|0:0,0:0:0:0:
81,221,10112,1,8,0:0:0:0:
267,346,10443,2,8,P|328:342|378:310,1,100
466,55,11105,5,0,0:0:0:0:
239,251,11546,2,8,P|175:251|143:219,1,100,8|0,0:0|0:0,0:0:0:0:
140,154,11877,2,0,P|172:122|226:105,1,100,8|0,0:0|0:0,0:0:0:0:
298,97,12208,1,8,0:0:0:0:
426,172,12428,1,8,0:0:0:0:
160,311,12870,5,0,0:0:0:0:
7,52,13311,2,0,P|63:55|105:121,1,100,8|0,0:0|0:0,0:0:0:0:
143,140,13642,2,0,P|175:198|209:209,1,100,8|0,0:0|0:0,0:0:0:0:
276,187,13973,2,8,P|324:179|357:213,1,100
259,327,14414,1,0,0:0:0:0:
144,230,14634,2,0,B|91:166|2:192|16:83,1,200,0|8,0:0|0:0,0:0:0:0:
14,95,15296,1,0,0:0:0:0:
14,95,15406,1,0,0:0:0:0:
14,95,15517,1,0,0:0:0:0:
341,334,15958,5,8,0:0:0:0:
443,52,16399,1,0,0:0:0:0:
343,150,16840,2,0,P|285:134|252:77,1,100,8|0,0:0|0:0,0:0:0:0:
202,56,17171,2,0,P|148:37|112:63,1,100,8|0,0:0|0:0,0:0:0:0:
63,87,17502,1,8,0:0:0:0:
27,232,17723,1,8,0:0:0:0:
316,314,18164,5,0,0:0:0:0:
503,79,18605,2,8,P|441:45|378:52,1,100,8|0,0:0|0:0,0:0:0:0:
349,84,18936,2,0,P|326:121|350:176,1,100,8|0,0:0|0:0,0:0:0:0:
409,207,19267,1,8,0:0:0:0:
424,128,19487,1,8,0:0:0:0:
256,192,19928,5,0,0:0:0:0:
64,128,20370,2,0,L|64:64,1,50,8|0,0:0|0:0,0:0:0:0:
448,256,20700,2,0,L|448:352,1,50,8|0,0:0|0:0,0:0:0:0:
256,192,21031,1,8,0:0:0:0:
448,64,21693,5,8,0:0:0:0:
2,131,22355,6,8,L|90:72,1,100
448,192,23017,6,0,L|448:256,4,50
64,128,23899,2,0,L|64:192,4,50
360,80,24781,6,0,P|323:62|275:51,1,50
264,56,25002,2,0,P|225:55|177:65,1,50
166,72,25223,1,0,0:0:0:0:
152,302,25664,6,0,P|189:320|237:331,1,50
248,326,25885,2,0,P|287:327|335:317,1,50
346,310,26106,1,0,0:0:0:0:
256,192,26325,1,0,0:0:0:0:
160,96,26546,6,0,L|96:160,4,50
352,288,27428,2,0,L|416:224,4,50
74,340,28311,5,0,0:0:0:0:
27,197,28531,1,8,0:0:0:0:
96,64,28752,1,8,0:0:0:0:
400,64,29193,1,0,0:0:0:0:
488,185,29414,2,8,P|469:246|458:288,1,100,8|8,0:0|0:0,0:0:0:0:
0,224,30075,5,0,0:0:0:0:
32,262,30186,1,0,0:0:0:0:
69,294,30296,1,0,0:0:0:0:
114,314,30406,1,0,0:0:0:0:
160,320,30517,1,0,0:0:0:0:
512,224,30958,5,0,0:0:0:0:
480,262,31069,1,0,0:0:0:0:
443,294,31179,1,0,0:0:0:0:
398,314,31289,1,0,0:0:0:0:
352,320,31400,1,0,0:0:0:0:
272,128,31840,6,0,L|320:176,1,50
240,208,32061,2,0,L|176:272,1,50
256,288,32281,1,0,0:0:0:0:
211,66,32723,5,0,0:0:0:0:
232,54,32833,1,0,0:0:0:0:
256,48,32943,1,0,0:0:0:0:
280,54,33053,1,0,0:0:0:0:
301,66,33164,1,0,0:0:0:0:
256,192,33384,1,0,0:0:0:0:
416,128,33605,6,0,L|416:192,4,50
96,256,34487,2,0,L|96:192,4,50
256,80,35370,2,0,L|192:80,2,50
256,304,35811,2,0,L|320:304,2,50
160,192,36252,6,0,L|160:288,5,50,4|0|0|0|0|0,0:0|0:0|0:0|0:0|0:0|0:0,0:0:0:0:
352,192,36693,2,0,L|352:96,5,62.5,4|0|0|0|0|0,0:0|0:0|0:0|0:0|0:0|0:0,0:0:0:0:
44,93,37134,6,0,B|150:34|300:28|418:71,1,350
411,85,38017,1,0,0:0:0:0:
457,104,38127,1,0,0:0:0:0:
336,294,38458,6,0,P|290:301|240:294,2,50
224,192,38899,1,0,0:0:0:0:
160,180,39009,1,0,0:0:0:0:
96,192,39119,1,0,0:0:0:0:
194,78,39340,2,0,P|234:72|268:77,1,50
318,81,39561,1,0,0:0:0:0:
449,152,39781,2,0,P|475:183|482:219,1,50
450,261,40002,2,0,P|406:262|373:229,1,50
200,176,40443,1,0,0:0:0:0:
372,320,40664,6,0,L|468:256,1,75.0000028610231
134,123,41105,2,0,L|38:59,1,75.0000028610231
256,320,41987,2,0,L|256:32,1,250
96,224,42870,2,0,L|32:160,3,50
214,352,43531,2,0,P|329:347|399:301,1,200
282,116,44193,5,0,0:0:0:0:
282,116,44414,1,0,0:0:0:0:
192,64,44634,2,0,B|224:0|352:0|384:32|416:128|384:192|288:224|256:224|256:224|256:320,1,500
128,256,45958,2,0,L|64:192,3,50
32,256,46399,1,0,0:0:0:0:
32,256,46509,1,0,0:0:0:0:
384,256,46840,2,0,L|448:192,3,50
480,256,47281,1,0,0:0:0:0:
480,256,47391,1,0,0:0:0:0:
256,288,47723,6,0,L|256:64,1,200
64,96,48605,2,0,P|119:158|152:220,1,150
160,256,49046,1,0,0:0:0:0:
352,256,49487,2,0,P|359:190|394:127,1,100
399,117,49818,1,0,0:0:0:0:
438,86,49928,1,0,0:0:0:0:
256,320,50590,1,8,0:0:0:0:
80,192,50811,1,8,0:0:0:0:
368,64,51031,1,8,0:0:0:0:
420,182,51252,5,0,0:0:0:0:
258,63,51473,1,8,0:0:0:0:
291,85,51583,1,0,0:0:0:0:
286,184,51693,1,8,0:0:0:0:
253,162,51803,1,0,0:0:0:0:
114,107,52024,2,8,P|63:150|41:198,1,100
71,326,52465,1,0,0:0:0:0:
119,338,52575,1,8,0:0:0:0:
266,309,52796,1,8,0:0:0:0:
128,192,53017,6,0,L|170:150,1,50
264,150,53238,1,8,0:0:0:0:
296,172,53348,1,0,0:0:0:0:
387,210,53458,1,8,0:0:0:0:
419,188,53568,1,0,0:0:0:0:
270,143,53789,2,8,P|328:118|387:142,1,100
492,202,54230,1,0,0:0:0:0:
473,249,54340,1,8,0:0:0:0:
359,347,54561,1,8,0:0:0:0:
128,64,54781,5,0,0:0:0:0:
256,192,55002,1,8,0:0:0:0:
368,304,55223,2,8,L|304:368,1,50
256,192,55553,1,8,0:0:0:0:
368,80,55774,1,8,0:0:0:0:
256,192,55995,2,8,L|208:240,1,50
96,320,56325,1,8,0:0:0:0:
140,283,56546,5,0,0:0:0:0:
290,285,56767,1,0,0:0:0:0:
437,286,56987,1,0,0:0:0:0:
461,242,57098,1,0,0:0:0:0:
413,329,57318,1,0,0:0:0:0:
238,180,57649,2,8,L|289:83,1,100
0,192,58311,5,8,0:0:0:0:
21,147,58421,1,0,0:0:0:0:
154,67,58642,1,0,0:0:0:0:
104,70,58752,1,8,0:0:0:0:
128,167,58973,2,0,L|192:224,1,50,0|8,0:0|0:0,0:0:0:0:
388,287,59414,1,8,0:0:0:0:
388,287,59634,2,0,L|441:212,3,50,8|0|8|0,0:0|0:0|0:0|0:0,0:0:0:0:
469,170,60075,1,8,0:0:0:0:
336,99,60296,1,8,0:0:0:0:
188,67,60517,2,0,P|149:58|106:90,1,50,8|0,0:0|0:0,0:0:0:0:
91,71,60737,2,0,P|55:96|19:100,1,50,8|0,0:0|0:0,0:0:0:0:
80,288,61399,6,0,P|112:320|176:304,1,100
183,231,61730,1,2,0:0:0:0:
215,199,61840,1,0,0:0:0:0:
191,117,61950,2,0,P|205:91|255:85,3,50,0|12|2|4,0:0|0:0|0:0|0:0,0:0:0:0:
308,90,62392,2,2,P|337:117|377:118,1,50
417,166,62612,1,10,0:0:0:0:
455,152,62723,1,8,0:0:0:0:
475,239,62833,2,0,L|433:277,1,50,0|2,0:0|0:0,0:0:0:0:
369,331,63053,1,4,0:0:0:0:
342,300,63164,1,6,0:0:0:0:
275,360,63274,2,0,P|243:355|221:335,1,50,8|0,0:0|0:0,0:0:0:0:
248,271,63495,1,2,0:0:0:0:
256,192,63605,6,0,P|294:176|285:150,1,50,8|0,0:0|0:0,0:0:0:0:
274,127,63825,2,0,P|236:141|245:190,1,50
182,193,64046,2,0,P|150:192|142:168,1,50,8|0,0:0|0:0,0:0:0:0:
228,55,64377,1,8,0:0:0:0:
421,169,64708,2,8,P|420:234|386:258,1,100
448,32,65370,6,0,P|468:61|448:96,1,50
454,122,65590,2,0,P|438:158|454:186,1,50
462,211,65811,1,0,0:0:0:0:
64,352,66252,6,0,P|44:323|64:288,1,50
58,262,66472,2,0,P|74:226|58:198,1,50
50,173,66693,1,0,0:0:0:0:
512,192,67134,6,0,P|480:192|416:192,1,50
384,192,67355,1,0,0:0:0:0:
320,192,67465,1,0,0:0:0:0:
256,192,67575,1,0,0:0:0:0:
0,192,68016,6,0,P|32:192|96:192,1,50
96,192,68237,1,0,0:0:0:0:
160,192,68347,1,0,0:0:0:0:
224,192,68457,1,0,0:0:0:0:
320,192,68678,1,0,0:0:0:0:
352,96,68899,6,0,L|416:160,2,50
387,131,69230,2,0,L|448:192,1,50
160,288,69781,2,0,L|96:224,2,50
125,253,70112,2,0,L|64:192,1,50
512,224,72428,5,0,0:0:0:0:
487,268,72539,1,0,0:0:0:0:
443,299,72649,1,0,0:0:0:0:
399,316,72759,2,0,P|367:321|320:320,1,50
0,160,73311,5,0,0:0:0:0:
25,116,73422,1,0,0:0:0:0:
69,85,73532,1,0,0:0:0:0:
112,69,73642,2,0,P|145:63|192:64,1,50
256,352,74193,5,0,0:0:0:0:
243,304,74303,1,0,0:0:0:0:
256,256,74414,1,0,0:0:0:0:
267,208,74524,1,0,0:0:0:0:
256,160,74634,1,0,0:0:0:0:
448,192,75075,6,0,L|448:129,1,50
416,96,75296,2,0,P|392:70|357:59,1,50
329,59,75517,1,0,0:0:0:0:
224,64,75737,1,0,0:0:0:0:
96,192,75958,6,0,L|96:128,2,50
96,192,76289,1,0,0:0:0:0:
96,192,76399,1,0,0:0:0:0:
416,192,76840,6,0,L|416:128,2,50
416,192,77171,1,0,0:0:0:0:
416,192,77281,1,0,0:0:0:0:
96,128,77723,5,0,0:0:0:0:
131,92,77833,1,0,0:0:0:0:
176,69,77943,1,0,0:0:0:0:
225,57,78053,1,0,0:0:0:0:
275,51,78164,1,0,0:0:0:0:
325,59,78274,1,0,0:0:0:0:
367,86,78384,1,0,0:0:0:0:
394,128,78495,1,0,0:0:0:0:
402,177,78605,1,0,0:0:0:0:
395,226,78715,1,0,0:0:0:0:
364,264,78825,1,0,0:0:0:0:
319,285,78936,1,0,0:0:0:0:
270,279,79046,1,0,0:0:0:0:
225,257,79156,1,0,0:0:0:0:
203,211,79267,1,0,0:0:0:0:
227,167,79377,1,0,0:0:0:0:
256,192,79487,1,4,0:0:0:0:
197,110,79708,5,8,0:0:0:0:
225,277,79928,1,8,0:0:0:0:
344,156,80149,1,8,0:0:0:0:
128,224,80370,2,0,L|160:288,3,50,8|0|8|0,0:0|0:0|0:0|0:0,0:0:0:0:
384,224,80811,2,0,L|352:288,3,50,8|0|8|0,0:0|0:0|0:0|0:0,0:0:0:0:
248,199,81252,5,0,0:0:0:0:
258,176,81362,1,0,0:0:0:0:
267,199,81473,1,0,0:0:0:0:
246,185,81583,1,0,0:0:0:0:
272,192,81693,2,0,L|284:360,1,150
62,222,82134,6,0,P|48:190|42:167,1,50
44,124,82355,2,0,P|59:92|94:61,1,50
112,55,82575,2,0,B|174:55|174:55|263:91,1,150
298,268,83017,5,0,0:0:0:0:
344,249,83127,1,0,0:0:0:0:
391,268,83237,1,0,0:0:0:0:
431,300,83348,1,0,0:0:0:0:
474,274,83458,2,0,L|514:185,3,50
483,180,83899,2,0,L|428:119,3,50
64,128,84781,6,0,B|65:169|65:169|73:201,3,50
79,227,85223,2,0,B|99:270|183:297,1,100
448,128,85664,6,0,P|447:156|430:200,3,50
420,223,86105,1,0,0:0:0:0:
392,264,86215,2,0,P|339:303|273:303,1,100
256,264,86546,5,0,0:0:0:0:
256,256,86656,1,0,0:0:0:0:
256,248,86767,1,0,0:0:0:0:
256,240,86877,1,0,0:0:0:0:
256,120,86987,5,0,0:0:0:0:
256,128,87097,1,0,0:0:0:0:
256,136,87208,1,0,0:0:0:0:
256,144,87318,1,0,0:0:0:0:
352,192,87428,6,0,L|288:240,1,50
160,192,87649,2,0,L|224:240,1,50
288,32,88311,6,0,L|224:32,3,50
187,36,88752,2,0,P|142:62|123:196,1,150
224,352,89193,6,0,L|288:352,1,50
322,339,89414,2,0,P|357:318|382:278,1,50
382,265,89634,1,0,0:0:0:0:
160,192,90075,5,0,0:0:0:0:
168,142,90186,1,0,0:0:0:0:
209,114,90296,1,0,0:0:0:0:
256,96,90406,1,0,0:0:0:0:
352,192,90517,5,0,0:0:0:0:
344,242,90628,1,0,0:0:0:0:
303,270,90738,1,0,0:0:0:0:
256,288,90848,1,0,0:0:0:0:
239,210,90958,6,0,L|303:146,3,50
64,256,91840,6,0,L|128:320,1,50
128,288,92061,2,0,L|192:224,1,50
256,192,92281,1,0,0:0:0:0:
448,128,92723,6,0,L|384:64,1,50
384,96,92944,2,0,L|320:160,1,50
256,192,93164,1,0,0:0:0:0:
487,320,93605,5,0,0:0:0:0:
391,96,93825,1,0,0:0:0:0:
263,320,94046,2,0,P|199:320|167:256,1,100
21,101,94487,1,0,0:0:0:0:
307,190,94928,2,0,L|366:146,3,50
384,96,95370,6,0,P|410:67|452:66,1,50
496,96,95590,2,0,P|470:67|428:66,1,50
447,112,95811,2,0,L|447:249,1,100
400,240,96142,5,0,0:0:0:0:
353,268,96252,1,0,0:0:0:0:
305,236,96362,1,0,0:0:0:0:
257,268,96473,1,0,0:0:0:0:
256,112,96693,2,0,B|221:75|221:75|109:119,1,150
62,309,97134,6,0,L|106:246,1,50
93,218,97355,2,0,L|46:164,1,50
105,91,97575,1,0,0:0:0:0:
148,65,97686,1,0,0:0:0:0:
197,64,97796,1,0,0:0:0:0:
234,96,97906,1,0,0:0:0:0:
270,189,98017,1,0,0:0:0:0:
291,233,98127,1,0,0:0:0:0:
328,265,98237,1,0,0:0:0:0:
378,269,98348,1,0,0:0:0:0:
479,192,98899,6,0,P|443:202|412:163,1,50
389,171,99120,2,0,P|342:170|324:200,1,50
303,202,99340,2,0,P|288:235|373:273,1,150
33,192,99781,6,0,P|69:182|100:221,1,50
123,213,100002,2,0,P|170:214|188:184,1,50
211,185,100223,1,0,0:0:0:0:
232,135,100333,2,0,P|234:101|158:98,1,100
448,64,100664,6,0,L|384:128,1,50
384,128,100884,2,0,L|333:175,1,50
448,320,101105,6,0,L|384:256,1,50
384,256,101325,2,0,L|341:214,1,50
256,160,101546,6,0,L|256:224,3,50
32,112,102428,6,0,L|96:176,1,50
64,176,102649,2,0,L|0:240,1,50
64,256,102870,1,0,0:0:0:0:
451,274,103311,6,0,P|500:230|475:173,1,100
472,103,103753,1,0,0:0:0:0:
303,199,104193,6,0,P|256:208|186:184,1,100
256,48,105075,5,0,0:0:0:0:
256,96,105186,1,0,0:0:0:0:
256,144,105296,1,0,0:0:0:0:
256,192,105406,1,0,0:0:0:0:
256,352,105737,1,0,0:0:0:0:
15,245,105958,5,0,0:0:0:0:
30,197,106068,1,0,0:0:0:0:
58,155,106179,1,0,0:0:0:0:
96,123,106289,1,0,0:0:0:0:
143,108,106399,1,0,0:0:0:0:
191,118,106509,1,0,0:0:0:0:
230,148,106619,1,0,0:0:0:0:
256,192,106730,1,0,0:0:0:0:
282,236,106840,1,0,0:0:0:0:
321,266,106950,1,0,0:0:0:0:
369,276,107061,1,0,0:0:0:0:
416,261,107171,1,0,0:0:0:0:
454,229,107281,1,0,0:0:0:0:
482,187,107392,1,0,0:0:0:0:
497,139,107502,1,0,0:0:0:0:
256,192,107723,5,0,0:0:0:0:
240,96,107943,2,0,L|265:96,1,16.6666666666667,2|0,0:0|0:0,0:0:0:0:
233,276,108164,1,0,0:0:0:0:
281,276,108274,1,0,0:0:0:0:
148,231,108495,2,0,L|148:119,1,100,2|0,0:0|0:0,0:0:0:0:
368,128,108936,2,2,L|368:192,1,50
368,224,109267,1,0,0:0:0:0:
256,192,109487,1,4,0:0:0:0:
256,128,122723,6,0,L|256:240,1,100
16,112,123605,6,0,B|48:80|48:80|80:128|80:128|112:80|112:80|144:112|144:112,1,200
368,304,124046,6,0,B|400:336|400:336|432:288|432:288|464:336|464:336|496:304|496:304,1,200
288,80,124487,6,0,B|320:48|320:48|352:96|352:96|384:48|384:48|416:80|416:80,1,200
160,240,124928,6,0,B|192:272|192:272|224:224|224:224|256:272|256:272|288:240|288:240,1,200
0,48,125370,6,0,P|0:96|24:153,1,100
44,186,125700,1,0,0:0:0:0:
155,286,125921,1,0,0:0:0:0:
259,177,126142,1,0,0:0:0:0:
385,97,126362,1,0,0:0:0:0:
269,290,126693,1,0,0:0:0:0:
172,175,126914,1,0,0:0:0:0:
304,208,127134,6,0,B|336:240|336:240|368:192|368:192|400:240|400:240|432:208|432:208,1,200
144,112,127575,6,0,B|176:80|176:80|208:128|208:128|240:80|240:80|272:112|272:112,1,200
32,304,128016,6,0,B|64:336|64:336|96:288|96:288|128:336|128:336|160:304|160:304,1,200
352,80,128457,6,0,B|384:48|384:48|416:96|416:96|448:48|448:48|480:80|480:80,1,200
492,123,128789,6,0,L|434:226,1,100
293,191,129230,1,0,0:0:0:0:
247,170,129340,1,0,0:0:0:0:
292,313,129561,1,0,0:0:0:0:
416,224,129781,5,0,0:0:0:0:
438,213,129892,1,0,0:0:0:0:
461,221,130002,1,0,0:0:0:0:
471,243,130112,1,0,0:0:0:0:
458,264,130223,1,0,0:0:0:0:
436,251,130333,1,0,0:0:0:0:
452,232,130443,1,0,0:0:0:0:
473,245,130553,1,0,0:0:0:0:
475,257,130664,6,0,B|443:289|443:289|411:241|411:241|379:289|379:289|347:257|347:257,1,200
92,108,131105,6,0,B|124:76|124:76|156:124|156:124|188:76|188:76|220:108|220:108,1,200
151,272,131546,6,0,B|119:304|119:304|87:256|87:256|55:304|55:304|23:272|23:272,1,200
319,208,131987,6,0,B|351:176|351:176|383:224|383:224|415:176|415:176|447:208|447:208,1,200
442,203,132318,6,0,P|479:163|500:112,1,100
360,59,132759,1,0,0:0:0:0:
310,52,132870,2,0,P|282:42|249:38,1,50
212,41,133090,2,0,P|184:43|159:56,1,50
122,79,133311,1,0,0:0:0:0:
49,209,133531,1,0,0:0:0:0:
157,312,133752,1,0,0:0:0:0:
48,176,134193,6,0,B|80:144|80:144|112:192|112:192|144:144|144:144|176:176|176:176,1,200
464,208,134634,6,0,B|432:240|432:240|400:192|400:192|368:240|368:240|336:208|336:208,1,200
80,64,135075,6,0,B|112:32|112:32|144:80|144:80|176:32|176:32|208:64|208:64,1,200
384,304,135516,6,0,B|352:336|352:336|320:288|320:288|288:336|288:336|256:304|256:304,1,200
226,225,135958,6,0,L|313:174,1,100
188,88,136399,1,0,0:0:0:0:
142,110,136509,1,0,0:0:0:0:
106,145,136620,1,0,0:0:0:0:
256,192,136840,12,0,137502,0:0:0:0:
96,64,137723,6,0,P|125:44|160:64,1,50
180,72,137943,2,0,P|216:88|244:72,1,50
266,58,138164,1,0,0:0:0:0:
416,320,138605,6,0,P|387:340|352:320,1,50
332,312,138825,2,0,P|296:296|268:312,1,50
246,326,139046,1,0,0:0:0:0:
0,192,139487,6,0,P|32:192|96:192,1,50
128,192,139708,1,0,0:0:0:0:
192,192,139818,1,0,0:0:0:0:
256,192,139928,1,0,0:0:0:0:
512,192,140369,6,0,P|480:192|416:192,1,50
416,192,140590,1,0,0:0:0:0:
352,192,140700,1,0,0:0:0:0:
288,192,140810,1,0,0:0:0:0:
192,192,141031,1,0,0:0:0:0:
352,288,141252,6,0,L|416:224,2,50
387,253,141583,2,0,L|448:192,1,50
160,96,142134,2,0,L|96:160,2,50
125,131,142465,2,0,L|64:192,1,50
0,160,144781,5,0,0:0:0:0:
25,116,144892,1,0,0:0:0:0:
69,85,145002,1,0,0:0:0:0:
113,68,145112,2,0,P|145:63|192:64,1,50
512,224,145664,5,0,0:0:0:0:
487,268,145775,1,0,0:0:0:0:
443,299,145885,1,0,0:0:0:0:
400,315,145995,2,0,P|367:321|320:320,1,50
256,32,146546,5,0,0:0:0:0:
269,80,146656,1,0,0:0:0:0:
256,128,146767,1,0,0:0:0:0:
245,176,146877,1,0,0:0:0:0:
256,224,146987,1,0,0:0:0:0:
64,192,147428,6,0,L|64:252,1,50
96,288,147649,2,0,P|120:314|155:325,1,50
183,325,147870,1,0,0:0:0:0:
288,320,148090,1,0,0:0:0:0:
416,192,148311,6,0,L|416:256,2,50
416,192,148642,1,0,0:0:0:0:
416,192,148752,1,0,0:0:0:0:
96,192,149193,6,0,L|96:256,2,50
96,192,149524,1,0,0:0:0:0:
96,192,149634,1,0,0:0:0:0:
416,256,150076,5,0,0:0:0:0:
381,292,150186,1,0,0:0:0:0:
336,315,150296,1,0,0:0:0:0:
287,327,150406,1,0,0:0:0:0:
237,333,150517,1,0,0:0:0:0:
187,325,150627,1,0,0:0:0:0:
145,298,150737,1,0,0:0:0:0:
118,256,150848,1,0,0:0:0:0:
110,207,150958,1,0,0:0:0:0:
117,158,151068,1,0,0:0:0:0:
148,120,151178,1,0,0:0:0:0:
193,99,151289,1,0,0:0:0:0:
242,105,151399,1,0,0:0:0:0:
287,127,151509,1,0,0:0:0:0:
309,173,151620,1,0,0:0:0:0:
285,217,151730,1,0,0:0:0:0:
256,192,151840,1,4,0:0:0:0:
256,64,152061,5,8,0:0:0:0:
137,153,152281,1,8,0:0:0:0:
154,276,152502,1,8,0:0:0:0:
273,314,152723,2,0,P|303:306|337:282,1,50,8|0,0:0|0:0,0:0:0:0:
373,243,152943,2,0,P|383:209|383:170,1,50,8|0,0:0|0:0,0:0:0:0:
363,123,153164,2,0,P|345:95|290:66,1,50,8|0,0:0|0:0,0:0:0:0:
256,64,153384,2,0,P|213:73|180:98,1,50,8|0,0:0|0:0,0:0:0:0:
254,295,153825,5,8,0:0:0:0:
32,200,154267,1,8,0:0:0:0:
127,84,154487,2,0,P|149:62|194:59,1,50
216,47,154708,1,8,0:0:0:0:
265,48,154818,1,0,0:0:0:0:
411,79,155039,1,0,0:0:0:0:
451,107,155149,1,8,0:0:0:0:
474,150,155259,1,0,0:0:0:0:
350,337,155590,1,8,0:0:0:0:
57,271,156031,1,8,0:0:0:0:
253,44,156472,1,8,0:0:0:0:
401,64,156693,5,0,0:0:0:0:
502,178,156914,1,8,0:0:0:0:
494,227,157024,1,0,0:0:0:0:
302,345,157355,1,8,0:0:0:0:
22,236,157796,1,8,0:0:0:0:
70,93,158017,5,0,0:0:0:0:
110,64,158127,1,0,0:0:0:0:
156,46,158237,1,8,0:0:0:0:
205,37,158348,2,0,P|258:24|327:45,1,100
350,44,158678,2,0,P|383:55|418:91,1,50,8|0,0:0|0:0,0:0:0:0:
450,281,159119,1,8,0:0:0:0:
324,363,159340,1,0,0:0:0:0:
173,357,159561,1,8,0:0:0:0:
126,337,159671,1,0,0:0:0:0:
30,133,160002,1,8,0:0:0:0:
158,54,160223,5,0,0:0:0:0:
306,36,160443,1,8,0:0:0:0:
353,50,160553,1,0,0:0:0:0:
487,230,160884,1,8,0:0:0:0:
385,341,161105,5,0,0:0:0:0:
235,348,161325,2,0,P|193:339|160:316,1,50,8|0,0:0|0:0,0:0:0:0:
24,180,161766,1,8,0:0:0:0:
115,61,161987,1,0,0:0:0:0:
263,40,162208,2,0,P|304:40|347:65,1,50,8|0,0:0|0:0,0:0:0:0:
479,192,162649,1,8,0:0:0:0:
412,326,162870,2,0,P|370:354|334:356,1,50
322,364,163090,1,8,0:0:0:0:
272,361,163200,1,0,0:0:0:0:
59,285,163531,1,8,0:0:0:0:
238,44,163972,1,8,0:0:0:0:
387,62,164193,5,0,0:0:0:0:
488,172,164413,1,8,0:0:0:0:
438,313,164634,1,0,0:0:0:0:
294,358,164855,1,8,0:0:0:0:
145,341,165075,1,0,0:0:0:0:
37,235,165296,1,8,0:0:0:0:
42,185,165406,1,0,0:0:0:0:
137,69,165737,2,8,P|248:35|354:57,1,200
463,117,166399,1,0,0:0:0:0:
466,266,166619,1,8,0:0:0:0:
173,330,167060,1,8,0:0:0:0:
173,330,167281,5,0,0:0:0:0:
321,354,167502,1,8,0:0:0:0:
370,348,167612,2,0,P|429:330|466:245,1,150,0|8,0:0|0:0,0:0:0:0:
262,33,168385,1,8,0:0:0:0:
113,49,168605,1,0,0:0:0:0:
69,73,168715,1,0,0:0:0:0:
42,115,168826,1,8,0:0:0:0:
26,162,168936,1,0,0:0:0:0:
93,296,169156,1,0,0:0:0:0:
128,332,169267,1,8,0:0:0:0:
173,351,169377,2,0,P|243:372|324:349,1,150,0|8,0:0|0:0,0:0:0:0:
446,83,170149,1,8,0:0:0:0:
148,45,170590,1,8,0:0:0:0:
40,149,170811,5,0,0:0:0:0:
71,295,171032,1,8,0:0:0:0:
111,323,171142,2,0,P|184:362|255:364,1,150,0|8,0:0|0:0,0:0:0:0:
500,199,171914,1,8,0:0:0:0:
420,72,172134,1,0,0:0:0:0:
373,53,172245,1,0,0:0:0:0:
324,40,172355,1,8,0:0:0:0:
274,39,172465,2,0,P|203:40|146:56,1,100
127,62,172796,1,8,0:0:0:0:
93,98,172906,1,0,0:0:0:0:
103,322,173237,1,8,0:0:0:0:
249,354,173458,1,0,0:0:0:0:
396,326,173679,1,8,0:0:0:0:
432,292,173789,1,0,0:0:0:0:
420,67,174120,1,8,0:0:0:0:
274,31,174340,6,0,P|224:31|166:42,1,100,0|8,0:0|0:0,0:0:0:0:
127,68,174671,1,0,0:0:0:0:
52,280,175002,5,8,0:0:0:0:
184,351,175223,1,0,0:0:0:0:
333,347,175443,1,8,0:0:0:0:
381,335,175553,1,0,0:0:0:0:
456,122,175884,1,8,0:0:0:0:
317,33,176105,1,0,0:0:0:0:
167,44,176325,2,0,P|116:57|81:80,1,50,8|0,0:0|0:0,0:0:0:0:
34,265,176767,1,8,0:0:0:0:
319,358,177208,1,8,0:0:0:0:
256,224,177428,6,0,L|248:216|232:200|229:197|225:193|221:189|218:186|214:182|210:178|207:175|203:171|199:167|196:164|192:160|96:48,1,100
256,224,177759,2,0,L|336:128,1,100
256,144,178090,1,0,0:0:0:0:
160,272,178311,6,0,B|80:224|96:32|256:-16|368:32|464:160|384:256|336:288,1,600
256,96,180075,2,0,L|256:304,1,200
0,128,180958,6,0,L|80:224,1,100
112,224,181252,2,0,L|208:144,1,100
224,128,181546,2,0,L|304:208,1,100
202,326,181840,2,0,B|245:272|277:183|300:151|319:137|375:147|421:172|421:172|375:147|354:131|354:131|344:117|344:117|363:111|396:102|407:89|411:50|377:24|340:22|300:40|309:76|317:108|317:108|312:116|312:116|275:124|233:104|220:100|220:100|239:106|277:125|302:131|285:162|246:196|207:194|158:206|78:233,1,1000
176,272,184487,6,0,P|224:272|256:208,1,100
256,160,184781,2,0,P|288:112|368:80,1,133.333333333333
432,256,185370,2,0,B|320:336|224:336|128:320|32:208|64:48|192:0|320:64|320:144|256:208,1,700
480,96,187134,6,0,P|320:48|288:160,1,300
32,288,188017,2,0,P|192:336|224:224,1,300
154,337,188899,2,0,B|171:234|171:234|102:149|102:149|205:132|205:132|256:47|256:47|307:132|307:132|409:149|409:149|341:234|341:234|358:337|358:337|256:302|256:302|154:337,1,1000
224,160,191546,6,0,B|192:224|192:224|256:224,1,100
272,224,191840,2,0,B|320:160|320:160|352:224,1,133.333333333333
432,64,192428,2,0,B|336:48|336:48|352:160|352:160|240:144|240:144|256:256|256:256|144:240|144:240|160:352|160:352|48:336,1,750
320,32,194193,6,0,B|256:48|224:128|304:176,1,150
336,112,194634,2,0,B|352:144|352:208|272:224,1,150
240,160,195075,2,0,B|176:192|176:272|256:304,1,150
272,224,195517,2,0,B|288:256|288:320|208:336,1,150
128,336,195958,2,0,B|144:336|144:336|176:336|320:320|352:256|352:144|288:32|192:32|128:144|128:256|160:320|320:336|352:336|352:336|384:336,1,700
340,335,197612,1,0,0:0:0:0:
340,335,197723,6,0,P|384:176|288:80,1,300
160,80,198605,2,0,P|93:111|80:192,1,150
98,252,199046,2,0,P|165:307|247:274,1,150
292,268,199487,2,0,B|368:258|365:217|376:181|315:149|267:147|267:147|235:147|204:116|199:51,1,300
57,80,200370,2,0,B|50:178|106:298|185:308|185:308|206:193|296:128|296:128|393:162|476:233,1,700
321,254,202134,6,0,B|261:190|175:171|175:171|106:183|26:254|26:254,1,300
175,76,203017,2,0,P|160:88|335:76,1,700
192,96,204781,2,0,P|336:192|272:256,1,300
288,208,205664,2,0,P|304:160|240:224,1,300
256,192,206546,5,0,0:0:0:0:
259,188,206656,1,0,0:0:0:0:
267,182,206767,1,0,0:0:0:0:
281,180,206877,1,0,0:0:0:0:
299,187,206987,1,0,0:0:0:0:
312,207,207098,1,0,0:0:0:0:
304,235,207208,1,0,0:0:0:0:
276,256,207318,1,0,0:0:0:0:
236,256,207428,1,0,0:0:0:0:
200,227,207539,1,0,0:0:0:0:
186,179,207649,1,0,0:0:0:0:
210,135,207759,1,0,0:0:0:0:
259,110,207870,1,0,0:0:0:0:
308,132,207980,1,0,0:0:0:0:
343,180,208090,1,0,0:0:0:0:
348,240,208200,1,0,0:0:0:0:
348,240,208311,5,0,0:0:0:0:
379,177,208421,1,0,0:0:0:0:
362,109,208531,1,0,0:0:0:0:
313,57,208642,1,0,0:0:0:0:
239,45,208752,1,0,0:0:0:0:
168,70,208862,1,0,0:0:0:0:
123,136,208973,1,0,0:0:0:0:
130,215,209083,1,0,0:0:0:0:
179,277,209193,1,0,0:0:0:0:
260,300,209303,1,0,0:0:0:0:
342,277,209414,1,0,0:0:0:0:
392,209,209524,1,0,0:0:0:0:
393,124,209634,1,0,0:0:0:0:
345,52,209745,1,0,0:0:0:0:
262,33,209855,1,0,0:0:0:0:
180,57,209965,1,0,0:0:0:0:
256,160,211620,6,0,L|256:224,2,50,0|0|2,0:0|0:0|0:0,0:0:0:0:
400,160,212061,2,0,P|368:144|336:144,1,50,8|0,0:0|0:0,0:0:0:0:
304,144,212281,2,0,P|272:144|240:176,1,50,8|0,0:0|0:0,0:0:0:0:
224,176,212502,2,0,P|192:208|160:208,1,50,8|0,0:0|0:0,0:0:0:0:
144,224,212723,2,0,P|96:224|64:192,1,50,8|0,0:0|0:0,0:0:0:0:
48,208,212943,2,0,P|32:176|63:135,1,50,8|0,0:0|0:0,0:0:0:0:
63,122,213164,1,8,0:0:0:0:
208,64,213384,1,0,0:0:0:0:
256,64,213494,1,4,0:0:0:0:
430,56,213605,5,0,0:0:0:0:
420,33,213715,1,0,0:0:0:0:
411,56,213826,1,0,0:0:0:0:
432,42,213936,1,0,0:0:0:0:
407,47,214046,2,0,L|329:92,1,50
363,71,214266,2,0,L|294:24,1,50
224,72,214488,5,0,0:0:0:0:
192,110,214598,1,0,0:0:0:0:
142,115,214708,1,0,0:0:0:0:
97,90,214819,1,0,0:0:0:0:
55,179,214928,6,0,L|106:253,3,50
140,304,215370,6,0,L|178:269,1,50
227,275,215590,2,0,L|263:320,1,50
297,282,215811,2,0,L|259:315,3,50
256,208,216252,5,0,0:0:0:0:
256,160,216362,1,0,0:0:0:0:
256,112,216473,1,0,0:0:0:0:
256,64,216583,1,0,0:0:0:0:
256,64,216693,5,0,0:0:0:0:
256,112,216803,1,0,0:0:0:0:
256,160,216914,1,0,0:0:0:0:
256,208,217024,1,0,0:0:0:0:
240,256,217134,6,0,L|192:208,3,50
272,256,217575,2,0,L|320:208,1,50
349,192,217796,2,0,P|379:168|426:170,1,50
467,227,218017,5,0,0:0:0:0:
417,227,218128,1,0,0:0:0:0:
370,211,218238,1,0,0:0:0:0:
336,175,218348,1,0,0:0:0:0:
258,111,218459,5,0,0:0:0:0:
210,93,218568,1,0,0:0:0:0:
160,84,218678,1,0,0:0:0:0:
119,112,218789,1,0,0:0:0:0:
55,187,218899,6,0,L|-9:123,1,50
23,123,219120,2,0,L|87:59,1,50
132,154,219340,6,0,P|149:186|196:218,1,50
208,195,219561,2,0,P|235:178|272:131,1,50
318,95,219781,5,0,0:0:0:0:
318,95,219892,1,0,0:0:0:0:
318,95,220002,1,0,0:0:0:0:
318,95,220112,1,0,0:0:0:0:
411,85,220223,6,0,P|434:108|440:152,1,50
406,160,220443,2,0,P|429:183|435:227,1,50
428,299,220664,6,0,L|350:254,1,50
384,275,220884,2,0,L|315:322,1,50
354,312,221105,5,0,0:0:0:0:
354,312,221215,1,0,0:0:0:0:
354,312,221326,1,0,0:0:0:0:
354,312,221436,1,0,0:0:0:0:
289,234,221547,5,0,0:0:0:0:
240,221,221657,1,0,0:0:0:0:
197,194,221767,1,0,0:0:0:0:
178,147,221878,1,0,0:0:0:0:
76,147,221987,6,0,L|44:194,3,50
45,288,222428,6,0,L|111:288,3,50
121,255,222870,1,0,0:0:0:0:
152,293,222980,1,0,0:0:0:0:
195,269,223090,2,0,L|252:315,1,50
322,252,223311,5,0,0:0:0:0:
369,236,223421,1,0,0:0:0:0:
402,198,223532,1,0,0:0:0:0:
436,162,223642,1,0,0:0:0:0:
394,71,223752,5,0,0:0:0:0:
344,63,223862,1,0,0:0:0:0:
298,83,223973,1,0,0:0:0:0:
271,125,224083,1,0,0:0:0:0:
365,157,224193,6,0,P|339:175|320:206,1,50
299,232,224414,2,0,P|288:253|279:285,1,50
230,278,224634,2,0,P|206:250|173:240,3,50
81,203,225076,5,0,0:0:0:0:
62,156,225187,1,0,0:0:0:0:
78,108,225297,1,0,0:0:0:0:
109,69,225407,1,0,0:0:0:0:
177,141,225517,1,0,0:0:0:0:
256,48,225958,5,0,0:0:0:0:
384,112,226178,1,0,0:0:0:0:
384,256,226399,1,0,0:0:0:0:
256,336,226620,1,0,0:0:0:0:
128,256,226840,1,0,0:0:0:0:
128,112,227061,1,0,0:0:0:0:
256,160,227281,6,0,L|256:224,3,50
82,328,227723,5,0,0:0:0:0:
92,351,227833,1,0,0:0:0:0:
101,328,227944,1,0,0:0:0:0:
80,342,228054,1,0,0:0:0:0:
105,337,228164,2,0,L|183:292,1,50
149,313,228384,2,0,L|218:360,1,50
288,312,228606,5,0,0:0:0:0:
334,293,228716,1,0,0:0:0:0:
381,312,228826,1,0,0:0:0:0:
428,292,228937,1,0,0:0:0:0:
460,199,229046,6,0,L|409:125,3,50
373,76,229488,5,0,0:0:0:0:
331,102,229598,1,0,0:0:0:0:
295,69,229708,2,0,L|244:34,1,50
214,72,229929,2,0,L|256:45,3,50
176,112,230370,5,0,0:0:0:0:
129,129,230480,1,0,0:0:0:0:
99,169,230591,1,0,0:0:0:0:
103,218,230701,1,0,0:0:0:0:
176,256,230811,5,0,0:0:0:0:
224,256,230921,1,0,0:0:0:0:
272,256,231032,1,0,0:0:0:0:
320,256,231142,1,0,0:0:0:0:
256,336,231252,6,0,L|320:336,3,50
357,332,231693,2,0,P|397:325|430:312,1,50
449,297,231914,2,0,P|473:267|471:220,1,50
467,157,232134,5,0,0:0:0:0:
417,157,232245,1,0,0:0:0:0:
370,173,232355,1,0,0:0:0:0:
336,209,232465,1,0,0:0:0:0:
265,138,232575,5,0,0:0:0:0:
245,92,232686,1,0,0:0:0:0:
202,68,232796,1,0,0:0:0:0:
153,64,232906,1,0,0:0:0:0:
80,144,233017,6,0,L|16:208,1,50
48,208,233238,2,0,L|112:272,1,50
148,215,233458,6,0,L|212:151,1,50
212,183,233679,2,0,L|276:247,1,50
318,289,233899,6,0,L|318:364,3,50
411,299,234341,6,0,P|434:276|440:232,1,50
397,234,234561,2,0,P|420:211|426:167,1,50
431,95,234781,6,0,P|416:118|378:121,1,50
341,139,235002,2,0,P|310:147|293:182,1,50
288,192,235223,1,0,0:0:0:0:
112,80,235664,6,0,L|192:160,1,100
220,184,235995,1,0,0:0:0:0:
256,224,236106,1,0,0:0:0:0:
279,33,236546,2,0,P|247:40|223:14,2,50
480,192,237208,5,0,0:0:0:0:
480,192,237318,1,0,0:0:0:0:
480,192,237428,1,0,0:0:0:0:
256,352,237759,1,0,0:0:0:0:
32,192,238090,1,0,0:0:0:0:
256,32,238311,5,0,0:0:0:0:
305,35,238421,1,0,0:0:0:0:
350,55,238531,1,0,0:0:0:0:
380,94,238642,1,0,0:0:0:0:
400,139,238752,1,0,0:0:0:0:
408,188,238862,1,0,0:0:0:0:
394,236,238973,1,0,0:0:0:0:
359,271,239083,1,0,0:0:0:0:
316,297,239193,1,0,0:0:0:0:
261,295,239303,1,0,0:0:0:0:
217,270,239414,1,0,0:0:0:0:
193,226,239524,1,0,0:0:0:0:
193,176,239634,1,0,0:0:0:0:
225,137,239745,1,0,0:0:0:0:
274,134,239855,1,0,0:0:0:0:
305,172,239965,1,0,0:0:0:0:
290,219,240075,1,0,0:0:0:0:
192,156,240296,6,0,L|112:108,1,50,8|0,0:0|0:0,0:0:0:0:
256,112,240517,2,0,L|256:48,1,50,8|0,0:0|0:0,0:0:0:0:
320,156,240738,2,0,L|400:108,1,50,8|0,0:0|0:0,0:0:0:0:
320,228,240958,2,0,L|400:276,1,50,8|0,0:0|0:0,0:0:0:0:
256,272,241178,2,0,L|256:336,1,50,8|0,0:0|0:0,0:0:0:0:
192,228,241399,2,0,L|112:276,1,50,8|0,0:0|0:0,0:0:0:0:
256,192,241620,1,8,0:0:0:0:
320,210,241730,2,0,P|223:132|202:229,1,250,0|8,0:0|0:0,0:0:0:0:
352,32,242723,6,0,P|392:59|416:96,1,50
427,95,242943,1,8,0:0:0:0:
452,138,243053,1,0,0:0:0:0:
448,288,243274,1,0,0:0:0:0:
415,326,243384,1,8,0:0:0:0:
371,350,243495,2,0,P|295:370|211:350,1,150,0|8,0:0|0:0,0:0:0:0:
146,67,244267,1,8,0:0:0:0:
389,241,244708,1,8,0:0:0:0:
432,96,244928,5,0,0:0:0:0:
272,32,245149,1,8,0:0:0:0:
222,38,245259,2,0,B|180:28|128:71|132:130|188:153,1,150,0|8,0:0|0:0,0:0:0:0:
256,192,246031,1,8,0:0:0:0:
352,224,246252,6,0,P|368:256|352:288,1,50
339,311,246473,1,8,0:0:0:0:
289,318,246583,1,0,0:0:0:0:
141,290,246803,1,0,0:0:0:0:
117,245,246914,1,8,0:0:0:0:
118,195,247024,2,0,P|152:136|254:136,1,150,0|8,0:0|0:0,0:0:0:0:
358,196,247575,1,0,0:0:0:0:
485,115,247796,2,0,P|493:76|457:43,1,50,8|0,0:0|0:0,0:0:0:0:
268,27,248237,1,8,0:0:0:0:
202,162,248458,5,0,0:0:0:0:
344,213,248678,1,8,0:0:0:0:
392,198,248789,1,0,0:0:0:0:
486,115,248899,2,0,B|434:120|434:120|401:67,1,100,0|8,0:0|0:0,0:0:0:0:
262,46,249340,2,0,B|290:82|290:82|347:62,1,100,0|8,0:0|0:0,0:0:0:0:
405,234,249671,2,0,P|341:183|250:196,1,150,0|8,0:0|0:0,0:0:0:0:
143,213,250223,2,0,P|186:201|174:223,1,100,0|8,0:0|0:0,0:0:0:0:
131,204,250553,2,0,B|52:232|103:304|103:304|170:272|170:272|201:322,1,250
224,242,251215,2,0,B|203:246|203:246|119:207,1,100
127,67,251767,1,8,0:0:0:0:
356,259,252208,1,8,0:0:0:0:
448,80,252428,6,0,P|400:64|336:96,1,100,0|8,0:0|0:0,0:0:0:0:
160,80,252870,2,0,P|112:64|48:96,1,100,0|8,0:0|0:0,0:0:0:0:
16,160,253311,2,0,L|80:160,1,50
448,160,253531,2,0,L|512:160,1,50,8|0,0:0|0:0,0:0:0:0:
128,256,253973,2,0,B|128:272|176:320|256:352|336:320|384:272|384:240,1,300,8|0,0:0|0:0,0:0:0:0:
352,96,254855,1,8,0:0:0:0:
64,160,255296,1,8,0:0:0:0:
176,256,255517,5,0,0:0:0:0:
325,258,255737,1,8,0:0:0:0:
367,231,255848,2,0,P|387:213|405:111,1,100
386,102,256178,1,8,0:0:0:0:
148,61,256620,1,8,0:0:0:0:
22,142,256840,2,0,P|26:169|80:189,1,50
83,212,257061,2,0,P|113:222|146:217,1,50,8|0,0:0|0:0,0:0:0:0:
265,154,257392,1,0,0:0:0:0:
295,193,257502,1,8,0:0:0:0:
331,226,257612,2,0,P|386:235|433:296,1,100
439,309,257943,1,8,0:0:0:0:
157,106,258384,1,8,0:0:0:0:
39,298,258825,1,8,0:0:0:0:
416,112,259046,5,0,0:0:0:0:
281,44,259267,1,8,0:0:0:0:
231,49,259377,1,0,0:0:0:0:
224,232,259708,6,0,B|256:136|256:136|288:232|288:232|208:176|208:176|304:176|304:176|216:232,1,500,8|8,0:0|0:0,0:0:0:0:
320,272,260370,6,0,P|344:253|355:221,1,50
358,186,260590,1,8,0:0:0:0:
352,136,260700,1,0,0:0:0:0:
262,91,260921,1,0,0:0:0:0:
209,98,261031,1,8,0:0:0:0:
172,133,261142,2,0,P|140:208|191:274,1,150,0|8,0:0|0:0,0:0:0:0:
256,290,261693,1,0,0:0:0:0:
340,235,261914,2,0,P|354:208|354:181,1,50,8|0,0:0|0:0,0:0:0:0:
256,192,262355,1,8,0:0:0:0:
464,80,262575,6,0,L|400:128,3,50,0|0|8|0,0:0|0:0|0:0|0:0,0:0:0:0:
256,192,263237,1,8,0:0:0:0:
48,80,263458,2,0,L|112:128,1,50
88,110,263678,1,8,0:0:0:0:
88,110,263789,1,0,0:0:0:0:
256,192,264120,1,8,0:0:0:0:
256,336,264340,1,0,0:0:0:0:
256,321,264450,1,0,0:0:0:0:
256,305,264561,1,8,0:0:0:0:
256,290,264671,1,0,0:0:0:0:
256,192,265002,5,8,0:0:0:0:
256,192,265443,1,8,0:0:0:0:
256,192,265884,1,8,0:0:0:0:
112,128,266105,6,0,P|128:80|192:48,1,100,0|8,0:0|0:0,0:0:0:0:
215,40,266436,1,0,0:0:0:0:
256,192,266767,1,8,0:0:0:0:
294,47,266987,1,0,0:0:0:0:
439,82,267208,2,0,P|472:111|484:157,1,50,8|0,0:0|0:0,0:0:0:0:
256,192,267649,1,8,0:0:0:0:
384,256,267870,2,0,P|368:288|272:336,1,100,0|8,0:0|0:0,0:0:0:0:
272,336,268200,2,0,P|192:336|160:304,1,100
144,304,268531,2,8,P|64:256|48:112,1,200
64,112,269083,1,0,0:0:0:0:
256,192,269414,1,8,0:0:0:0:
80,192,269634,6,0,L|144:192,1,50
144,128,269855,2,8,B|224:192|224:192|144:272,1,200
288,192,270517,2,0,L|352:192,1,50
352,256,270738,2,8,B|432:192|432:192|352:112,1,200
432,256,271399,2,0,P|400:288|320:320,1,100,0|8,0:0|0:0,0:0:0:0:
304,330,271730,2,0,P|250:334|40:258,1,250
128,96,272723,5,0,0:0:0:0:
352,99,273053,2,0,P|400:115|507:96,1,150
176,80,273605,2,0,B|368:80|368:80|176:176|160:240|176:288|256:304|352:304,1,600
200,216,275370,2,0,B|218:183|218:183|233:162|263:131|301:138|316:170|316:208|316:208|306:228|294:241|279:238|271:220|287:206|307:216|339:245,1,300,4|0,0:0|0:0,0:0:0:0:
160,192,276252,6,0,L|160:96,5,50,4|0|0|0|0|0,0:0|0:0|0:0|0:0|0:0|0:0,0:0:0:0:
352,192,276693,2,0,L|352:288,5,62.5,4|0|0|0|0|0,0:0|0:0|0:0|0:0|0:0|0:0,0:0:0:0:
64,192,277134,6,0,L|64:256,4,50
448,128,278016,2,0,L|448:192,4,50
152,80,278898,6,0,P|189:62|237:51,1,50
248,56,279119,2,0,P|287:55|335:65,1,50
346,72,279340,1,0,0:0:0:0:
360,302,279781,6,0,P|323:320|275:331,1,50
264,326,280002,2,0,P|225:327|177:317,1,50
166,310,280223,1,0,0:0:0:0:
256,192,280442,1,0,0:0:0:0:
352,96,280663,6,0,L|416:160,4,50
160,288,281545,2,0,L|96:224,4,50
512,224,284192,5,0,0:0:0:0:
480,262,284303,1,0,0:0:0:0:
443,294,284413,1,0,0:0:0:0:
398,314,284523,1,0,0:0:0:0:
352,320,284634,1,0,0:0:0:0:
0,160,285075,5,0,0:0:0:0:
32,122,285186,1,0,0:0:0:0:
69,90,285296,1,0,0:0:0:0:
114,70,285406,1,0,0:0:0:0:
160,64,285517,1,0,0:0:0:0:
240,272,285958,6,0,L|192:224,1,50
272,192,286179,2,0,L|336:128,1,50
256,96,286398,1,0,0:0:0:0:
301,318,286840,5,0,0:0:0:0:
280,330,286950,1,0,0:0:0:0:
256,336,287060,1,0,0:0:0:0:
232,330,287170,1,0,0:0:0:0:
211,318,287281,1,0,0:0:0:0:
256,192,287501,1,0,0:0:0:0:
96,256,287722,6,0,L|96:192,4,50
416,128,288604,2,0,L|416:192,4,50
256,304,289487,2,0,L|320:304,2,50
256,80,289928,2,0,L|192:80,2,50
352,192,290370,6,0,L|352:96,5,50,4|0|0|0|0|0,0:0|0:0|0:0|0:0|0:0|0:0,0:0:0:0:
160,192,290811,2,0,L|160:288,5,62.5,4|0|0|0|0|0,0:0|0:0|0:0|0:0|0:0|0:0,0:0:0:0:
256,192,291473,12,4,298311,0:0:0:0:
