osu file format v14

[General]
AudioFilename: audio.mp3
AudioLeadIn: 0
PreviewTime: 15319
Countdown: 0
SampleSet: Soft
StackLeniency: 0.7
Mode: 0
LetterboxInBreaks: 0
WidescreenStoryboard: 0

[Editor]
DistanceSpacing: 0.8
BeatDivisor: 4
GridSize: 32
TimelineZoom: 2.2

[Metadata]
Title:GGX GANG
TitleUnicode:GGX GANG
Artist:GWEEK BEETS
ArtistUnicode:GWEEK BEETS
Creator:Nikakis
Version:TriHard 7
Source:
Tags:Greekgodx Twitch Streamer Reform Kujinn Rap Hip Hop English
BeatmapID:1984690
BeatmapSetID:950320

[Difficulty]
HPDrainRate:5.5
CircleSize:3.8
OverallDifficulty:8.5
ApproachRate:9
SliderMultiplier:1.7
SliderTickRate:1

[Events]
//Background and Video events
0,0,"TriHard7.jpg",0,0
//Break Periods
//Storyboard Layer 0 (Background)
//Storyboard Layer 1 (Fail)
//Storyboard Layer 2 (Pass)
//Storyboard Layer 3 (Foreground)
//Storyboard Sound Samples

[TimingPoints]
3132,375,4,2,1,45,1,0
3132,-117.647058823529,4,2,1,45,0,0
14944,-117.647058823529,4,2,1,5,0,0
15132,-83.3333333333333,4,2,1,75,0,1
15413,-83.3333333333333,4,2,1,5,0,1
15507,-83.3333333333333,4,2,1,75,0,1
16913,-83.3333333333333,4,2,1,5,0,1
17007,-83.3333333333333,4,2,1,75,0,1
17475,-83.3333333333333,4,2,1,5,0,1
17569,-83.3333333333333,4,2,1,75,0,1
17663,-83.3333333333333,4,2,1,5,0,1
17757,-83.3333333333333,4,2,1,75,0,1
17850,-83.3333333333333,4,2,1,5,0,1
17944,-83.3333333333333,4,2,1,75,0,1
18038,-83.3333333333333,4,2,1,5,0,1
18132,-83.3333333333333,4,2,1,75,0,1
18413,-83.3333333333333,4,2,1,5,0,1
18507,-83.3333333333333,4,2,1,75,0,1
19913,-83.3333333333333,4,2,1,5,0,1
20007,-83.3333333333333,4,2,1,75,0,1
20475,-83.3333333333333,4,2,1,5,0,1
20569,-83.3333333333333,4,2,1,75,0,1
20663,-83.3333333333333,4,2,1,5,0,1
20757,-83.3333333333333,4,2,1,75,0,1
20850,-83.3333333333333,4,2,1,5,0,1
20944,-83.3333333333333,4,2,1,75,0,1
21038,-83.3333333333333,4,2,1,5,0,1
21132,-83.3333333333333,4,2,1,75,0,1
21413,-83.3333333333333,4,2,1,5,0,1
21507,-83.3333333333333,4,2,1,75,0,1
22913,-83.3333333333333,4,2,1,5,0,1
23007,-83.3333333333333,4,2,1,75,0,1
23475,-83.3333333333333,4,2,1,5,0,1
23569,-83.3333333333333,4,2,1,75,0,1
23663,-83.3333333333333,4,2,1,5,0,1
23757,-83.3333333333333,4,2,1,75,0,1
23850,-83.3333333333333,4,2,1,5,0,1
23944,-83.3333333333333,4,2,1,75,0,1
24038,-83.3333333333333,4,2,1,5,0,1
24132,-83.3333333333333,4,2,1,75,0,1
24413,-83.3333333333333,4,2,1,5,0,1
24507,-83.3333333333333,4,2,1,75,0,1
25913,-83.3333333333333,4,2,1,5,0,1
26007,-83.3333333333333,4,2,1,75,0,1
26475,-83.3333333333333,4,2,1,5,0,1
26569,-83.3333333333333,4,2,1,75,0,1
26663,-83.3333333333333,4,2,1,5,0,1
26757,-83.3333333333333,4,2,1,75,0,1
26850,-83.3333333333333,4,2,1,5,0,1
26944,-83.3333333333333,4,2,1,75,0,1
27038,-83.3333333333333,4,2,1,5,0,1
27132,-83.3333333333333,4,2,1,75,0,0
27882,-83.3333333333333,4,2,1,65,0,0
28632,-83.3333333333333,4,2,1,55,0,0
29382,-83.3333333333333,4,2,1,45,0,0
30132,-83.3333333333333,4,2,1,35,0,0
30882,-83.3333333333333,4,2,1,25,0,0
31632,-83.3333333333333,4,2,1,15,0,0
32382,-83.3333333333333,4,2,1,10,0,0
33132,-83.3333333333333,4,2,1,5,0,0

[Colours]
Combo1 : 128,64,64
Combo2 : 137,129,160

[HitObjects]
79,78,1257,5,2,0:0:0:0:
58,270,1444,1,2,0:0:0:0:
220,154,1632,2,0,L|127:161,1,85,2|2,0:0|0:0,0:0:0:0:
329,302,2007,1,2,0:0:0:0:
376,26,2757,1,2,0:0:0:0:
67,56,3132,6,0,L|53:212,3,144.500002756119,2|2|2|2,0:0|0:0|0:0|0:0,0:0:0:0:
193,89,4632,2,0,P|227:66|332:85,3,144.500002756119,2|2|2|2,0:0|0:0|0:0|0:0,0:0:0:0:
444,227,6132,2,0,B|375:252|375:252|291:221,3,144.500002756119,2|2|2|2,0:0|0:0|0:0|0:0,0:0:0:0:
112,170,7632,2,0,B|92:211|92:211|111:321,3,144.500002756119,2|2|2|2,0:0|0:0|0:0|0:0,0:0:0:0:
292,347,9132,6,0,L|436:358,3,144.500002756119,2|2|2|2,0:0|0:0|0:0|0:0,0:0:0:0:
212,236,10632,2,0,L|68:246,3,144.500002756119,2|2|2|2,0:0|0:0|0:0|0:0,0:0:0:0:
217,90,12132,2,0,P|260:72|345:117,3,144.500002756119,2|2|2|2,0:0|0:0|0:0|0:0,0:0:0:0:
279,255,13632,5,2,0:0:0:0:
256,192,13725,12,0,14944,0:0:0:0:
445,36,15132,6,0,L|460:201,1,152.999995330811,4|0,1:2|0:0,0:0:0:0:
464,228,15507,1,2,0:0:0:0:
350,80,15694,1,2,0:0:0:0:
257,277,15882,2,0,L|156:291,1,101.999996887207,10|0,0:0|0:0,0:0:0:0:
25,154,16257,2,0,L|126:169,1,101.999996887207,2|0,0:0|1:0,0:0:0:0:
140,384,16632,6,0,P|83:356|59:265,1,152.999995330811,2|0,0:0|0:0,0:0:0:0:
71,231,17007,1,2,1:2:0:0:
218,349,17194,1,2,0:0:0:0:
196,182,17382,2,0,L|139:177,1,50.9999984436036,10|0,0:0|0:0,0:0:0:0:
249,274,17569,2,0,L|299:269,1,50.9999984436036,2|0,0:0|0:0,0:0:0:0:
354,169,17757,2,0,L|297:164,1,50.9999984436036,2|0,0:0|0:0,0:0:0:0:
410,269,17944,2,0,L|460:264,1,50.9999984436036,2|0,1:2|0:0,0:0:0:0:
454,115,18132,6,0,B|474:162|474:162|458:280,1,152.999995330811,2|0,1:2|0:0,0:0:0:0:
459,303,18507,1,2,0:0:0:0:
351,160,18694,1,2,0:0:0:0:
247,340,18882,2,0,P|199:355|150:343,1,101.999996887207,10|0,0:0|0:0,0:0:0:0:
8,221,19257,2,0,L|113:207,1,101.999996887207,2|0,0:0|1:0,0:0:0:0:
325,78,19632,6,0,L|149:56,1,152.999995330811,2|0,0:0|0:0,0:0:0:0:
136,54,20007,1,2,1:2:0:0:
246,220,20194,1,2,0:0:0:0:
78,130,20382,2,0,L|72:80,1,50.9999984436036,10|0,0:0|0:0,0:0:0:0:
171,174,20569,2,0,L|165:224,1,50.9999984436036,2|0,0:0|0:0,0:0:0:0:
69,307,20757,2,0,L|63:257,1,50.9999984436036,2|0,0:0|0:0,0:0:0:0:
176,334,20944,2,0,L|170:384,1,50.9999984436036,2|0,1:2|0:0,0:0:0:0:
258,265,21132,6,0,B|309:250|309:250|413:265,1,152.999995330811,2|0,1:2|0:0,0:0:0:0:
441,274,21507,1,2,0:0:0:0:
400,89,21694,1,2,0:0:0:0:
258,265,21882,2,0,L|157:250,1,101.999996887207,10|0,0:0|0:0,0:0:0:0:
298,154,22257,2,0,L|398:139,1,101.999996887207,2|0,0:0|1:0,0:0:0:0:
123,27,22632,6,0,P|77:81|83:178,1,152.999995330811,2|0,0:0|0:0,0:0:0:0:
93,194,23007,1,2,1:2:0:0:
244,67,23194,1,2,0:0:0:0:
213,262,23382,2,0,L|162:256,1,50.9999984436036,10|0,0:0|0:0,0:0:0:0:
319,173,23569,2,0,L|324:223,1,50.9999984436036,2|0,0:0|0:0,0:0:0:0:
222,134,23757,2,0,L|171:128,1,50.9999984436036,2|0,0:0|0:0,0:0:0:0:
306,35,23944,2,0,L|311:85,1,50.9999984436036,2|0,1:2|0:0,0:0:0:0:
199,209,24132,6,0,L|217:57,1,152.999995330811,2|0,1:2|0:0,0:0:0:0:
223,24,24507,1,2,0:0:0:0:
114,171,24694,1,2,0:0:0:0:
335,154,24882,2,0,P|383:128|403:78,1,101.999996887207,10|0,0:0|0:0,0:0:0:0:
202,178,25257,2,0,L|194:302,1,101.999996887207,2|0,0:0|1:0,0:0:0:0:
431,381,25632,6,0,L|418:218,1,152.999995330811,2|0,0:0|0:0,0:0:0:0:
414,190,26007,1,2,1:2:0:0:
326,356,26194,1,2,0:0:0:0:
239,191,26382,2,0,L|172:183,1,50.9999984436036,10|0,0:0|0:0,0:0:0:0:
335,120,26569,2,0,L|402:112,1,50.9999984436036,2|0,1:2|0:0,0:0:0:0:
239,53,26757,2,0,L|172:45,1,50.9999984436036,10|0,0:2|0:0,0:0:0:0:
377,6,26944,2,0,L|444:-2,1,50.9999984436036,2|0,1:2|0:0,0:0:0:0:
297,127,27132,5,6,1:2:0:0:
256,192,27225,12,0,33132,0:0:0:0:
