osu file format v14

[General]
AudioFilename: GUMI.mp3
AudioLeadIn: 0
PreviewTime: 24736
Countdown: 1
SampleSet: Normal
StackLeniency: 0.7
Mode: 0
LetterboxInBreaks: 0
WidescreenStoryboard: 0

[Editor]
DistanceSpacing: 1.3
BeatDivisor: 4
GridSize: 4
TimelineZoom: 1

[Metadata]
Title:Yowamushi Monburan
TitleUnicode:弱虫モンブラン
Artist:GUMI
ArtistUnicode:GUMI
Creator:MagicNAT
Version:Normal
Source:
Tags:
BeatmapID:874749
BeatmapSetID:385915

[Difficulty]
HPDrainRate:6
CircleSize:4
OverallDifficulty:7
ApproachRate:8
SliderMultiplier:1.4
SliderTickRate:1

[Events]
//Background and Video events
//Break Periods
2,65182,71982
//Storyboard Layer 0 (Background)
//Storyboard Layer 1 (Fail)
//Storyboard Layer 2 (Pass)
//Storyboard Layer 3 (Foreground)
//Storyboard Sound Samples

[TimingPoints]
738,499.958336805266,4,1,0,75,1,0
40984,-100,4,2,0,75,0,0
46734,-100,4,1,0,75,0,0
48983,-100,4,1,0,75,0,1
64982,-100,4,1,0,75,0,0
72732,-100,4,2,0,75,0,0
80731,-100,4,2,0,100,0,0
84731,-100,4,1,0,60,0,0
86730,-100,4,1,0,75,0,0
105479,-100,4,2,0,100,0,0
110978,-100,4,1,0,75,0,0

[HitObjects]
120,88,738,5,0,0:0:0:0:
120,88,987,2,0,P|168:120|192:124,1,70
264,84,1487,1,0,0:0:0:0:
336,136,1737,1,0,0:0:0:0:
312,224,1987,1,0,0:0:0:0:
412,308,2737,5,0,0:0:0:0:
412,308,2862,1,0,0:0:0:0:
412,308,2987,2,0,P|372:316|340:304,1,70
268,248,3487,2,0,P|240:216|208:204,1,70
200,280,3987,1,0,0:0:0:0:
108,60,4737,6,0,L|148:96,1,35
168,112,4987,2,0,P|220:144|256:144,1,70
320,132,5487,2,0,P|368:128|392:144,1,70
436,216,5987,2,0,P|424:252|384:272,1,70
308,288,6487,2,0,P|256:296|236:280,1,70
208,260,6862,1,0,0:0:0:0:
184,220,6987,2,0,P|216:192|248:192,1,70
332,212,7487,2,0,P|376:224|412:216,1,70
376,152,7987,1,0,0:0:0:0:
96,268,8737,5,0,0:0:0:0:
96,268,8987,2,0,P|152:288|176:280,1,70
200,264,9362,1,0,0:0:0:0:
244,248,9487,2,0,P|288:232|320:256,1,70
396,248,9987,2,0,L|340:200,1,70
268,148,10487,1,0,0:0:0:0:
192,96,10737,5,0,0:0:0:0:
152,176,10987,2,0,L|132:212,1,35
200,244,11237,2,0,L|224:280,1,35
280,312,11487,2,0,P|316:332|360:328,1,70
332,260,11987,1,0,0:0:0:0:
104,88,12737,5,0,0:0:0:0:
104,88,12986,2,0,P|136:132|152:132,1,70
224,84,13486,2,0,P|272:112|272:132,1,70
200,176,13986,2,0,P|228:208|260:208,1,70
336,172,14486,2,0,P|368:192|356:240,1,70
316,296,14986,5,0,0:0:0:0:
224,300,15236,2,0,L|168:284,2,35
292,240,15736,2,0,L|328:216,2,35
212,196,16236,2,0,L|176:172,2,35
268,124,16736,2,0,L|300:100,2,35
188,76,17236,1,0,0:0:0:0:
120,136,17486,1,0,0:0:0:0:
296,96,17986,6,0,P|336:128|336:160,1,70
252,168,18486,1,0,0:0:0:0:
132,304,18985,6,0,P|164:328|208:328,1,70
252,264,19485,2,0,P|296:276|328:312,1,70
408,272,19986,1,0,0:0:0:0:
284,140,20486,1,0,0:0:0:0:
124,56,20986,5,0,0:0:0:0:
124,56,21236,2,0,P|160:88|192:96,1,70
360,64,21986,1,0,0:0:0:0:
360,64,22236,2,0,P|340:104|312:124,1,70
156,196,22986,1,0,0:0:0:0:
248,196,23236,2,0,L|272:228,2,35
232,108,23736,2,0,P|272:64|304:60,1,70
332,236,24486,1,0,0:0:0:0:
196,216,24985,6,0,P|232:248|276:252,1,70
372,256,25485,2,0,P|412:212|424:192,2,70
104,296,26735,1,0,0:0:0:0:
132,204,26985,2,0,P|176:168|212:168,1,70
196,236,27485,2,0,P|240:292|312:296,1,140
116,72,28735,5,0,0:0:0:0:
116,72,28985,2,0,P|160:112|184:116,1,70
216,120,29360,1,0,0:0:0:0:
264,128,29485,2,0,P|304:152|324:192,1,70
356,260,29985,1,0,0:0:0:0:
408,68,30735,5,0,0:0:0:0:
364,84,30860,1,0,0:0:0:0:
324,112,30985,2,0,P|288:152|276:192,1,70
268,212,31360,1,0,0:0:0:0:
256,260,31485,2,0,P|232:300|192:316,2,70
72,192,32485,1,0,0:0:0:0:
224,72,32985,6,0,P|264:100|308:108,1,70
368,56,33485,1,0,0:0:0:0:
440,172,33985,2,0,P|408:208|372:220,1,70
300,172,34485,1,0,0:0:0:0:
120,88,34985,6,0,P|108:136|128:156,1,70
216,156,35485,2,0,P|240:196|216:228,1,70
152,272,35985,1,0,0:0:0:0:
376,288,36984,6,0,P|344:240|316:224,1,70
284,232,37359,1,0,0:0:0:0:
236,232,37484,1,0,0:0:0:0:
344,84,37984,2,0,P|288:84|260:104,1,70
252,128,38359,1,0,0:0:0:0:
240,172,38484,1,0,0:0:0:0:
88,272,38984,6,0,P|120:304|168:300,1,70
200,236,39484,2,0,P|240:256|248:292,1,70
336,308,39984,1,0,0:0:0:0:
384,132,40484,1,0,0:0:0:0:
216,68,40984,6,0,P|252:96|300:108,1,70
364,104,41484,1,0,0:0:0:0:
184,140,41984,2,0,P|232:168|256:168,1,70
336,168,42484,1,0,0:0:0:0:
164,224,42984,1,0,0:0:0:0:
400,84,43734,1,0,0:0:0:0:
376,172,43984,2,0,P|352:216|320:232,1,70
252,260,44484,1,0,0:0:0:0:
80,196,44984,5,0,0:0:0:0:
80,196,45234,2,0,P|136:192|172:176,1,70
312,104,45983,2,0,P|372:88|392:88,2,70
264,184,46734,5,0,0:0:0:0:
192,240,46984,2,0,L|140:296,1,70
248,288,47484,2,0,L|300:344,1,70
332,256,47984,2,0,L|388:200,1,70
308,152,48484,1,0,0:0:0:0:
148,64,48983,5,0,0:0:0:0:
148,64,49233,2,0,P|184:96|212:96,1,70
292,76,49733,1,0,0:0:0:0:
400,220,50233,2,0,P|356:268|336:272,1,70
264,280,50733,1,0,0:0:0:0:
180,248,50983,2,0,P|128:204|116:128,1,140
196,92,51733,1,0,0:0:0:0:
288,88,51983,2,0,L|352:48,1,70
372,140,52483,2,0,L|444:192,1,70
408,272,52983,1,0,0:0:0:0:
136,272,53733,5,0,0:0:0:0:
136,272,53858,1,0,0:0:0:0:
136,272,53983,2,0,P|192:288|224:276,1,70
284,248,54483,2,0,P|324:216|340:184,2,70
136,120,55483,1,0,0:0:0:0:
332,108,55983,2,0,P|376:124|408:144,1,70
460,212,56483,2,0,P|432:264|408:280,1,70
328,284,56983,5,0,0:0:0:0:
244,236,57233,2,0,P|208:212|188:176,2,70
380,92,58233,1,0,0:0:0:0:
380,140,58358,1,0,0:0:0:0:
380,188,58483,2,0,P|364:244|332:264,1,70
260,260,58983,2,0,P|216:260|128:200,1,140
188,128,59733,1,0,0:0:0:0:
276,84,59984,2,0,L|336:64,1,35
328,148,60234,2,0,L|372:164,1,35
408,176,60483,2,0,P|456:200|472:240,1,70
448,308,60982,1,0,0:0:0:0:
156,276,61732,5,0,0:0:0:0:
156,276,61982,2,0,P|112:240|112:204,1,70
172,152,62482,2,0,P|216:120|256:116,1,70
324,140,62982,2,0,P|356:184|348:260,1,105
336,276,63482,2,0,P|312:304|220:308,1,105
200,308,63982,1,0,0:0:0:0:
152,220,64232,1,0,0:0:0:0:
224,152,64482,1,0,0:0:0:0:
312,112,64732,1,0,0:0:0:0:
356,200,64982,1,0,0:0:0:0:
156,104,72732,5,0,0:0:0:0:
252,116,72981,2,0,P|300:124|320:144,1,70
356,228,73481,2,0,P|324:252|288:260,2,70
408,84,74731,5,0,0:0:0:0:
320,128,74981,2,0,P|276:168|256:176,1,70
220,184,75356,1,0,0:0:0:0:
176,200,75481,2,0,P|144:228|128:260,1,70
228,272,75981,1,0,0:0:0:0:
400,288,76731,5,0,0:0:0:0:
320,232,76981,2,0,L|232:224,1,70
316,152,77481,2,0,L|408:160,1,70
336,72,77981,1,0,0:0:0:0:
104,52,78731,5,0,0:0:0:0:
200,64,78981,2,0,L|240:92,1,35
272,112,79231,2,0,L|300:136,1,35
328,172,79481,2,0,P|352:220|344:260,2,70
408,76,80731,5,0,0:0:0:0:
376,168,80981,2,0,P|352:216|324:244,1,70
248,196,81481,2,0,P|224:240|232:276,2,70
140,88,82731,5,0,0:0:0:0:
216,152,82981,2,0,L|252:136,1,35
268,208,83231,2,0,L|296:228,1,35
340,248,83481,2,0,P|392:256|424:228,1,70
368,156,83981,1,0,0:0:0:0:
92,60,84731,5,0,0:0:0:0:
172,116,84980,2,0,P|228:144|260:140,1,70
332,140,85480,2,0,P|396:132|412:148,2,70
68,268,86730,5,0,0:0:0:0:
160,300,86980,2,0,P|212:312|264:288,1,105
300,264,87480,2,0,P|340:220|360:176,1,105
352,132,87980,2,0,P|316:112|264:104,2,70
448,144,88730,5,0,0:0:0:0:
448,144,88980,2,0,P|432:192|412:208,1,70
356,268,89480,2,0,P|316:288|288:288,2,70
148,92,90730,5,0,0:0:0:0:
72,140,90980,2,0,P|136:176|216:156,2,140
340,84,92730,5,0,0:0:0:0:
308,168,92980,2,0,P|280:196|244:204,1,70
228,116,93480,2,0,P|180:136|168:160,2,70
400,264,94730,5,0,0:0:0:0:
336,200,94980,2,0,P|304:172|264:168,1,70
276,240,95480,2,0,P|248:284|164:308,1,140
440,68,96979,6,0,P|392:96|376:124,1,70
448,144,97479,1,0,0:0:0:0:
268,148,97979,1,0,0:0:0:0:
320,92,98229,2,0,P|344:136|340:180,1,70
188,248,98979,1,0,0:0:0:0:
248,180,99229,2,0,L|288:136,1,35
308,220,99479,2,0,L|344:240,1,35
368,168,99729,2,0,P|404:156|424:128,2,70
360,96,100479,1,0,0:0:0:0:
180,72,100979,5,0,0:0:0:0:
272,84,101229,2,0,P|312:88|356:116,1,70
338,100,101979,1,0,0:0:0:0:
420,136,102229,2,0,P|452:184|456:228,1,70
304,296,102979,2,0,P|248:308|208:300,1,70
235,306,103479,2,0,P|184:304|152:288,1,70
112,224,103979,1,0,0:0:0:0:
284,164,104479,1,0,0:0:0:0:
382,88,105479,6,0,P|377:131|293:198,1,140
170,76,106479,1,0,0:0:0:0:
196,256,106979,1,0,0:0:0:0:
413,265,107729,5,0,0:0:0:0:
337,214,107979,2,0,L|280:171,1,70
281,171,108479,1,0,0:0:0:0:
113,101,108978,6,0,P|156:165|238:188,1,140
360,81,109977,2,0,P|406:62|450:71,2,70
178,103,110978,5,0,0:0:0:0:
208,188,111228,1,0,0:0:0:0:
239,274,111478,1,0,0:0:0:0:
324,113,111978,1,0,0:0:0:0:
252,168,112228,1,0,0:0:0:0:
174,216,112478,1,0,0:0:0:0:
354,235,112978,2,0,P|399:219|415:184,1,70
383,114,113478,2,0,P|338:78|301:72,1,70
148,111,114228,5,0,0:0:0:0:
219,167,114478,2,0,P|256:193|306:203,1,70
362,163,114978,1,0,0:0:0:0:
88,159,115728,5,0,0:0:0:0:
166,204,115978,2,0,P|206:224|244:218,2,70
218,151,116728,1,0,0:0:0:0:
305,126,116978,2,0,P|354:127|378:146,2,70
327,195,117728,5,0,0:0:0:0:
327,195,117853,1,0,0:0:0:0:
327,195,117978,2,0,P|296:263|286:268,1,70
232,199,118478,2,0,P|190:212|171:252,2,70
378,307,119478,1,0,0:0:0:0:
281,152,119978,2,0,P|228:138|190:138,2,70
364,188,120728,1,0,0:0:0:0:
448,152,120977,6,0,P|460:192|440:236,1,70
388,280,121477,2,0,L|348:304,2,35
300,252,121977,1,0,0:0:0:0:
216,288,122227,1,0,0:0:0:0:
216,288,122477,2,0,P|172:272|164:248,1,70
220,180,122977,1,0,0:0:0:0:
220,180,123727,2,0,P|260:172|296:148,1,70
360,104,124227,2,0,P|400:84|432:84,2,70
412,156,124977,1,0,0:0:0:0:
152,68,125727,5,0,0:0:0:0:
72,108,125977,2,0,P|108:152|140:168,1,70
196,204,126477,2,0,P|236:228|272:228,1,70
324,292,126977,2,0,P|372:272|396:204,1,105
396,180,127477,2,0,P|384:132|336:112,1,105
292,120,127977,2,0,P|256:136|224:168,2,70
312,208,128727,1,0,0:0:0:0:
224,224,128977,2,0,P|240:272|344:296,1,140
408,148,129977,2,0,P|392:104|348:80,2,70
232,96,130977,6,0,P|192:136|188:160,1,70
280,168,131477,2,0,P|284:212|272:248,1,70
188,256,131977,2,0,P|204:296|236:316,2,70
368,232,132976,5,0,0:0:0:0:
328,148,133226,2,0,P|284:104|256:100,1,70
192,132,133726,1,0,0:0:0:0:
172,220,133976,2,0,P|208:244|244:256,1,70
324,260,134476,1,0,0:0:0:0:
420,104,134976,5,0,0:0:0:0:
328,96,135226,2,0,L|280:80,2,35
384,168,135726,1,0,0:0:0:0:
460,188,135976,2,0,P|428:232|392:248,2,70
