osu file format v14

[General]
AudioFilename: GUMI.mp3
AudioLeadIn: 0
PreviewTime: 24736
Countdown: 1
SampleSet: Soft
StackLeniency: 0.7
Mode: 0
LetterboxInBreaks: 0
WidescreenStoryboard: 1

[Editor]
DistanceSpacing: 1.4
BeatDivisor: 4
GridSize: 4
TimelineZoom: 1

[Metadata]
Title:Yowamushi Monburan
TitleUnicode:弱虫モンブラン
Artist:GUMI
ArtistUnicode:GUMI
Creator:MagicNAT
Version:Insane
Source:
Tags:
BeatmapID:878633
BeatmapSetID:385915

[Difficulty]
HPDrainRate:7
CircleSize:5
OverallDifficulty:7
ApproachRate:9
SliderMultiplier:2
SliderTickRate:2

[Events]
//Background and Video events
//Break Periods
//Storyboard Layer 0 (Background)
//Storyboard Layer 1 (Fail)
//Storyboard Layer 2 (Pass)
//Storyboard Layer 3 (Foreground)
//Storyboard Sound Samples

[TimingPoints]
738,499.958336805266,4,1,0,75,1,0
40984,-100,4,2,0,75,0,0
46734,-100,4,1,0,75,0,0
48983,-100,4,1,0,75,0,1
56733,-100,4,1,0,75,0,0
56983,-100,4,1,0,75,0,1
64982,-100,4,1,0,75,0,0
105479,-100,4,2,0,75,0,0
110978,-100,4,1,0,75,0,0
152975,-100,4,2,0,75,0,0
171973,-100,4,1,0,75,0,1
187722,-100,4,1,0,75,0,0
187972,-100,4,1,0,75,0,1
195721,-100,4,1,0,75,0,0
195971,-100,4,1,0,75,0,1
203971,-100,4,1,0,75,0,0

[HitObjects]
112,84,738,5,0,0:0:0:0:
164,212,987,2,0,P|200:252|248:252,1,100
332,144,1487,1,0,0:0:0:0:
192,132,1737,1,0,0:0:0:0:
248,260,1987,1,0,0:0:0:0:
316,308,2112,1,0,0:0:0:0:
292,228,2237,1,0,0:0:0:0:
264,308,2362,1,0,0:0:0:0:
336,264,2487,1,0,0:0:0:0:
412,148,2737,5,0,0:0:0:0:
292,80,2987,2,0,P|224:76|216:88,1,50
188,104,3237,1,0,0:0:0:0:
76,188,3487,2,0,P|68:264|80:280,2,100
344,272,4487,1,0,0:0:0:0:
240,180,4737,5,0,0:0:0:0:
180,56,4987,2,0,P|236:84|280:76,1,100
400,132,5487,2,0,P|452:168|456:208,1,100
336,272,5987,1,0,0:0:0:0:
196,264,6237,1,0,0:0:0:0:
140,220,6362,1,0,0:0:0:0:
104,280,6487,1,0,0:0:0:0:
60,148,6737,5,0,0:0:0:0:
188,92,6987,2,0,P|256:88|316:104,1,100
156,148,7487,2,0,P|208:172|272:164,1,100
388,152,7987,1,0,0:0:0:0:
296,256,8237,1,0,0:0:0:0:
348,212,8362,1,0,0:0:0:0:
400,260,8487,1,0,0:0:0:0:
264,288,8737,5,0,0:0:0:0:
136,228,8987,1,0,0:0:0:0:
184,280,9112,1,0,0:0:0:0:
220,220,9237,1,0,0:0:0:0:
112,128,9487,2,0,P|168:108|200:128,1,100
316,204,9987,1,0,0:0:0:0:
368,160,10112,1,0,0:0:0:0:
420,208,10237,1,0,0:0:0:0:
464,152,10362,1,0,0:0:0:0:
416,104,10487,1,0,0:0:0:0:
280,68,10737,5,0,0:0:0:0:
164,148,10987,2,0,P|140:196|136:248,2,100
420,268,11987,1,0,0:0:0:0:
56,60,12737,5,0,0:0:0:0:
160,152,12986,1,0,0:0:0:0:
272,236,13236,2,0,L|240:288,2,50
344,116,13736,1,0,0:0:0:0:
204,92,13986,2,0,P|160:120|140:180,2,100
396,296,14986,5,0,0:0:0:0:
292,204,15236,2,0,L|256:168,1,50
204,124,15486,1,0,0:0:0:0:
236,260,15736,2,0,L|196:224,1,50
144,184,15986,1,0,0:0:0:0:
80,60,16236,2,0,P|156:72|176:96,1,100
376,276,16986,5,0,0:0:0:0:
296,160,17236,2,0,L|240:144,1,50
180,132,17486,1,0,0:0:0:0:
424,272,17986,1,0,0:0:0:0:
400,136,18236,1,0,0:0:0:0:
264,160,18486,1,0,0:0:0:0:
444,76,18986,1,0,0:0:0:0:
304,60,19236,2,0,L|232:72,2,50
384,176,19736,1,0,0:0:0:0:
244,176,19986,2,0,P|260:240|296:256,1,100
364,136,20486,2,0,P|328:92|252:80,1,100
148,72,20986,5,0,0:0:0:0:
172,212,21236,2,0,P|220:280|220:284,2,50
284,296,21736,2,0,P|344:292|372:256,2,100
280,156,22486,1,0,0:0:0:0:
76,304,22986,5,0,0:0:0:0:
212,272,23236,2,0,P|280:280|308:268,1,100
232,148,23736,1,0,0:0:0:0:
368,112,23986,2,0,P|416:84|448:40,1,100
384,176,24486,1,0,0:0:0:0:
460,276,24736,5,0,0:0:0:0:
324,248,24985,2,0,P|268:240|240:204,1,100
364,140,25485,2,0,P|324:104|256:92,2,100
112,260,26485,1,0,0:0:0:0:
144,124,26735,6,0,P|220:132|236:152,1,100
208,284,27235,1,0,0:0:0:0:
324,204,27485,1,0,0:0:0:0:
360,144,27610,1,0,0:0:0:0:
392,208,27735,1,0,0:0:0:0:
428,148,27860,1,0,0:0:0:0:
424,80,27985,2,0,P|372:48|320:52,1,100
336,192,28485,1,0,0:0:0:0:
216,260,28735,5,0,0:0:0:0:
124,156,28985,2,0,P|160:120|172:120,1,50
224,124,29235,1,0,0:0:0:0:
328,220,29485,2,0,P|360:264|416:280,1,100
404,140,29985,1,0,0:0:0:0:
272,96,30235,2,0,L|220:132,2,50
180,200,30735,5,0,0:0:0:0:
300,272,30985,2,0,P|344:216|340:196,1,50
284,196,31235,2,0,P|264:144|276:136,1,50
316,128,31485,2,0,P|368:104|408:128,1,100
380,260,31985,1,0,0:0:0:0:
108,196,32485,1,0,0:0:0:0:
368,96,32985,5,0,0:0:0:0:
300,216,33235,2,0,L|324:268,2,50
236,92,33735,1,0,0:0:0:0:
160,212,33985,2,0,L|196:260,2,50
96,88,34485,1,0,0:0:0:0:
376,116,34985,2,0,P|396:176|396:204,1,50
384,232,35235,2,0,P|360:280|344:288,1,50
300,308,35485,2,0,P|236:328|192:328,1,100
240,192,35985,1,0,0:0:0:0:
416,72,36984,5,0,0:0:0:0:
292,140,37234,2,0,P|256:184|256:192,2,50
428,168,37734,2,0,P|460:212|456:232,1,50
460,276,37984,2,0,P|424:332|392:340,1,100
324,220,38484,1,0,0:0:0:0:
76,92,38984,5,0,0:0:0:0:
164,200,39234,2,0,P|212:232|216:232,1,50
220,164,39484,1,0,0:0:0:0:
404,88,39984,2,0,P|448:120|460:168,2,100
