osu file format v14

[General]
AudioFilename: GUMI.mp3
AudioLeadIn: 0
PreviewTime: 24736
Countdown: 1
SampleSet: Normal
StackLeniency: 0.7
Mode: 0
LetterboxInBreaks: 0
WidescreenStoryboard: 1

[Editor]
DistanceSpacing: 1.4
BeatDivisor: 4
GridSize: 4
TimelineZoom: 1

[Metadata]
Title:Yowamushi Monburan
TitleUnicode:弱虫モンブラン
Artist:GUMI
ArtistUnicode:GUMI
Creator:MagicNAT
Version:Hard
Source:
Tags:
BeatmapID:874748
BeatmapSetID:385915

[Difficulty]
HPDrainRate:6
CircleSize:4
OverallDifficulty:7
ApproachRate:8.5
SliderMultiplier:2
SliderTickRate:2

[Events]
//Background and Video events
//Break Periods
2,65182,72057
2,145175,152300
2,168674,171298
//Storyboard Layer 0 (Background)
//Storyboard Layer 1 (Fail)
//Storyboard Layer 2 (Pass)
//Storyboard Layer 3 (Foreground)
//Storyboard Sound Samples

[TimingPoints]
738,499.958336805266,4,1,0,75,1,0
40984,-100,4,2,0,75,0,0
46734,-100,4,1,0,75,0,0
48983,-100,4,1,0,75,0,1
56733,-100,4,1,0,75,0,0
56983,-100,4,1,0,75,0,1
64982,-100,4,1,0,75,0,0
105479,-100,4,2,0,75,0,0
110978,-100,4,1,0,75,0,0
152975,-100,4,2,0,75,0,0
171973,-100,4,1,0,75,0,1
187722,-100,4,1,0,75,0,0
187972,-100,4,1,0,75,0,1
195721,-100,4,1,0,75,0,0
195971,-100,4,1,0,75,0,1
203971,-100,4,1,0,75,0,0

[HitObjects]
132,80,738,5,0,0:0:0:0:
72,208,987,2,0,P|128:232|164:220,1,100
304,204,1487,1,0,0:0:0:0:
372,84,1737,1,0,0:0:0:0:
232,68,1987,1,0,0:0:0:0:
96,288,2737,5,0,0:0:0:0:
72,148,2987,2,0,P|144:152|192:180,1,100
260,272,3487,1,0,0:0:0:0:
340,156,3737,1,0,0:0:0:0:
244,56,3987,1,0,0:0:0:0:
392,84,4737,5,0,0:0:0:0:
344,216,4987,1,0,0:0:0:0:
212,164,5237,2,0,L|160:188,2,50,0|0|0,0:0|0:0|0:0,0:0:0:0:
344,116,5737,1,0,0:0:0:0:
456,200,5987,1,0,0:0:0:0:
96,68,6737,5,0,0:0:0:0:
236,76,6987,2,0,L|288:72,1,50
288,144,7237,2,0,L|328:188,1,50
264,220,7487,2,0,P|208:236|152:224,1,100,0|0,0:0|0:0,0:0:0:0:
76,124,7987,1,0,0:0:0:0:
424,300,8737,5,0,0:0:0:0:
420,160,8987,2,0,L|384:200,1,50
332,152,9237,1,0,0:0:0:0:
224,240,9487,2,0,L|144:164,1,100,0|0,0:0|0:0,0:0:0:0:
60,64,9987,1,0,0:0:0:0:
204,64,10237,2,0,L|248:120,1,50
280,156,10487,1,0,0:0:0:0:
280,156,10737,5,0,0:0:0:0:
376,256,10987,2,0,L|332:216,1,50,0|0,0:0|0:0,0:0:0:0:
284,268,11237,2,0,L|228:220,1,50
192,188,11487,1,0,0:0:0:0:
184,116,11737,2,0,P|132:144|120:188,1,100,0|0,0:0|0:0,0:0:0:0:
76,76,12737,5,0,0:0:0:0:
216,76,12986,2,0,P|280:88|344:120,1,100
420,192,13486,1,0,0:0:0:0:
284,216,13736,1,0,0:0:0:0:
164,144,13986,2,0,L|88:120,1,50
96,196,14236,2,0,L|48:228,1,50
20,164,14486,1,0,0:0:0:0:
260,312,14986,5,0,0:0:0:0:
136,244,15236,2,0,L|88:204,2,50,0|0|0,0:0|0:0|0:0,0:0:0:0:
272,208,15736,1,0,0:0:0:0:
164,120,15986,1,0,0:0:0:0:
296,68,16236,2,0,L|340:32,2,50,0|0|0,0:0|0:0|0:0,0:0:0:0:
392,172,16736,1,0,0:0:0:0:
416,308,16986,2,0,P|356:304|288:276,1,100
204,212,17486,1,0,0:0:0:0:
196,72,17736,6,0,L|256:48,1,50
260,120,17986,2,0,L|312:148,1,50
324,76,18236,1,0,0:0:0:0:
408,188,18486,1,0,0:0:0:0:
132,232,18986,5,0,0:0:0:0:
64,232,19236,2,0,P|84:288|136:300,1,100
260,300,19736,1,0,0:0:0:0:
264,160,19986,2,0,P|212:136|168:136,1,100,0|0,0:0|0:0,0:0:0:0:
336,176,20486,2,0,P|388:152|432:152,1,100
384,284,20986,5,0,0:0:0:0:
264,212,21236,2,0,L|324:252,2,50
164,312,21736,1,0,0:0:0:0:
56,220,21986,2,0,P|80:172|120:152,1,100
260,152,22486,1,0,0:0:0:0:
432,52,22986,5,0,0:0:0:0:
296,92,23236,2,0,P|248:112|220:160,1,100
364,148,23736,1,0,0:0:0:0:
280,260,23986,2,0,L|236:292,1,50
204,228,24236,2,0,L|136:192,1,50
208,152,24486,1,0,0:0:0:0:
316,64,24736,1,0,0:0:0:0:
408,168,24985,6,0,P|408:220|372:252,1,100
236,256,25485,1,0,0:0:0:0:
112,192,25735,1,0,0:0:0:0:
220,104,25985,1,0,0:0:0:0:
360,100,26235,2,0,L|416:104,2,50
356,240,26735,5,0,0:0:0:0:
224,192,26985,2,0,P|168:172|112:172,1,100
260,124,27485,2,0,P|316:72|348:52,1,100
396,184,27985,1,0,0:0:0:0:
280,260,28235,1,0,0:0:0:0:
232,268,28360,1,0,0:0:0:0:
184,260,28485,1,0,0:0:0:0:
80,168,28735,5,0,0:0:0:0:
216,136,28985,2,0,L|268:120,1,50
312,176,29235,1,0,0:0:0:0:
180,224,29485,2,0,P|232:264|280:260,1,100
388,200,29985,2,0,L|332:168,1,50
388,120,30235,2,0,L|420:68,1,50
348,56,30485,1,0,0:0:0:0:
208,68,30735,5,0,0:0:0:0:
124,180,30985,2,0,P|160:216|212:224,1,100
348,212,31485,2,0,P|396:180|416:128,2,100
220,156,32235,2,0,L|176:128,2,50
96,280,32985,5,0,0:0:0:0:
228,236,33235,2,0,L|208:292,2,50
404,72,33985,1,0,0:0:0:0:
268,112,34235,2,0,L|308:40,2,50
392,284,34985,2,0,P|352:236|316:216,1,100
252,192,35360,1,0,0:0:0:0:
188,164,35485,2,0,P|152:124|132:64,1,100
276,76,35985,1,0,0:0:0:0:
400,80,36984,6,0,P|380:136|340:160,1,100
224,92,37484,2,0,L|184:136,1,50
240,180,37734,1,0,0:0:0:0:
128,268,37984,2,0,P|184:296|248:292,1,100
328,208,38484,2,0,L|384:144,1,50
308,124,38734,1,0,0:0:0:0:
172,92,38984,2,0,P|124:104|92:156,1,100
224,196,39484,2,0,P|280:192|316:156,2,100
312,84,40234,1,0,0:0:0:0:
380,208,40484,1,0,0:0:0:0:
112,284,40984,6,0,P|92:236|112:188,1,100
236,252,41484,1,0,0:0:0:0:
384,244,41984,2,0,P|420:196|432:148,2,100
344,88,42984,2,0,P|292:112|264:144,1,100
172,112,43734,5,0,0:0:0:0:
252,228,43984,2,0,P|304:244|360:240,2,100
88,40,44984,6,0,P|128:92|172:100,1,100
300,100,45484,1,0,0:0:0:0:
80,272,45984,2,0,P|140:280|184:264,2,100
184,176,46734,1,0,0:0:0:0:
320,152,46984,2,0,P|368:120|400:80,1,100
392,228,47484,2,0,P|448:248|476:292,1,100
332,304,47984,2,0,P|280:292|240:240,1,100
380,212,48484,2,0,P|384:148|344:108,1,100
228,88,48983,5,0,0:0:0:0:
172,216,49233,2,0,L|136:264,2,50
308,252,49733,1,0,0:0:0:0:
104,60,50233,2,0,L|152:100,1,50
100,148,50483,2,0,L|152:196,1,50
84,228,50733,1,0,0:0:0:0:
220,268,50983,2,0,P|284:284|356:268,1,100
392,164,51483,5,0,0:0:0:0:
252,164,51733,1,0,0:0:0:0:
120,116,51983,2,0,L|60:88,1,50
56,164,52233,2,0,L|8:216,1,50
84,236,52483,2,0,P|132:268|200:280,1,100
312,280,52983,1,0,0:0:0:0:
192,208,53233,2,0,L|160:160,2,50
304,124,53733,5,0,0:0:0:0:
428,192,53983,2,0,L|396:236,2,50
288,164,54483,2,0,P|244:208|208:200,1,100
156,72,54983,2,0,P|216:36|296:48,1,150
348,88,55483,2,0,P|400:128|404:212,1,150
356,256,55983,2,0,P|304:292|248:280,1,100
168,192,56483,2,0,L|124:144,2,50
308,192,56983,5,0,0:0:0:0:
200,104,57233,2,0,P|200:176|224:192,1,100
308,80,57733,1,0,0:0:0:0:
84,248,58233,2,0,P|144:300|200:300,1,100
220,176,58733,1,0,0:0:0:0:
360,184,58983,1,0,0:0:0:0:
400,320,59233,2,0,L|452:348,2,50
296,228,59733,5,0,0:0:0:0:
168,168,59983,2,0,L|112:188,1,50
156,248,60233,2,0,L|192:288,1,50
244,240,60483,2,0,P|280:228|308:196,2,50
240,100,60982,2,0,P|296:84|328:104,1,100
420,208,61482,1,0,0:0:0:0:
340,324,61732,5,0,0:0:0:0:
204,284,61982,2,0,L|144:244,1,50
256,228,62232,2,0,L|300:200,1,50
208,172,62482,2,0,P|172:132|128:128,2,100
408,80,63482,1,0,0:0:0:0:
128,92,63982,2,0,P|160:144|216:148,1,100
324,92,64482,2,0,P|396:108|420:144,1,100
316,228,64982,1,0,0:0:0:0:
136,84,72732,5,0,0:0:0:0:
132,224,72981,2,0,P|208:268|240:256,1,100
348,220,73481,2,0,P|392:192|424:136,2,100
336,304,74731,5,0,0:0:0:0:
200,276,74981,2,0,P|128:216|120:116,2,200
408,64,76731,5,0,0:0:0:0:
272,100,76981,1,0,0:0:0:0:
136,68,77231,2,0,L|88:100,1,50
104,164,77481,2,0,P|136:208|208:204,2,100
392,304,78731,5,0,0:0:0:0:
292,204,78981,2,0,L|256:248,2,50
360,80,79481,2,0,P|284:40|244:40,2,100
92,160,80481,1,0,0:0:0:0:
76,300,80731,5,0,0:0:0:0:
76,300,80981,2,0,P|136:336|168:320,1,100
260,228,81481,2,0,P|312:216|360:220,1,100
248,308,81981,2,0,L|192:268,1,50
264,224,82231,2,0,L|304:184,1,50
228,156,82481,1,0,0:0:0:0:
116,72,82731,5,0,0:0:0:0:
80,208,82981,2,0,P|120:240|192:236,1,100
276,156,83481,2,0,P|336:136|376:148,1,100
320,272,83981,1,0,0:0:0:0:
280,300,84106,1,0,0:0:0:0:
232,312,84231,1,0,0:0:0:0:
184,292,84356,1,0,0:0:0:0:
144,264,84481,1,0,0:0:0:0:
96,132,84731,5,0,0:0:0:0:
224,184,84980,2,0,P|280:208|316:200,1,100
312,60,85480,2,0,P|376:64|420:84,2,100
420,320,86480,1,0,0:0:0:0:
144,264,86980,2,0,P|72:204|72:180,1,100
212,208,87480,2,0,P|272:192|288:144,1,100
148,160,87980,2,0,P|92:152|68:92,1,100
204,84,88480,1,0,0:0:0:0:
340,120,88730,5,0,0:0:0:0:
452,204,88980,2,0,P|408:240|352:236,1,100
248,164,89480,2,0,P|192:180|160:216,1,100
252,320,89980,2,0,L|316:288,1,50
368,300,90230,2,0,L|396:252,1,50
460,232,90480,1,0,0:0:0:0:
388,112,90730,5,0,0:0:0:0:
248,96,90980,2,0,P|196:120|168:160,2,100
224,236,91730,1,0,0:0:0:0:
344,160,91980,2,0,L|288:188,2,50
412,136,92355,2,0,L|460:112,1,50
440,252,92730,5,0,0:0:0:0:
304,220,92980,2,0,P|248:192|216:208,1,100
332,288,93480,2,0,P|292:328|240:316,1,100
140,236,93980,2,0,L|76:188,1,50
152,160,94230,2,0,L|196:116,1,50
128,84,94480,1,0,0:0:0:0:
268,72,94730,5,0,0:0:0:0:
392,132,94980,2,0,P|364:184|312:192,1,100
256,196,95355,1,0,0:0:0:0:
184,196,95480,2,0,P|136:208|104:256,2,100
440,312,96480,1,0,0:0:0:0:
428,68,96979,5,0,0:0:0:0:
428,68,97104,1,0,0:0:0:0:
428,68,97229,2,0,P|376:104|340:96,1,100
204,72,97729,1,0,0:0:0:0:
204,72,97854,1,0,0:0:0:0:
204,72,97979,2,0,P|212:132|248:152,1,100
368,212,98479,1,0,0:0:0:0:
96,144,98979,2,0,P|172:188|188:184,1,100
300,116,99479,2,0,P|368:132|392:176,1,100
280,248,99979,1,0,0:0:0:0:
108,288,100979,5,0,0:0:0:0:
248,272,101229,2,0,L|292:324,2,50
440,68,101979,1,0,0:0:0:0:
320,140,102229,1,0,0:0:0:0:
280,168,102354,1,0,0:0:0:0:
228,168,102479,1,0,0:0:0:0:
392,288,102979,2,0,P|340:240|296:224,1,100
172,236,103479,1,0,0:0:0:0:
112,108,103729,2,0,P|168:132|204:160,1,100
340,164,104229,2,0,L|388:180,2,50
240,64,104729,1,0,0:0:0:0:
116,256,105479,6,0,P|172:280|300:244,2,200
324,68,106979,1,0,0:0:0:0:
396,276,107729,1,0,0:0:0:0:
396,276,107979,2,0,P|328:260|296:272,2,100
164,120,108978,5,0,0:0:0:0:
432,204,109478,1,0,0:0:0:0:
160,272,109978,1,0,0:0:0:0:
156,132,110228,1,0,0:0:0:0:
276,204,110478,1,0,0:0:0:0:
408,288,110978,6,0,P|360:256|304:248,1,100
196,316,111478,2,0,P|112:280|104:240,1,100
36,160,111978,2,0,P|96:124|128:128,1,100
244,196,112478,2,0,P|308:224|356:208,1,100
404,96,112978,5,0,0:0:0:0:
272,140,113228,2,0,L|224:128,2,50
388,216,113728,1,0,0:0:0:0:
108,224,114228,2,0,P|72:184|88:128,2,100
244,192,114978,2,0,P|292:252|368:248,1,150
416,212,115478,2,0,P|436:152|388:88,1,150
316,80,115978,6,0,P|236:88|216:104,2,100
208,168,116728,1,0,0:0:0:0:
348,168,116978,2,0,P|400:200|420:240,1,100
280,260,117478,1,0,0:0:0:0:
140,268,117728,1,0,0:0:0:0:
68,148,117978,2,0,P|132:116|204:132,1,100
276,196,118478,2,0,P|336:228|396:216,1,100
436,104,118978,2,0,P|376:100|296:144,1,150
264,204,119478,2,0,P|224:256|132:272,1,150
80,244,119978,1,0,0:0:0:0:
188,152,120228,1,0,0:0:0:0:
300,236,120478,1,0,0:0:0:0:
416,156,120728,1,0,0:0:0:0:
380,292,120977,5,0,0:0:0:0:
240,292,121227,2,0,P|180:280|152:236,2,100
420,76,122227,2,0,P|340:68|312:84,1,100
228,176,122727,1,0,0:0:0:0:
356,232,122977,1,0,0:0:0:0:
88,76,123727,5,0,0:0:0:0:
132,208,123977,2,0,P|176:240|232:232,1,100
268,104,124477,2,0,P|332:88|380:104,2,100
404,300,125727,5,0,0:0:0:0:
264,284,125977,2,0,P|208:272|180:240,1,100
320,212,126477,2,0,P|284:168|216:160,1,100
104,152,126977,1,0,0:0:0:0:
376,80,127478,1,0,0:0:0:0:
176,276,127977,1,0,0:0:0:0:
112,152,128227,2,0,L|164:112,1,50
212,84,128477,1,0,0:0:0:0:
328,164,128727,1,0,0:0:0:0:
440,248,128977,6,0,P|376:308|256:308,1,200
56,132,129976,2,0,P|72:76|204:24,1,200
316,88,130727,2,0,P|292:156|172:224,1,200
56,172,131477,1,0,0:0:0:0:
196,160,131727,2,0,P|252:168|328:200,1,100
400,272,132227,2,0,P|352:308|216:320,1,200
104,236,132976,1,0,0:0:0:0:
216,152,133226,2,0,P|292:136|352:136,1,100
448,180,133726,2,0,P|384:248|240:280,1,200
160,216,134476,1,0,0:0:0:0:
400,72,134976,5,0,0:0:0:0:
296,168,135226,2,0,P|244:192|232:192,2,50
176,96,135726,1,0,0:0:0:0:
64,176,135976,2,0,P|112:216|160:224,2,100
336,104,136976,1,0,0:0:0:0:
452,184,137226,2,0,P|392:220|352:212,2,100
312,200,137976,2,0,P|256:176|228:128,1,100
364,96,138476,2,0,P|312:68|164:104,1,200
396,288,139476,1,0,0:0:0:0:
256,292,139726,2,0,P|200:292|156:272,2,100
140,212,140476,1,0,0:0:0:0:
128,52,140976,6,0,P|188:52|336:112,1,200
344,236,141726,2,0,P|304:296|240:300,2,100
204,212,142476,2,0,P|144:184|96:64,1,200
368,132,143476,1,0,0:0:0:0:
132,284,143976,2,0,P|80:236|80:200,1,100
172,104,144476,2,0,P|224:124|244:172,1,100
240,300,144975,1,0,0:0:0:0:
120,68,152975,5,0,0:0:0:0:
184,192,153225,2,0,P|224:224|232:224,2,50
300,116,153725,1,0,0:0:0:0:
440,112,153975,2,0,P|440:180|412:208,2,100
244,316,154975,5,0,0:0:0:0:
120,64,155475,1,0,0:0:0:0:
356,216,155975,2,0,L|392:168,1,50
324,144,156225,2,0,L|280:108,1,50
336,64,156475,1,0,0:0:0:0:
144,264,156974,5,0,0:0:0:0:
384,116,157474,1,0,0:0:0:0:
104,144,157974,2,0,P|128:96|180:88,2,100
340,292,158974,5,0,0:0:0:0:
232,200,159224,2,0,L|196:248,2,50
372,184,159724,1,0,0:0:0:0:
268,92,159974,2,0,P|192:92|168:120,2,100
388,344,160974,5,0,0:0:0:0:
248,324,161224,1,0,0:0:0:0:
368,252,161474,1,0,0:0:0:0:
232,228,161724,1,0,0:0:0:0:
108,160,161974,2,0,P|96:100|140:68,2,100
372,68,162974,5,0,0:0:0:0:
232,64,163224,1,0,0:0:0:0:
340,152,163474,1,0,0:0:0:0:
200,148,163724,1,0,0:0:0:0:
180,288,163974,1,0,0:0:0:0:
316,252,164224,2,0,L|356:292,2,50
88,88,164974,5,0,0:0:0:0:
176,196,165224,2,0,L|132:232,2,50
312,160,165724,1,0,0:0:0:0:
424,244,165974,1,0,0:0:0:0:
292,288,166224,1,0,0:0:0:0:
244,304,166349,1,0,0:0:0:0:
200,304,166474,1,0,0:0:0:0:
84,48,166974,6,0,P|108:104|148:120,1,100
280,88,167474,2,0,P|328:128|344:168,1,100
208,196,167974,1,0,0:0:0:0:
444,344,168474,1,0,0:0:0:0:
364,288,171973,5,0,0:0:0:0:
244,220,172223,2,0,P|208:264|212:316,2,100
432,72,173223,1,0,0:0:0:0:
296,100,173473,2,0,P|256:136|256:188,1,100
272,248,173848,2,0,P|300:292|340:292,1,50
436,48,174473,1,0,0:0:0:0:
392,180,174723,5,0,0:0:0:0:
276,104,174973,2,0,P|216:104|180:132,1,100
72,208,175473,2,0,P|112:260|144:256,2,100
440,312,176723,6,0,L|396:284,1,50
336,252,176973,2,0,P|280:240|232:256,1,100
100,244,177473,2,0,P|104:296|140:332,2,100
296,44,178473,1,0,0:0:0:0:
396,304,178973,2,0,L|448:272,1,50
376,232,179223,2,0,L|340:188,1,50
408,152,179473,2,0,P|360:112|320:116,1,100
200,180,179973,5,0,0:0:0:0:
76,112,180223,2,0,P|80:168|120:204,1,100
184,80,180723,1,0,0:0:0:0:
312,132,180972,2,0,P|288:188|252:208,1,100
132,272,181472,1,0,0:0:0:0:
144,132,181722,1,0,0:0:0:0:
272,80,181972,2,0,P|372:112|396:152,1,150
408,216,182472,2,0,P|424:264|372:328,1,100
268,280,182972,1,0,0:0:0:0:
132,312,183222,1,0,0:0:0:0:
20,228,183472,1,0,0:0:0:0:
92,108,183722,1,0,0:0:0:0:
224,64,183972,5,0,0:0:0:0:
128,164,184222,2,0,L|88:204,2,50
256,220,184722,1,0,0:0:0:0:
348,116,184972,2,0,P|400:132|432:176,1,100
324,260,185472,1,0,0:0:0:0:
184,256,185722,1,0,0:0:0:0:
88,156,185972,2,0,P|140:96|204:104,1,150
252,156,186472,2,0,P|300:192|384:172,1,150
440,128,186972,2,0,P|472:88|440:32,2,100
320,56,187722,1,0,0:0:0:0:
180,52,187972,5,0,0:0:0:0:
140,188,188222,2,0,L|96:236,2,50
240,284,188722,1,0,0:0:0:0:
420,68,189222,1,0,0:0:0:0:
360,196,189472,2,0,P|352:256|320:288,1,100
224,188,189972,1,0,0:0:0:0:
400,64,190722,5,0,0:0:0:0:
268,108,190972,2,0,P|288:172|324:188,1,100
424,100,191472,2,0,P|472:136|480:192,2,100
144,92,192472,5,0,0:0:0:0:
88,220,192722,2,0,L|132:256,2,50
212,156,193221,1,0,0:0:0:0:
352,160,193471,2,0,P|400:208|396:260,1,100
292,320,193971,2,0,P|220:336|128:296,1,150
92,272,194471,2,0,P|56:228|64:140,1,150
128,112,194971,2,0,P|188:100|232:112,1,100
112,192,195471,2,0,P|172:212|224:216,1,100
328,144,195971,5,0,0:0:0:0:
212,224,196221,1,0,0:0:0:0:
344,272,196471,2,0,P|380:228|368:184,1,100
248,120,196971,1,0,0:0:0:0:
152,224,197221,1,0,0:0:0:0:
264,308,197471,2,0,P|304:268|304:224,1,100
252,96,197971,2,0,P|180:116|120:212,1,150
108,240,198471,1,0,0:0:0:0:
244,268,198721,5,0,0:0:0:0:
344,168,198971,2,0,P|376:116|368:80,2,100
444,268,199721,1,0,0:0:0:0:
340,172,199971,2,0,L|292:140,1,50
268,208,200221,2,0,L|216:248,1,50
180,188,200471,1,0,0:0:0:0:
212,52,200721,5,0,0:0:0:0:
348,84,200971,2,0,P|320:132|280:152,1,100
144,176,201471,2,0,P|84:208|64:248,1,100
176,324,201971,2,0,P|236:344|328:308,1,150
368,272,202471,2,0,P|392:216|360:136,1,150
300,100,202971,2,0,P|248:80|204:88,2,100
220,216,203721,1,0,0:0:0:0:
348,160,203971,6,0,P|304:128|160:164,1,200
116,284,204721,2,0,P|180:304|212:296,2,100
236,216,205470,1,0,0:0:0:0:
48,80,205969,6,0,P|136:28|240:36,1,200
396,260,206970,2,0,P|320:268|292:256,2,100
148,128,207970,1,0,0:0:0:0:
220,248,208220,2,0,L|184:288,2,50
344,184,208720,1,0,0:0:0:0:
236,96,208970,2,0,P|172:88|144:112,2,100
88,284,209970,6,0,P|152:248|168:212,1,100
60,132,210470,2,0,P|120:104|172:112,1,100
224,228,210970,1,0,0:0:0:0:
436,44,211470,1,0,0:0:0:0:
