osu file format v14

[General]
AudioFilename: audio.mp3
AudioLeadIn: 0
PreviewTime: 1249
Countdown: 1
SampleSet: Soft
StackLeniency: 0.7
Mode: 2
LetterboxInBreaks: 0
WidescreenStoryboard: 1

[Editor]
Bookmarks: 22666,65166,86832,107832,118499,129332,139999,145332,150666,171999,192249
DistanceSpacing: 1.4
BeatDivisor: 4
GridSize: 16
TimelineZoom: 2.200001

[Metadata]
Title:Setsugekka
TitleUnicode:雪月花
Artist:GUMI
ArtistUnicode:GUMI
Creator:Eta UMa
Version:Rain
Source:节奏大师
Tags:
BeatmapID:4507783
BeatmapSetID:2141691

[Difficulty]
HPDrainRate:4
CircleSize:4.5
OverallDifficulty:9
ApproachRate:9
SliderMultiplier:2.3
SliderTickRate:2

[Events]
//Background and Video events
0,0,"Setsugekka.jpg",0,0
//Break Periods
2,129365,139399
//Storyboard Layer 0 (Background)
//Storyboard Layer 1 (Fail)
//Storyboard Layer 2 (Pass)
//Storyboard Layer 3 (Foreground)
//Storyboard Layer 4 (Overlay)
//Storyboard Sound Samples

[TimingPoints]
1333,333.333333333333,4,2,0,60,1,0
1333,-100,4,2,0,60,0,0
127166,-50,4,2,0,60,0,0
127666,-100,4,2,0,60,0,0
127999,-40,4,2,0,60,0,0
129332,-100,4,2,0,60,0,0
148832,-66.6666666666667,4,2,0,60,0,0
149166,-100,4,2,0,60,0,0

[HitObjects]
304,288,1333,6,0,L|416:272|416:272|304:240|304:240,1,230,0|0,1:0|1:0,1:0:0:0:
432,128,1833,5,0,2:0:0:0:
432,224,1999,1,0,2:0:0:0:
352,320,2166,6,0,L|481:320,1,115,0|0,1:0|1:0,1:0:0:0:
352,256,2499,1,0,1:0:0:0:
128,32,2666,2,0,B|16:64|16:64|128:96,1,230,0|0,1:0|1:0,1:0:0:0:
48,272,3166,2,0,L|48:144,1,115
192,224,3499,6,0,L|309:224,2,115,0|0|0,1:0|1:0|1:0,1:0:0:0:
448,16,3999,2,0,L|480:128|480:128|360:128,1,230,0|0,1:0|1:0,1:0:0:0:
240,144,4499,2,0,L|240:288,1,115,0|0,1:0|1:0,1:0:0:0:
320,320,4833,6,0,L|197:320,2,115,0|0|0,1:0|1:0|1:0,1:0:0:0:
48,144,5333,6,0,L|59:25|59:25|108:124|108:124|338:123|338:123|401:25|401:25|452:126|452:126|453:250,1,805,0|0,1:0|1:0,1:0:0:0:
184,32,6666,6,0,L|72:56|72:56|184:88,1,230,0|0,1:0|1:0,1:0:0:0:
320,192,7166,2,0,L|320:63,1,115,0|0,1:0|1:0,1:0:0:0:
392,344,7499,2,0,L|272:344,2,115,0|0|0,1:0|1:0|1:0,1:0:0:0:
144,72,7999,6,0,L|32:56|32:56|144:24,1,230,0|0,1:0|1:0,1:0:0:0:
216,352,8499,2,0,L|216:233,1,115,0|0,1:0|1:0,1:0:0:0:
80,192,8833,2,0,L|194:191,2,115,0|0|0,1:0|1:0|1:0,1:0:0:0:
304,32,9333,6,0,L|416:48|416:48|304:80,1,230,0|0,1:0|1:0,1:0:0:0:
440,168,9833,2,0,L|312:168,1,115,0|0,1:0|1:0,1:0:0:0:
184,224,10166,2,0,L|300:224,2,115,0|0|0,1:0|1:0|1:0,1:0:0:0:
432,48,10666,2,0,L|432:160|432:160|257:4|257:4|64:144|64:144|304:144|304:144,1,805,0|0,1:0|1:0,1:0:0:0:
56,24,11999,6,0,L|8:128|8:128|128:128,1,230,0|0,1:0|1:0,1:0:0:0:
264,240,12499,2,0,L|264:111,1,115,0|0,1:0|1:0,1:0:0:0:
120,160,12833,2,0,L|237:160,2,115,0|0|0,1:0|1:0|1:0,1:0:0:0:
352,24,13333,6,0,L|464:56|464:56|352:88,1,230,0|0,1:0|1:0,1:0:0:0:
208,144,13833,2,0,L|336:144,1,115,0|0,1:0|1:0,1:0:0:0:
176,224,14166,2,0,L|60:224,2,115,0|0|0,1:0|1:0|1:0,1:0:0:0:
400,80,14666,6,0,L|511:48|511:48|399:16,1,230,0|0,1:0|1:0,1:0:0:0:
264,160,15166,2,0,L|380:160,1,115,0|0,1:0|1:0,1:0:0:0:
240,216,15499,2,0,L|119:216,2,115,0|0|0,1:0|1:0|1:0,1:0:0:0:
16,128,15999,2,0,L|43:13|43:13|237:133|237:133|313:49|313:49|308:167|308:167|242:260|242:260|132:185,1,805,0|0,1:0|1:0,1:0:0:0:
376,40,17333,6,0,L|483:79|483:79|246:109|246:109|469:156|469:156|230:158,1,805,0|0,1:0|1:0,1:0:0:0:
24,144,18666,2,0,L|24:32|24:32|96:128,1,230,0|0,1:0|1:0,1:0:0:0:
232,176,19166,2,0,L|110:176,1,115,0|0,1:0|1:0,1:0:0:0:
344,40,19500,2,0,L|408:136,1,115,0|0,1:0|1:0,1:0:0:0:
320,320,19833,1,0,1:0:0:0:
48,64,19999,6,0,B|152:16|152:16|152:128|152:128|56:200|56:200|156:253|156:253|40:252|40:252|160:232|160:232|48:232|48:232|160:200|160:200|48:184|48:184|160:184|160:184|48:168|48:168|160:168|160:168|48:152|48:152|160:144|160:144|40:104,1,1725,0|0,1:0|1:0,1:0:0:0:
176,192,22666,6,0,L|288:160|288:160|176:128,1,230,0|0,1:0|1:0,1:0:0:0:
400,32,23166,2,0,L|496:128,1,115,0|0,1:0|1:0,1:0:0:0:
384,304,23499,2,0,L|272:208,1,115,0|0,1:0|1:0,1:0:0:0:
32,32,23833,5,0,1:0:0:0:
160,192,23999,2,0,L|48:224|48:224|160:256,1,230,0|0,1:0|1:0,1:0:0:0:
416,32,24499,1,0,1:0:0:0:
272,144,24666,2,0,L|272:272,1,115,0|0,1:0|1:0,1:0:0:0:
416,192,24999,1,0,1:0:0:0:
192,32,25166,1,0,1:0:0:0:
320,160,25333,6,0,L|432:192|432:192|320:224,1,230,0|0,1:0|1:0,1:0:0:0:
48,32,25833,2,0,L|48:160,1,115,0|0,1:0|1:0,1:0:0:0:
128,352,26166,2,0,L|256:352,1,115,0|0,1:0|1:0,1:0:0:0:
16,32,26499,1,0,1:0:0:0:
144,160,26666,6,0,L|32:192|32:192|144:224,1,230,0|0,1:0|1:0,1:0:0:0:
284,269,27166,2,0,L|284:155,1,115,0|0,1:0|1:0,1:0:0:0:
366,239,27500,2,0,L|366:123,1,115,0|0,1:0|1:0,1:0:0:0:
208,192,27833,1,0,1:0:0:0:
432,16,27999,6,0,L|496:112|496:112|368:112,1,230,0|0,1:0|1:0,1:0:0:0:
160,16,28499,6,0,L|160:144,1,115,0|0,1:0|1:0,1:0:0:0:
80,336,28833,2,0,L|208:336,1,115,0|0,1:0|1:0,1:0:0:0:
64,192,29166,1,0,1:0:0:0:
288,112,29333,6,0,L|219:14|219:14|255:122,1,230,0|0,1:0|1:0,1:0:0:0:
480,112,29833,2,0,L|352:112,1,115,0|0,1:0|1:0,1:0:0:0:
496,352,30166,2,0,L|493:238,1,115,0|0,1:0|1:0,1:0:0:0:
240,16,30499,5,0,1:0:0:0:
384,160,30666,2,0,L|496:192|496:192|384:224,1,230,0|0,1:0|1:0,1:0:0:0:
160,32,31166,6,0,L|288:32,1,115,0|0,1:0|1:0,1:0:0:0:
144,192,31500,2,0,L|0:192,1,115,0|0,1:0|1:0,1:0:0:0:
272,32,31833,5,0,1:0:0:0:
144,224,31999,2,0,L|32:192|32:192|144:160,1,230,0|0,1:0|1:0,1:0:0:0:
384,16,32499,6,0,L|344:129|344:129|304:16,1,230,0|0,1:0|1:0,1:0:0:0:
432,240,33000,1,0,1:0:0:0:
208,16,33166,1,0,1:0:0:0:
432,16,33333,6,0,L|496:112|496:112|368:112,1,230,0|0,1:0|1:0,1:0:0:0:
128,32,33833,2,0,L|272:32,1,115,0|0,1:0|1:0,1:0:0:0:
96,240,34166,2,0,L|97:105,1,115,0|0,1:0|1:0,1:0:0:0:
320,32,34499,5,0,1:0:0:0:
176,272,34666,2,0,L|144:160|144:160|256:128,1,230,0|0,1:0|1:0,1:0:0:0:
480,16,35166,1,0,1:0:0:0:
400,336,35333,2,0,L|336:224,1,115,0|0,1:0|1:0,1:0:0:0:
480,192,35666,1,0,1:0:0:0:
256,16,35833,1,0,1:0:0:0:
384,160,35999,6,0,L|496:192|496:192|384:224,1,230,0|0,1:0|1:0,1:0:0:0:
160,32,36499,2,0,L|288:32,1,115,0|0,1:0|1:0,1:0:0:0:
416,208,36833,2,0,L|288:208,1,115,0|0,1:0|1:0,1:0:0:0:
64,32,37166,1,0,1:0:0:0:
128,352,37333,6,0,L|16:320|16:320|128:288,1,230,0|0,1:0|1:0,1:0:0:0:
352,32,37833,2,0,L|224:32,1,115,0|0,1:0|1:0,1:0:0:0:
352,224,38166,2,0,L|480:224,1,115,0|0,1:0|1:0,1:0:0:0:
192,32,38499,1,0,1:0:0:0:
416,16,38666,6,0,L|480:112|480:112|416:16,1,230,0|0,1:0|1:0,1:0:0:0:
192,16,39166,6,0,L|320:16,1,115,0|0,1:0|1:0,1:0:0:0:
176,144,39499,2,0,L|48:144,1,115,0|0,1:0|1:0,1:0:0:0:
288,16,39833,1,0,1:0:0:0:
64,16,39999,6,0,L|16:128|64:240,1,230,0|0,1:0|1:0,1:0:0:0:
288,32,40499,2,0,L|144:32,1,115,0|0,1:0|1:0,1:0:0:0:
304,256,40833,2,0,L|432:256,1,115,0|0,1:0|1:0,1:0:0:0:
192,32,41166,5,0,1:0:0:0:
416,32,41333,2,0,L|480:128|480:128|352:128,1,230,0|0,1:0|1:0,1:0:0:0:
224,176,41833,2,0,L|352:176,1,115,0|0,1:0|1:0,1:0:0:0:
416,224,42166,2,0,L|296:224,1,115,0|0,1:0|1:0,1:0:0:0:
432,192,42500,5,0,1:0:0:0:
208,16,42666,2,0,L|208:128|208:128|336:128,1,230,0|0,1:0|1:0,1:0:0:0:
80,16,43166,6,0,L|80:144,1,115,0|0,1:0|1:0,1:0:0:0:
208,192,43499,1,0,1:0:0:0:
80,192,43666,1,0,1:0:0:0:
320,0,43833,6,0,L|319:128,1,115,0|0,1:0|1:0,1:0:0:0:
192,208,44166,2,0,L|96:144|96:144|192:64,1,230,0|0,1:0|1:0,1:0:0:0:
48,208,44666,2,0,L|144:144|144:144|32:48,1,230,0|0,1:0|1:0,1:0:0:0:
192,192,45166,1,0,1:0:0:0:
432,112,45333,6,0,L|501:16|501:16|502:126|502:126|424:215|424:215|423:101|423:101|487:198|487:198|483:68,1,690,0|0,1:0|1:0,1:0:0:0:
256,192,46499,2,0,L|320:96,1,115,0|0,1:0|1:0,1:0:0:0:
288,336,46749,1,0,1:0:0:0:
144,16,46833,6,0,L|32:16|32:16|32:144,1,230,0|0,1:0|1:0,1:0:0:0:
176,128,47332,2,0,L|96:208|96:208|208:256,1,230,0|0,1:0|1:0,1:0:0:0:
64,192,47833,5,0,1:0:0:0:
288,16,47999,2,0,L|416:16,1,115,0|0,1:0|1:0,1:0:0:0:
256,176,48333,1,0,1:0:0:0:
480,48,48499,2,0,L|352:48,1,115,0|0,1:0|1:0,1:0:0:0:
128,32,48833,6,0,L|272:32,1,115,0|0,1:0|1:0,1:0:0:0:
464,32,49166,6,0,L|464:160,1,115,0|0,1:0|1:0,1:0:0:0:
432,320,49416,1,0,1:0:0:0:
272,16,49499,2,0,L|272:144|272:144|400:144,1,230,0|0,1:0|1:0,1:0:0:0:
144,32,49999,2,0,L|256:32|256:32|256:160,1,230,0|0,1:0|1:0,1:0:0:0:
128,208,50499,1,0,1:0:0:0:
352,32,50666,6,0,L|224:32,1,115,0|0,1:0|1:0,1:0:0:0:
96,176,51000,1,0,1:0:0:0:
336,192,51166,2,0,L|304:80,1,115,0|0,1:0|1:0,1:0:0:0:
432,224,51500,2,0,L|464:160,1,57.5,0|0,1:0|1:0,1:0:0:0:
457,172,51666,2,0,L|393:172,1,57.5,0|0,1:0|1:0,1:0:0:0:
256,16,51833,2,0,L|224:80,1,57.5,0|0,1:0|1:0,1:0:0:0:
230,67,51999,2,0,L|294:67,1,57.5,0|0,1:0|1:0,1:0:0:0:
432,144,52166,6,0,L|432:32|432:32|304:32,1,230,0|0,1:0|1:0,1:0:0:0:
176,176,52666,1,0,1:0:0:0:
304,176,52833,6,0,L|416:176|416:176|416:320,1,230,0|0,1:0|1:0,1:0:0:0:
192,128,53333,2,0,L|256:16|256:16|384:16,1,230,0|0,1:0|1:0,1:0:0:0:
128,32,53833,2,0,L|64:144|64:144|16:144,1,172.5,0|0,1:0|1:0,1:0:0:0:
80,336,54166,2,0,L|32:208|32:208|80:208,1,172.5,0|0,1:0|1:0,1:0:0:0:
224,224,54499,2,0,L|160:128,1,115,0|0,1:0|1:0,1:0:0:0:
384,80,54833,6,0,L|496:48|496:48|384:16,1,230,0|0,1:0|1:0,1:0:0:0:
160,32,55333,2,0,L|192:144|192:144|208:32|208:32|336:32,1,345,0|0,1:0|1:0,1:0:0:0:
96,32,55999,2,0,L|64:144|32:32,1,230,0|0,1:0|1:0,1:0:0:0:
256,48,56499,2,0,L|144:48|144:48|144:176,1,230,0|0,1:0|1:0,1:0:0:0:
272,192,56999,1,0,1:0:0:0:
32,192,57166,6,0,L|80:80,1,115,0|0,1:0|1:0,1:0:0:0:
112,192,57416,1,0,1:0:0:0:
256,16,57499,2,0,L|192:112|192:112|112:0,1,230,0|0,1:0|1:0,1:0:0:0:
352,32,57999,2,0,B|384:144|384:144|320:240|320:240|448:240,1,345,0|0,1:0|1:0,1:0:0:0:
208,32,58666,6,0,L|320:32|320:32|320:160,1,230,0|0,1:0|1:0,1:0:0:0:
96,64,59166,2,0,L|212:64,1,115,0|0,1:0|1:0,1:0:0:0:
64,256,59500,2,0,L|64:128,1,115,0|0,1:0|1:0,1:0:0:0:
288,64,59833,6,0,L|160:64,1,115,0|0,1:0|1:0,1:0:0:0:
464,32,60166,2,0,L|432:144|432:144|400:32,1,230,0|0,1:0|1:0,1:0:0:0:
256,192,60666,2,0,L|256:64|256:64|320:192|320:192|400:192,1,345,0|0,1:0|1:0,1:0:0:0:
256,256,61333,2,0,P|320:224|256:192,1,172.5,0|0,1:0|1:0,1:0:0:0:
160,224,61666,2,0,P|80:144|160:112,1,230,0|0,1:0|1:0,1:0:0:0:
304,192,62166,6,0,L|240:64,1,115,0|0,1:0|1:0,1:0:0:0:
112,192,62499,2,0,L|48:64,1,115,0|0,1:0|1:0,1:0:0:0:
352,32,62833,5,0,1:0:0:0:
352,336,62999,1,0,1:0:0:0:
96,32,63166,1,0,1:0:0:0:
384,48,63332,2,0,L|384:176,1,115
160,192,63666,5,0,1:0:0:0:
416,32,63833,1,0,1:0:0:0:
160,128,63999,6,0,L|160:16|160:16|160:128|160:128|272:192|272:192|128:192|128:192,1,460,0|0,1:0|1:0,1:0:0:0:
32,224,64833,1,0,1:0:0:0:
160,224,64999,1,0,1:0:0:0:
32,176,65166,5,0,1:0:0:0:
256,32,65333,2,0,L|256:144|256:144|361:70,1,230,0|0,1:0|1:0,1:0:0:0:
208,224,65832,1,0,0:0:0:0:
336,224,65999,1,0,0:0:0:0:
208,160,66166,1,0,0:0:0:0:
208,256,66332,1,0,0:0:0:0:
432,32,66499,5,0,0:0:0:0:
304,32,66666,2,0,L|176:32,1,115
320,192,66999,1,0,0:0:0:0:
176,144,67166,2,0,L|336:144,1,115
144,224,67499,2,0,L|288:224,1,115
32,32,67832,5,0,0:0:0:0:
256,32,67999,2,0,B|368:64|368:64|256:96,1,230
480,32,68499,5,0,0:0:0:0:
336,176,68666,2,0,L|192:176,1,115
96,240,68999,2,0,L|240:240,1,115
64,32,69332,6,0,B|32:224|224:160|224:160,1,230
48,224,69832,2,0,L|48:96,1,115
192,112,70166,2,0,L|96:208,1,115
336,32,70499,5,0,0:0:0:0:
480,160,70666,2,0,P|400:208|480:272,1,230
256,64,71166,6,0,L|256:192,1,115
128,208,71499,2,0,L|16:128,1,115
272,32,71832,5,0,0:0:0:0:
48,80,71999,2,0,B|160:112|160:112|48:144,1,230
192,192,72499,6,0,L|192:320,1,115
336,176,72832,2,0,L|192:176,1,115
448,32,73166,5,0,0:0:0:0:
224,64,73332,2,0,B|336:96|336:96|224:128,1,230
352,176,73832,2,0,L|288:272,1,115
416,176,74166,2,0,L|480:304,1,115
240,48,74499,5,0,0:0:0:0:
384,160,74666,2,0,L|256:160,1,115
48,48,74999,1,0,0:0:0:0:
192,160,75166,2,0,L|64:160,1,115
304,48,75499,5,0,0:0:0:0:
448,128,75666,1,0,0:0:0:0:
304,192,75832,1,0,0:0:0:0:
80,96,75999,6,0,B|192:128|192:128|80:160,1,230
206,227,76499,2,0,L|77:227,1,115
232,318,76832,2,0,L|232:187,1,115
456,48,77166,1,0,0:0:0:0:
313,92,77332,6,0,B|198:91|198:91|313:97,1,230
457,114,77832,2,0,L|457:235,1,115
341,258,78166,2,0,L|213:258,1,115
378,202,78499,1,0,0:0:0:0:
152,135,78666,6,0,B|38:139|38:139|153:162,1,230
37,222,79166,1,0,0:0:0:0:
185,236,79332,2,0,B|301:241|301:241|180:262,1,230
307,91,79832,1,0,0:0:0:0:
149,74,79999,6,0,B|41:130|41:130|156:171,1,230
288,175,80499,2,0,L|288:301,1,115
150,295,80832,2,0,L|274:295,1,115
41,247,81166,1,0,0:0:0:0:
262,117,81332,6,0,B|370:159|370:159|261:198,1,230
411,215,81832,2,0,L|411:343,1,115
319,322,82166,2,0,L|232:241,1,115
459,92,82499,1,0,0:0:0:0:
316,95,82666,6,0,B|418:160|418:160|309:195,1,230
172,176,83166,2,0,L|258:261,1,115
103,276,83499,2,0,L|188:367,1,115
36,121,83832,1,0,0:0:0:0:
261,104,83999,6,0,L|260:350,1,230
404,229,84499,2,0,L|271:229,1,115
433,140,84832,2,0,L|433:271,1,115
208,58,85166,1,0,0:0:0:0:
431,56,85332,6,0,L|350:166,1,115
446,267,85666,1,0,0:0:0:0:
214,102,85832,2,0,L|334:102,1,115
183,188,86166,2,0,L|113:188,1,57.5
76,130,86332,2,0,L|76:68,1,57.5
220,175,86499,6,0,B|221:62|221:62|347:62,1,230
108,246,86999,2,0,B|220:245|220:245|221:115,1,230
372,111,87499,2,0,B|373:285|373:285|434:285,1,230
203,245,87999,6,0,B|203:125|203:125|79:125,1,230
265,294,88499,2,0,L|385:294,1,115
150,114,88832,2,0,B|262:114|262:114|151:164,1,230
154,242,89332,5,0,0:0:0:0:
381,233,89499,1,0,0:0:0:0:
157,105,89666,2,0,B|158:278|158:278|93:278,1,230
323,98,90166,2,0,B|321:269|321:269|384:269,1,230
231,98,90666,6,0,B|231:214|231:214|346:217|346:217|231:224|231:224|347:228,1,460
120,282,91499,2,0,L|251:282,1,115
75,192,91832,2,0,L|75:67,1,115
330,101,92166,1,0,0:0:0:0:
180,269,92332,2,0,B|179:157|179:157|49:156,1,230
294,121,92832,2,0,B|295:295|295:295|356:295,1,230
119,204,93332,6,0,B|239:204|239:204|239:80,1,230
387,294,93832,2,0,L|267:294,1,115
150,114,94165,2,0,B|262:114|262:114|147:147|147:147|263:147,1,345
381,233,94832,1,0,0:0:0:0:
151,236,94999,1,0,0:0:0:0:
389,124,95166,2,0,L|261:123,1,115
126,134,95499,2,0,B|241:136|241:136|127:152|127:152,1,230
281,85,95999,6,0,B|281:201|281:201|396:204|396:204|281:211|281:211|397:215,1,460
120,282,96832,2,0,L|251:282,1,115
75,192,97165,2,0,L|75:67,1,115
180,78,97499,1,0,0:0:0:0:
404,246,97666,2,0,B|292:245|292:245|291:115,1,230
140,111,98166,2,0,B|139:285|139:285|78:285,1,230
309,245,98666,6,0,B|309:125|309:125|433:125,1,230
247,294,99166,2,0,L|127:294,1,115
362,114,99499,2,0,B|250:114|250:114|361:164,1,230
358,242,99999,5,0,0:0:0:0:
131,233,100166,1,0,0:0:0:0:
355,105,100333,2,0,B|354:278|354:278|419:278,1,230
189,98,100833,2,0,B|191:269|191:269|128:269,1,230
281,98,101333,6,0,B|281:214|281:214|166:217|166:217|281:224|281:224|165:228,1,460
392,282,102166,2,0,L|261:282,1,115
437,192,102499,2,0,L|437:67,1,115
182,101,102833,1,0,0:0:0:0:
332,269,102999,2,0,B|333:157|333:157|463:156,1,230
218,121,103499,2,0,B|217:295|217:295|156:295,1,230
393,204,103999,6,0,B|273:204|273:204|273:80,1,230
125,294,104499,2,0,L|245:294,1,115
362,114,104832,2,0,B|250:114|250:114|365:147|365:147|249:147,1,345
131,233,105499,1,0,0:0:0:0:
361,236,105666,1,0,0:0:0:0:
123,124,105833,2,0,L|251:123,1,115
386,134,106166,2,0,B|271:136|271:136|385:152|385:152,1,230
231,85,106666,6,0,B|231:201|231:201|116:204|116:204|231:211|231:211|115:215,1,460
392,282,107499,2,0,L|261:282,1,115
415,209,107832,6,0,B|473:209|473:209|418:199|418:199|477:197,1,172.5
336,117,108166,2,0,B|219:117|219:117|219:229|219:229|342:229,1,345
252,76,108832,1,0,0:0:0:0:
252,27,108999,2,0,L|370:27,1,115
217,100,109332,2,0,B|217:216|217:216|97:216,1,230
247,327,109832,2,0,L|247:203,1,115
400,191,110166,6,0,B|284:191|284:191|414:171,1,230
248,149,110666,2,0,L|301:112,1,57.5
58,87,110832,6,0,B|57:204|57:204|176:204,1,230
394,205,111332,2,0,L|394:78,1,115
261,228,111666,2,0,L|381:228,1,115
209,75,111999,6,0,L|209:207,1,115
354,71,112332,1,0,0:0:0:0:
187,217,112499,2,0,L|307:217,1,115
135,301,112832,2,0,L|263:301,1,115
418,134,113166,2,0,L|352:227,1,115
269,147,113416,1,0,0:0:0:0:
410,66,113499,6,0,L|410:310,1,230
243,257,113999,2,0,L|364:257,1,115
130,165,114332,2,0,B|246:165|246:165|93:239|93:239|176:240,1,345
294,305,114999,6,0,L|226:305,1,57.5
152,253,115166,2,0,L|91:253,1,57.5
29,246,115332,2,0,L|61:186,1,57.5
292,107,115499,2,0,B|357:201|357:201|242:209|242:209|357:209|357:209|243:224|243:224|358:224,1,575
253,282,116499,5,0,0:0:0:0:
393,281,116666,2,0,L|267:281,2,115
64,73,117166,2,0,B|164:143|164:143|66:195|66:195|178:215|178:215|65:214|65:214|178:222|178:222|63:224|63:224|178:244,1,805
407,163,118499,6,0,L|491:164,2,76.6666666666667
201,174,118832,2,0,L|117:175,2,76.6666666666667
314,243,119110,6,0,L|371:200,1,57.5
305,156,119277,2,0,L|357:120,1,57.5
161,105,119444,2,0,L|117:55,1,57.5
111,168,119610,2,0,L|155:122,1,57.5
286,100,119749,6,0,L|333:147,1,57.5
275,204,119874,2,0,L|235:253,1,57.5
339,291,119999,6,0,L|361:327,2,38.3333333333333
222,296,120166,2,0,L|207:336,2,38.3333333333333
345,94,120332,6,0,B|246:158|246:158|358:158|358:158|245:166|245:166|359:171|359:171|243:177|243:177|361:187,1,690
107,219,121499,6,0,B|281:220|281:220,2,172.5
344,51,122166,2,0,B|454:91|454:91|453:313|453:313|453:79|453:79|306:282,1,805
176,123,123499,2,0,B|291:126|291:126|177:137|177:137|293:142|293:142,1,345
65,149,124166,2,0,B|186:149|186:149|186:361|186:361|186:99,1,575
417,159,125166,2,0,B|306:193|306:193|414:202|414:202|307:257|307:257|365:258|365:258|307:262|307:262|364:264|364:264|307:268|307:268|365:271|365:271|306:273|306:273|365:276|365:276|306:278,1,805
86,225,126499,6,0,L|44:280,1,57.5
189,160,126666,2,0,L|228:210,1,57.5
385,154,126832,2,0,L|247:154,1,115
430,83,127166,2,0,L|184:83,1,230
201,163,127499,1,0,0:0:0:0:
425,164,127666,2,0,L|501:164,2,57.5
189,328,127999,2,0,B|60:72|60:72|348:72|348:72|440:331|440:331|440:43|440:43|440:341|440:341|439:53|439:53|440:370|440:370,1,2012.5
256,192,139999,12,0,144999,0:0:0:0:
256,102,145332,5,0,0:0:0:0:
419,104,145666,1,0,0:0:0:0:
419,244,145832,1,0,0:0:0:0:
132,193,146166,1,0,0:0:0:0:
309,194,146499,1,0,0:0:0:0:
156,192,146666,5,0,0:0:0:0:
307,196,146832,1,0,0:0:0:0:
467,74,147166,2,0,L|218:74,1,230
400,159,147832,1,0,0:0:0:0:
121,93,147999,6,0,L|121:322,1,230
353,104,148499,1,0,0:0:0:0:
127,82,148666,1,0,0:0:0:0:
351,88,148832,2,0,L|164:88,1,172.500006580353
411,207,149166,1,0,0:0:0:0:
166,202,149332,5,0,0:0:0:0:
390,184,149499,1,0,0:0:0:0:
143,138,149666,1,0,0:0:0:0:
366,120,149832,1,0,0:0:0:0:
118,72,149999,2,0,L|118:318,1,230
368,178,150499,5,0,1:0:0:0:
123,51,150666,2,0,L|235:51|235:51|161:156,1,230,0|0,1:0|1:0,1:0:0:0:
304,224,151165,1,0,0:0:0:0:
176,224,151332,1,0,0:0:0:0:
304,160,151499,1,0,0:0:0:0:
304,256,151665,1,0,0:0:0:0:
80,32,151832,5,0,0:0:0:0:
208,32,151999,2,0,L|336:32,1,115
192,192,152332,1,0,0:0:0:0:
336,144,152499,2,0,L|176:144,1,115
368,224,152832,2,0,L|224:224,1,115
480,32,153165,5,0,0:0:0:0:
256,32,153332,2,0,B|144:64|144:64|256:96,1,230
32,32,153832,5,0,0:0:0:0:
176,176,153999,2,0,L|320:176,1,115
416,240,154332,2,0,L|272:240,1,115
448,32,154665,6,0,B|480:224|288:160|288:160,1,230
464,224,155165,2,0,L|464:96,1,115
320,112,155499,2,0,L|416:208,1,115
176,32,155832,5,0,0:0:0:0:
32,160,155999,2,0,P|112:208|32:272,1,230
256,64,156499,6,0,L|256:192,1,115
384,208,156832,2,0,L|496:128,1,115
240,32,157165,5,0,0:0:0:0:
464,80,157332,2,0,B|352:112|352:112|464:144,1,230
320,192,157832,6,0,L|320:320,1,115
176,176,158165,2,0,L|320:176,1,115
64,32,158499,5,0,0:0:0:0:
288,64,158665,2,0,B|176:96|176:96|288:128,1,230
160,176,159165,2,0,L|224:272,1,115
96,176,159499,2,0,L|32:304,1,115
272,48,159832,5,0,0:0:0:0:
128,160,159999,2,0,L|256:160,1,115
464,48,160332,1,0,0:0:0:0:
320,160,160499,2,0,L|448:160,1,115
208,48,160832,5,0,0:0:0:0:
64,128,160999,1,0,0:0:0:0:
208,192,161165,1,0,0:0:0:0:
432,96,161332,6,0,B|320:128|320:128|432:160,1,230
306,227,161832,2,0,L|435:227,1,115
280,318,162165,2,0,L|280:187,1,115
56,48,162499,1,0,0:0:0:0:
199,92,162665,6,0,B|314:91|314:91|199:97,1,230
55,114,163165,2,0,L|55:235,1,115
171,258,163499,2,0,L|299:258,1,115
134,202,163832,1,0,0:0:0:0:
360,135,163999,6,0,B|474:139|474:139|359:162,1,230
475,222,164499,1,0,0:0:0:0:
327,236,164665,2,0,B|211:241|211:241|332:262,1,230
205,91,165165,1,0,0:0:0:0:
363,74,165332,6,0,B|471:130|471:130|356:171,1,230
224,175,165832,2,0,L|224:301,1,115
362,295,166165,2,0,L|238:295,1,115
471,247,166499,1,0,0:0:0:0:
250,117,166665,6,0,B|142:159|142:159|251:198,1,230
101,215,167165,2,0,L|101:343,1,115
193,322,167499,2,0,L|280:241,1,115
53,92,167832,1,0,0:0:0:0:
196,95,167999,6,0,B|94:160|94:160|203:195,1,230
340,176,168499,2,0,L|254:261,1,115
409,276,168832,2,0,L|324:367,1,115
476,121,169165,1,0,0:0:0:0:
251,104,169332,6,0,L|287:219,1,115
41,191,169666,1,0,0:0:0:0:
267,211,169832,2,0,L|244:328,1,115
404,149,170166,1,0,0:0:0:0:
167,179,170332,2,0,L|282:178,1,115
114,61,170665,6,0,L|195:171,1,115
66,267,170999,1,0,0:0:0:0:
298,102,171165,2,0,L|178:102,1,115
329,188,171499,2,0,L|399:188,1,57.5
436,130,171665,2,0,L|436:68,1,57.5
392,68,171832,2,0,L|322:68,1,57.5
208,288,171999,6,0,L|96:272|96:272|208:240|208:240,1,230,0|0,1:0|1:0,1:0:0:0:
80,128,172499,5,0,2:0:0:0:
80,224,172665,1,0,2:0:0:0:
160,320,172832,6,0,L|31:320,1,115,0|0,1:0|1:0,1:0:0:0:
160,256,173165,1,0,1:0:0:0:
384,32,173332,2,0,B|496:64|496:64|384:96,1,230,0|0,1:0|1:0,1:0:0:0:
464,272,173832,2,0,L|464:144,1,115
320,224,174165,6,0,L|203:224,2,115,0|0|0,1:0|1:0|1:0,1:0:0:0:
64,16,174665,2,0,L|32:128|32:128|152:128,1,230,0|0,1:0|1:0,1:0:0:0:
272,144,175165,2,0,L|272:288,1,115,0|0,1:0|1:0,1:0:0:0:
192,320,175499,6,0,L|315:320,2,115,0|0|0,1:0|1:0|1:0,1:0:0:0:
464,144,175999,6,0,B|352:166|352:166|467:163|467:163|352:182|352:182|467:176|467:176|352:190|352:190|468:188|468:188|351:202,1,805,0|0,1:0|1:0,1:0:0:0:
80,66,177332,6,0,L|192:90|192:90|80:122,1,230,0|0,1:0|1:0,1:0:0:0:
192,192,177832,2,0,L|192:63,1,115,0|0,1:0|1:0,1:0:0:0:
120,344,178165,2,0,L|240:344,2,115,0|0|0,1:0|1:0|1:0,1:0:0:0:
368,72,178665,6,0,L|480:56|480:56|368:24,1,230,0|0,1:0|1:0,1:0:0:0:
296,352,179165,2,0,L|296:233,1,115,0|0,1:0|1:0,1:0:0:0:
432,192,179499,2,0,L|318:191,2,115,0|0|0,1:0|1:0|1:0,1:0:0:0:
208,32,179999,6,0,L|96:48|96:48|208:80,1,230,0|0,1:0|1:0,1:0:0:0:
72,168,180499,2,0,L|200:168,1,115,0|0,1:0|1:0,1:0:0:0:
328,224,180832,2,0,L|212:224,2,115,0|0|0,1:0|1:0|1:0,1:0:0:0:
80,66,181332,6,0,B|192:88|192:88|77:85|77:85|192:104|192:104|77:98|77:98|192:112|192:112|76:110|76:110|193:124,1,805,0|0,1:0|1:0,1:0:0:0:
456,24,182665,6,0,L|504:128|504:128|384:128,1,230,0|0,1:0|1:0,1:0:0:0:
248,240,183165,2,0,L|248:111,1,115,0|0,1:0|1:0,1:0:0:0:
392,160,183499,2,0,L|275:160,2,115,0|0|0,1:0|1:0|1:0,1:0:0:0:
160,24,183999,6,0,L|48:56|48:56|160:88,1,230,0|0,1:0|1:0,1:0:0:0:
304,144,184499,2,0,L|176:144,1,115,0|0,1:0|1:0,1:0:0:0:
336,224,184832,2,0,L|452:224,2,115,0|0|0,1:0|1:0|1:0,1:0:0:0:
112,80,185332,6,0,L|1:48|1:48|113:16,1,230,0|0,1:0|1:0,1:0:0:0:
248,160,185832,2,0,L|132:160,1,115,0|0,1:0|1:0,1:0:0:0:
244,229,186165,2,0,L|365:229,2,115,0|0|0,1:0|1:0|1:0,1:0:0:0:
468,123,186666,6,0,B|356:145|356:145|471:142|471:142|356:161|356:161|471:155|471:155|356:169|356:169|472:167|472:167|355:181,1,805,0|0,1:0|1:0,1:0:0:0:
136,40,187999,6,0,B|29:79|29:79|143:91|143:91|30:109|30:109|145:110|145:110|28:125|28:125|147:121|147:121|147:234,1,805,0|0,1:0|1:0,1:0:0:0:
488,144,189332,2,0,L|488:32|488:32|416:128,1,230,0|0,1:0|1:0,1:0:0:0:
280,176,189832,2,0,L|402:176,1,115,0|0,1:0|1:0,1:0:0:0:
168,40,190166,2,0,L|104:136,1,115,0|0,1:0|1:0,1:0:0:0:
192,320,190499,1,0,1:0:0:0:
464,64,190665,6,0,B|360:16|360:16|360:128|360:128|456:201|456:201|356:253|356:253|413:252|413:252|356:248|356:248|413:246|413:246|356:243|356:243|413:242|413:242|356:239|356:239|413:237|413:237|356:234|356:234|413:233|413:233|356:230|356:230|414:229|414:229|356:225|356:225|414:224|414:224|356:220|356:220|414:220|414:220|356:216|356:216|414:215|414:215|356:211|356:211,1,1495,0|0,1:0|1:0,1:0:0:0:
428,309,192916,1,0,0:0:0:0:
242,308,192999,2,0,L|171:307,1,57.5
33,247,193166,1,0,0:0:0:0:
256,192,193332,1,0,0:0:0:0:
256,192,193416,12,0,201332,0:0:0:0:
