osu file format v14

[General]
AudioFilename: audio.mp3
AudioLeadIn: 0
PreviewTime: 63978
Countdown: 0
SampleSet: None
StackLeniency: 0.7
Mode: 0
LetterboxInBreaks: 0
EpilepsyWarning: 1
WidescreenStoryboard: 1

[Editor]
Bookmarks: 11478
DistanceSpacing: 1.1
BeatDivisor: 4
GridSize: 16
TimelineZoom: 2.1

[Metadata]
Title:Poker Face
TitleUnicode:Poker Face 「English Subbed」
Artist:GUMI
ArtistUnicode:GUMI
Creator:Evelynn
Version:Avaricious
Source:Vocaloid
Tags:yuchaP GUMI Vocaloid Pokerface avaricious
BeatmapID:1610814
BeatmapSetID:766205

[Difficulty]
HPDrainRate:6
CircleSize:3.2
OverallDifficulty:7
ApproachRate:9.2
SliderMultiplier:1.6
SliderTickRate:1

[Events]
//Background and Video events
0,0,"gumi megpoid.png",0,0
//Break Periods
//Storyboard Layer 0 (Background)
//Storyboard Layer 1 (Fail)
//Storyboard Layer 2 (Pass)
//Storyboard Layer 3 (Foreground)
//Storyboard Sound Samples

[TimingPoints]
1369.51126294297,326.086956521739,4,2,0,100,1,0
11804,-90.9090909090909,4,2,0,100,0,0
32673,-100,4,2,0,100,0,0
43108,-83.3333333333333,4,2,0,100,0,0
53543,-100,4,2,0,100,0,0
63978,-83.3333333333333,4,2,0,100,0,1
82239,-76.9230769230769,4,2,0,100,0,1
84847,-90.9090909090909,4,2,0,100,0,0
95282,-100,4,2,0,100,0,0
116152,-83.3333333333333,4,2,0,100,0,1
139630,-90.9090909090909,4,2,0,100,0,1
155282,-100,4,2,0,100,0,0
167021,-90.9090909090909,4,2,0,100,0,0
168326,-83.3333333333333,4,2,0,100,0,1
197021,-90.9090909090909,4,2,0,100,0,0

[HitObjects]
19,90,1369,6,0,P|63:100|120:87,1,80
166,43,1695,1,0,0:0:0:0:
166,43,1858,2,0,P|157:92|175:138,1,80
242,173,2184,1,0,0:0:0:0:
336,162,2347,2,0,P|375:138|398:85,1,80
172,236,2673,6,0,P|169:285|186:323,1,80
257,260,2918,1,0,0:0:0:0:
265,251,2999,2,0,P|276:201|263:162,1,80
108,123,3326,1,0,0:0:0:0:
188,123,3489,2,0,L|85:123,1,80
86,51,3815,2,0,P|92:106|141:134,1,80
270,177,4141,5,0,0:0:0:0:
270,177,4304,2,0,P|325:171|366:195,1,80
426,120,4630,2,0,P|432:172|418:218,1,80
469,291,4956,2,0,P|400:283|375:246,1,80
350,180,5282,6,0,L|348:79,1,80
276,250,5608,1,0,0:0:0:0:
276,250,5771,2,0,L|276:340,1,80
197,264,6016,1,0,0:0:0:0:
195,255,6097,2,0,P|188:189|193:152,1,80
256,78,6423,1,0,0:0:0:0:
145,104,6586,6,0,B|101:116|101:116|69:105,1,80
189,19,6912,1,0,0:0:0:0:
277,178,7076,1,0,0:0:0:0:
107,272,7239,2,0,B|111:234|111:234|148:204,1,80
202,321,7565,1,0,0:0:0:0:
11,275,7728,1,0,0:0:0:0:
101,130,7891,6,0,P|163:117|206:132,1,80
293,53,8217,2,0,P|217:49|192:35,1,80
133,14,8543,1,0,0:0:0:0:
17,132,8706,2,0,P|25:85|57:57,1,80
8,225,9032,1,0,0:0:0:0:
8,225,9195,6,0,P|26:263|83:285,1,80
226,227,9521,1,0,0:0:0:0:
101,214,9684,1,0,0:0:0:0:
273,299,9847,2,0,P|324:270|334:219,1,80
264,80,10173,1,0,0:0:0:0:
281,187,10336,1,0,0:0:0:0:
374,106,10499,6,0,P|373:61|322:31,1,80
313,35,10744,1,0,0:0:0:0:
280,62,10826,1,0,0:0:0:0:
244,152,10989,1,0,0:0:0:0:
244,152,11152,2,0,L|243:246,1,80
244,263,11396,1,0,0:0:0:0:
244,263,11478,1,0,0:0:0:0:
375,326,11804,6,0,B|364:314|364:314|485:328|461:248|461:248|414:251,1,176.000005371094
320,202,12293,2,0,L|256:230,1,44.0000013427735
202,232,12456,2,0,P|202:291|228:340,1,88.000002685547
365,313,12782,1,0,0:0:0:0:
248,143,12945,6,0,B|217:101|217:101|139:147|82:82,1,176.000005371094
53,20,13434,2,0,P|14:62|16:122,1,88.000002685547
100,205,13760,1,0,0:0:0:0:
6,206,13923,2,0,L|6:298,1,88.000002685547
153,295,14249,5,0,0:0:0:0:
153,295,14331,1,0,0:0:0:0:
153,295,14412,2,0,P|187:256|146:144,1,176.000005371094
54,52,14902,2,0,P|38:84|38:100,1,44.0000013427735
36,174,15065,2,0,P|84:216|137:219,1,88.000002685547
242,127,15391,1,0,0:0:0:0:
242,127,15554,6,0,P|292:105|339:120,1,88.000002685547
413,173,15880,2,0,P|437:207|457:222,1,44.0000013427735
332,241,16043,2,0,P|330:288|341:308,1,44.0000013427735
225,207,16206,1,0,0:0:0:0:
219,215,16287,1,0,0:0:0:0:
212,223,16369,2,0,L|117:229,1,88.000002685547
226,126,16614,1,0,0:0:0:0:
242,127,16695,2,0,L|327:105,1,88.000002685547
475,130,17021,6,0,P|500:208|421:248,1,176.000005371094
326,104,17510,2,0,P|359:77|380:69,1,44.0000013427735
428,24,17673,2,0,B|487:10|486:9|456:52,1,88.000002685547
395,152,17999,1,0,0:0:0:0:
315,226,18162,6,0,P|330:297|439:332,1,176.000005371094
487,260,18652,2,0,P|442:235|388:253,1,88.000002685547
263,341,18978,1,0,0:0:0:0:
263,341,19141,2,0,L|166:341,1,88.000002685547
26,240,19467,5,0,0:0:0:0:
35,252,19548,1,0,0:0:0:0:
44,261,19630,2,0,B|100:248|185:246|185:246|163:268|169:296,1,176.000005371094
33,341,20119,2,0,L|-12:289,1,44.0000013427735
44,261,20282,2,0,P|71:219|61:148,1,88.000002685547
53,64,20608,1,0,0:0:0:0:
71,181,20771,6,0,P|120:221|152:219,1,88.000002685547
268,166,21097,1,0,0:0:0:0:
279,169,21179,1,0,0:0:0:0:
291,172,21260,1,0,0:0:0:0:
366,253,21423,1,0,0:0:0:0:
375,254,21505,1,0,0:0:0:0:
384,256,21586,2,0,L|400:144,1,88.000002685547
351,68,21912,1,0,0:0:0:0:
351,68,22076,5,0,0:0:0:0:
351,68,22157,1,0,0:0:0:0:
351,68,22239,2,0,P|390:102|503:70,1,176.000005371094
272,16,22728,2,0,L|224:64,1,44.0000013427735
190,121,22891,2,0,P|219:174|271:187,1,88.000002685547
395,180,23217,1,0,0:0:0:0:
283,269,23380,6,0,B|226:349|226:349|340:344,1,176.000005371094
426,285,23869,2,0,P|446:240|432:192,1,88.000002685547
305,113,24195,1,0,0:0:0:0:
305,113,24358,2,0,L|347:211,1,88.000002685547
406,318,24684,5,0,0:0:0:0:
406,318,24766,1,0,0:0:0:0:
406,318,24847,2,0,P|318:295|233:308,1,176.000005371094
95,340,25336,1,0,0:0:0:0:
166,247,25499,2,0,P|192:183|175:122,1,132.00000402832
156,88,25826,2,0,B|197:110|197:110|264:100,1,88.000002685547
332,46,26152,6,0,L|408:46,2,58.6666684570313
237,102,26478,2,0,L|167:102,2,58.6666684570313
330,165,26804,2,0,L|392:167,2,58.6666684570313
215,189,27130,2,0,P|201:230|214:275,1,88.000002685547
350,342,27456,6,0,P|368:266|275:238,1,176.000005371094
158,338,27945,1,0,0:0:0:0:
158,345,28027,1,0,0:0:0:0:
156,347,28108,2,0,P|111:285|116:242,1,88.000002685547
119,141,28434,1,0,0:0:0:0:
210,29,28597,6,0,P|215:73|114:140,1,176.000005371094
26,91,29086,2,0,P|21:40|32:5,1,88.000002685547
132,55,29412,1,0,0:0:0:0:
116,229,29576,2,0,L|12:229,1,88.000002685547
186,140,29902,1,0,0:0:0:0:
282,220,30065,6,0,P|285:277|170:321,1,176.000005371094
185,140,30554,1,0,0:0:0:0:
185,140,30635,1,0,0:0:0:0:
185,140,30717,2,0,L|281:139,1,88.000002685547
391,93,31043,1,0,0:0:0:0:
91,66,31206,6,0,P|65:134|103:228,1,176.000005371094
190,276,31614,1,0,0:0:0:0:
193,283,31695,2,0,L|274:289,2,58.6666684570313
84,315,32021,2,0,L|10:330,2,58.6666684570313
174,202,32347,2,0,P|205:187|227:160,2,58.6666684570313
29,297,32673,6,0,P|81:321|120:313,1,80
195,268,32999,1,0,0:0:0:0:
259,348,33162,1,0,0:0:0:0:
396,297,33326,2,0,P|343:276|311:277,1,80
257,196,33652,2,0,L|157:196,1,80
308,117,33978,6,0,L|393:117,1,80
337,212,34304,1,0,0:0:0:0:
217,116,34467,2,0,B|217:75|247:22|329:29,1,160
434,37,34956,1,0,0:0:0:0:
441,37,35037,1,0,0:0:0:0:
445,38,35119,1,0,0:0:0:0:
