osu file format v14

[General]
AudioFilename: audio.mp3
AudioLeadIn: 0
PreviewTime: 47439
Countdown: 0
SampleSet: Normal
StackLeniency: 0.7
Mode: 3
LetterboxInBreaks: 0
SpecialStyle: 1
WidescreenStoryboard: 0

[Editor]
DistanceSpacing: 1.4
BeatDivisor: 4
GridSize: 4
TimelineZoom: 1

[Metadata]
Title:Catch You Catch Me (TV Size)
TitleUnicode:Catch You Catch Me (TV Size)
Artist:GUMI
ArtistUnicode:GUMI
Creator:imn00bAtOsu
Version:HD
Source:カードキャプターさくら
Tags:cardcaptor sakura opening op theme megumi hinata
BeatmapID:1391894
BeatmapSetID:657061

[Difficulty]
HPDrainRate:7.5
CircleSize:4
OverallDifficulty:7
ApproachRate:5
SliderMultiplier:1.4
SliderTickRate:1

[Events]
//Background and Video events
0,0,"cardcaptor_sakura_1494x900_wal_1920x1440_vehiclehi.com.jpg",0,0
Video,0,"【HD】カードキャプターさくら OP 「Catch You Catch Me」 - YouTube.mp4"
//Break Periods
//Storyboard Layer 0 (Background)
//Storyboard Layer 1 (Fail)
//Storyboard Layer 2 (Pass)
//Storyboard Layer 3 (Foreground)
//Storyboard Sound Samples

[TimingPoints]
2908,468.75,4,2,1,50,1,0
8298,-100,4,1,1,100,0,0
9470,-100,4,1,2,80,0,0
9704,-100,4,1,1,100,0,0
16970,-100,4,1,2,80,0,0
17204,-100,4,1,1,100,0,0
32204,-100,4,1,2,100,0,0
32439,-100,4,1,1,100,0,0
47204,-100,4,1,2,100,0,0
47439,-100,4,1,1,100,0,0
47908,-100,4,1,1,100,0,1
65720,-100,4,1,2,100,0,1
65954,-100,4,1,1,100,0,1
66658,-100,4,1,1,100,0,0
73220,-100,4,1,2,80,0,0
73454,-100,4,1,1,100,0,0
74392,-100,4,1,2,80,0,0
74626,-100,4,1,1,100,0,0

[HitObjects]
64,192,2908,5,0,0:0:0:0:
320,192,2908,1,4,0:0:0:0:
448,192,2908,1,0,0:0:0:0:
192,192,3142,1,0,0:0:0:0:
320,192,3259,1,0,0:0:0:0:
448,192,3376,1,2,0:0:0:0:
64,192,3376,1,0,0:0:0:0:
192,192,3611,1,0,0:0:0:0:
320,192,3611,1,8,0:0:0:0:
64,192,3845,1,2,0:0:0:0:
192,192,3962,1,0,0:0:0:0:
320,192,4079,1,0,0:0:0:0:
448,192,4197,1,0,0:0:0:0:
64,192,4314,1,0,0:0:0:0:
192,192,4314,1,0,0:0:0:0:
320,192,4548,1,8,0:0:0:0:
448,192,4548,1,0,0:0:0:0:
448,192,4783,1,2,0:0:0:0:
64,192,4783,1,0,0:0:0:0:
320,192,4900,1,0,0:0:0:0:
192,192,5017,1,0,0:0:0:0:
64,192,5134,1,0,0:0:0:0:
320,192,5251,1,2,0:0:0:0:
448,192,5251,1,0,0:0:0:0:
192,192,5486,1,8,0:0:0:0:
64,192,5486,1,0,0:0:0:0:
448,192,5720,1,2,0:0:0:0:
320,192,5837,1,0,0:0:0:0:
64,192,5954,1,0,0:0:0:0:
192,192,6072,1,0,0:0:0:0:
320,192,6189,1,2,0:0:0:0:
448,192,6189,1,0,0:0:0:0:
192,192,6423,1,8,0:0:0:0:
448,192,6423,1,0,0:0:0:0:
320,192,6658,1,2,0:0:0:0:
64,192,6658,1,0,0:0:0:0:
192,192,6775,1,0,0:0:0:0:
320,192,6892,1,0,0:0:0:0:
448,192,7009,1,0,0:0:0:0:
192,192,7126,1,2,0:0:0:0:
64,192,7126,1,0,0:0:0:0:
320,192,7361,1,8,0:0:0:0:
448,192,7361,1,0,0:0:0:0:
192,192,7595,1,2,0:0:0:0:
320,192,7712,1,0,0:0:0:0:
448,192,7829,1,0,0:0:0:0:
64,192,7947,1,0,0:0:0:0:
192,192,8064,1,0,0:0:0:0:
320,192,8181,1,0,0:0:0:0:
64,192,8298,1,8,0:0:0:0:
448,192,8298,1,2,0:0:0:0:
192,192,8767,1,8,0:0:0:0:
320,192,8767,1,0,0:0:0:0:
448,192,8767,1,2,0:0:0:0:
64,192,9236,1,8,0:0:0:0:
192,192,9236,1,2,0:0:0:0:
448,192,9470,1,0,0:0:0:0:
320,192,9529,1,0,0:0:0:0:
192,192,9587,1,0,0:0:0:0:
64,192,9646,1,0,0:0:0:0:
320,192,9704,1,10,0:0:0:0:
448,192,9704,1,0,0:0:0:0:
192,192,9939,1,8,0:0:0:0:
320,192,10173,1,8,0:0:0:0:
448,192,10173,1,0,0:0:0:0:
64,192,10408,1,0,0:0:0:0:
192,192,10408,1,2,0:0:0:0:
320,192,10642,1,2,0:0:0:0:
64,192,10876,1,0,0:0:0:0:
320,192,10876,1,4,0:0:0:0:
448,192,10876,1,0,0:0:0:0:
192,192,11111,1,0,0:0:0:0:
320,192,11345,128,2,11579:0:0:0:0:
64,192,11345,1,0,0:0:0:0:
448,192,11579,128,0,11814:0:0:0:0:
320,192,11814,128,8,12048:0:0:0:0:
64,192,12048,1,8,0:0:0:0:
192,192,12165,1,0,0:0:0:0:
448,192,12283,1,0,0:0:0:0:
320,192,12283,1,2,0:0:0:0:
192,192,12517,128,0,12751:0:0:0:0:
320,192,12751,128,8,12986:0:0:0:0:
448,192,12986,128,0,13454:0:0:0:0:
64,192,13220,1,0,0:0:0:0:
192,192,13220,1,2,0:0:0:0:
320,192,13454,128,0,13689:0:0:0:0:
192,192,13689,128,8,13923:0:0:0:0:
64,192,13923,1,8,0:0:0:0:
320,192,14158,1,2,0:0:0:0:
448,192,14158,1,0,0:0:0:0:
192,192,14392,1,2,0:0:0:0:
64,192,14626,1,0,0:0:0:0:
320,192,14626,1,6,0:0:0:0:
448,192,14626,1,0,0:0:0:0:
192,192,14861,1,0,0:0:0:0:
320,192,14978,1,0,0:0:0:0:
448,192,15095,1,2,0:0:0:0:
64,192,15095,1,0,0:0:0:0:
320,192,15329,1,0,0:0:0:0:
192,192,15329,1,0,0:0:0:0:
64,192,15564,1,0,0:0:0:0:
448,192,15564,1,8,0:0:0:0:
192,192,15798,1,0,0:0:0:0:
320,192,15798,128,10,16267:0:0:0:0:
192,192,16267,1,0,0:0:0:0:
64,192,16267,128,10,16736:0:0:0:0:
320,192,16736,1,0,0:0:0:0:
448,192,16736,1,10,0:0:0:0:
64,192,16970,1,0,0:0:0:0:
192,192,17029,1,0,0:0:0:0:
320,192,17087,1,0,0:0:0:0:
448,192,17146,1,0,0:0:0:0:
64,192,17204,1,0,0:0:0:0:
192,192,17204,1,10,0:0:0:0:
320,192,17439,1,8,0:0:0:0:
448,192,17673,1,0,0:0:0:0:
64,192,17908,1,0,0:0:0:0:
320,192,17908,1,4,0:0:0:0:
192,192,18142,1,0,0:0:0:0:
320,192,18376,1,8,0:0:0:0:
448,192,18376,1,8,0:0:0:0:
192,192,18611,1,0,0:0:0:0:
320,192,18728,1,0,0:0:0:0:
448,192,18845,1,0,0:0:0:0:
64,192,18845,1,2,0:0:0:0:
192,192,19079,1,0,0:0:0:0:
64,192,19314,1,8,0:0:0:0:
320,192,19314,1,8,0:0:0:0:
192,192,19548,1,0,0:0:0:0:
64,192,19783,1,0,0:0:0:0:
448,192,19783,1,2,0:0:0:0:
320,192,20017,1,0,0:0:0:0:
192,192,20251,1,8,0:0:0:0:
448,192,20251,1,8,0:0:0:0:
320,192,20486,1,0,0:0:0:0:
192,192,20603,1,0,0:0:0:0:
64,192,20720,1,0,0:0:0:0:
448,192,20720,1,2,0:0:0:0:
320,192,20954,1,0,0:0:0:0:
192,192,21189,1,8,0:0:0:0:
64,192,21189,1,8,0:0:0:0:
448,192,21423,1,0,0:0:0:0:
320,192,21658,1,0,0:0:0:0:
64,192,21658,1,2,0:0:0:0:
192,192,21892,1,0,0:0:0:0:
320,192,22126,1,8,0:0:0:0:
448,192,22126,1,8,0:0:0:0:
64,192,22361,1,0,0:0:0:0:
192,192,22478,1,0,0:0:0:0:
320,192,22595,1,0,0:0:0:0:
448,192,22595,1,2,0:0:0:0:
192,192,22829,1,0,0:0:0:0:
64,192,23064,1,8,0:0:0:0:
448,192,23064,1,8,0:0:0:0:
320,192,23298,1,0,0:0:0:0:
64,192,23533,1,0,0:0:0:0:
192,192,23533,128,2,24001:0:0:0:0:
320,192,24001,1,8,0:0:0:0:
448,192,24001,1,0,0:0:0:0:
64,192,24236,1,0,0:0:0:0:
192,192,24236,1,0,0:0:0:0:
320,192,24470,1,8,0:0:0:0:
192,192,24587,1,0,0:0:0:0:
320,192,24704,1,2,0:0:0:0:
448,192,24704,1,0,0:0:0:0:
192,192,24939,1,8,0:0:0:0:
320,192,25173,1,2,0:0:0:0:
448,192,25408,1,4,0:0:0:0:
64,192,25408,1,0,0:0:0:0:
192,192,25642,1,0,0:0:0:0:
320,192,25876,1,8,0:0:0:0:
448,192,25876,1,8,0:0:0:0:
192,192,26111,1,0,0:0:0:0:
320,192,26228,1,0,0:0:0:0:
64,192,26345,1,0,0:0:0:0:
448,192,26345,1,2,0:0:0:0:
320,192,26579,1,0,0:0:0:0:
192,192,26814,1,8,0:0:0:0:
64,192,26814,1,8,0:0:0:0:
320,192,27048,1,0,0:0:0:0:
448,192,27283,1,2,0:0:0:0:
192,192,27283,1,0,0:0:0:0:
64,192,27517,1,0,0:0:0:0:
320,192,27751,1,8,0:0:0:0:
192,192,27751,1,8,0:0:0:0:
448,192,27986,1,0,0:0:0:0:
320,192,28103,1,0,0:0:0:0:
192,192,28220,1,0,0:0:0:0:
64,192,28220,1,2,0:0:0:0:
320,192,28454,1,0,0:0:0:0:
192,192,28689,1,8,0:0:0:0:
448,192,28689,1,8,0:0:0:0:
64,192,28923,1,0,0:0:0:0:
448,192,29158,1,0,0:0:0:0:
320,192,29158,128,2,29626:0:0:0:0:
64,192,29626,1,8,0:0:0:0:
192,192,29626,1,0,0:0:0:0:
448,192,29861,1,0,0:0:0:0:
320,192,29978,1,0,0:0:0:0:
192,192,30095,1,2,0:0:0:0:
64,192,30095,1,0,0:0:0:0:
320,192,30329,1,0,0:0:0:0:
192,192,30564,1,8,0:0:0:0:
448,192,30564,1,8,0:0:0:0:
320,192,30798,1,0,0:0:0:0:
64,192,31033,1,0,0:0:0:0:
192,192,31033,128,2,31501:0:0:0:0:
320,192,31501,1,8,0:0:0:0:
448,192,31501,1,0,0:0:0:0:
64,192,31736,1,0,0:0:0:0:
448,192,31970,1,0,0:0:0:0:
64,192,32204,1,0,0:0:0:0:
192,192,32263,1,0,0:0:0:0:
320,192,32322,1,0,0:0:0:0:
448,192,32380,1,0,0:0:0:0:
192,192,32439,1,10,0:0:0:0:
64,192,32439,1,0,0:0:0:0:
320,192,32673,1,8,0:0:0:0:
192,192,32790,1,8,0:0:0:0:
320,192,32908,1,12,0:0:0:0:
448,192,32908,128,0,33376:0:0:0:0:
64,192,33376,1,8,0:0:0:0:
192,192,33376,1,2,0:0:0:0:
320,192,33611,1,0,0:0:0:0:
448,192,33845,1,8,0:0:0:0:
64,192,33845,1,0,0:0:0:0:
320,192,34079,1,0,0:0:0:0:
192,192,34314,1,2,0:0:0:0:
64,192,34314,1,8,0:0:0:0:
448,192,34548,1,0,0:0:0:0:
320,192,34665,1,0,0:0:0:0:
192,192,34783,1,2,0:0:0:0:
64,192,34783,128,0,35251:0:0:0:0:
320,192,35251,1,8,0:0:0:0:
448,192,35251,1,8,0:0:0:0:
192,192,35486,1,0,0:0:0:0:
64,192,35720,1,2,0:0:0:0:
448,192,35720,1,0,0:0:0:0:
192,192,35954,1,0,0:0:0:0:
320,192,36189,1,8,0:0:0:0:
448,192,36189,1,8,0:0:0:0:
64,192,36423,1,0,0:0:0:0:
192,192,36540,1,0,0:0:0:0:
448,192,36658,1,2,0:0:0:0:
320,192,36658,128,0,37126:0:0:0:0:
64,192,37126,1,8,0:0:0:0:
448,192,37126,1,8,0:0:0:0:
192,192,37361,128,0,37829:0:0:0:0:
320,192,37361,1,0,0:0:0:0:
448,192,37829,1,0,0:0:0:0:
320,192,37829,1,0,0:0:0:0:
64,192,38064,1,8,0:0:0:0:
192,192,38064,1,8,0:0:0:0:
320,192,38298,1,0,0:0:0:0:
64,192,38533,1,0,0:0:0:0:
448,192,38533,128,2,39001:0:0:0:0:
320,192,39001,1,0,0:0:0:0:
192,192,39001,128,8,39470:0:0:0:0:
64,192,39470,128,2,39939:0:0:0:0:
448,192,39470,1,0,0:0:0:0:
320,192,39939,128,8,40408:0:0:0:0:
192,192,39939,1,0,0:0:0:0:
192,192,40408,1,0,0:0:0:0:
64,192,40408,1,2,0:0:0:0:
192,192,40642,1,0,0:0:0:0:
320,192,40642,1,0,0:0:0:0:
64,192,40876,1,8,0:0:0:0:
448,192,40876,1,8,0:0:0:0:
320,192,41345,1,2,0:0:0:0:
448,192,41345,1,0,0:0:0:0:
320,192,41579,1,0,0:0:0:0:
192,192,41579,1,0,0:0:0:0:
448,192,41814,1,8,0:0:0:0:
64,192,41814,1,8,0:0:0:0:
64,192,42283,1,0,0:0:0:0:
192,192,42283,1,2,0:0:0:0:
320,192,42517,1,0,0:0:0:0:
192,192,42517,1,0,0:0:0:0:
320,192,42751,1,8,0:0:0:0:
448,192,42751,1,8,0:0:0:0:
320,192,43220,1,2,0:0:0:0:
448,192,43220,1,0,0:0:0:0:
192,192,43454,1,0,0:0:0:0:
320,192,43454,1,0,0:0:0:0:
64,192,43689,128,8,44158:0:0:0:0:
192,192,43689,1,8,0:0:0:0:
320,192,44158,1,0,0:0:0:0:
448,192,44158,128,2,44392:0:0:0:0:
192,192,44392,1,8,0:0:0:0:
448,192,44626,1,0,0:0:0:0:
320,192,44626,128,2,44861:0:0:0:0:
64,192,44861,1,8,0:0:0:0:
320,192,45095,1,0,0:0:0:0:
192,192,45095,128,2,45329:0:0:0:0:
448,192,45329,1,8,0:0:0:0:
192,192,45564,1,0,0:0:0:0:
320,192,45564,128,2,45798:0:0:0:0:
64,192,45798,1,8,0:0:0:0:
320,192,46033,1,0,0:0:0:0:
192,192,46033,128,2,46267:0:0:0:0:
448,192,46267,1,8,0:0:0:0:
64,192,46501,128,2,46736:0:0:0:0:
192,192,46501,1,0,0:0:0:0:
320,192,46736,1,8,0:0:0:0:
64,192,46970,1,0,0:0:0:0:
192,192,46970,1,2,0:0:0:0:
448,192,47204,1,0,0:0:0:0:
320,192,47263,1,0,0:0:0:0:
192,192,47322,1,0,0:0:0:0:
64,192,47380,1,0,0:0:0:0:
320,192,47439,1,10,0:0:0:0:
448,192,47439,1,0,0:0:0:0:
64,192,47673,1,0,0:0:0:0:
192,192,47673,1,8,0:0:0:0:
320,192,47790,1,8,0:0:0:0:
448,192,47790,1,0,0:0:0:0:
192,192,47908,1,4,0:0:0:0:
64,192,47908,1,2,0:0:0:0:
448,192,48142,128,0,48376:0:0:0:0:
320,192,48376,1,8,0:0:0:0:
64,192,48376,1,8,0:0:0:0:
192,192,48611,128,0,48845:0:0:0:0:
320,192,48845,1,2,0:0:0:0:
448,192,48845,1,2,0:0:0:0:
64,192,49079,128,0,49314:0:0:0:0:
192,192,49314,1,8,0:0:0:0:
448,192,49314,1,8,0:0:0:0:
320,192,49548,128,0,49783:0:0:0:0:
64,192,49783,1,2,0:0:0:0:
192,192,49783,1,2,0:0:0:0:
320,192,50017,1,0,0:0:0:0:
64,192,50251,1,8,0:0:0:0:
448,192,50251,1,8,0:0:0:0:
320,192,50486,1,8,0:0:0:0:
64,192,50603,1,8,0:0:0:0:
320,192,50720,1,10,0:0:0:0:
192,192,50837,1,10,0:0:0:0:
448,192,50954,1,0,0:0:0:0:
192,192,51072,1,0,0:0:0:0:
320,192,51189,1,8,0:0:0:0:
448,192,51189,1,8,0:0:0:0:
192,192,51423,1,8,0:0:0:0:
320,192,51540,1,8,0:0:0:0:
64,192,51658,128,0,51892:0:0:0:0:
448,192,51658,128,0,51892:0:0:0:0:
192,192,52126,128,8,52361:0:0:0:0:
448,192,52126,128,0,52361:0:0:0:0:
64,192,52595,128,2,52829:0:0:0:0:
320,192,52595,128,0,52829:0:0:0:0:
64,192,53064,128,0,53298:0:0:0:0:
448,192,53064,128,0,53298:0:0:0:0:
320,192,53533,1,2,0:0:0:0:
448,192,53533,1,0,0:0:0:0:
192,192,53650,1,0,0:0:0:0:
320,192,53767,1,0,0:0:0:0:
448,192,53884,1,0,0:0:0:0:
192,192,54001,1,8,0:0:0:0:
64,192,54001,128,0,54236:0:0:0:0:
320,192,54236,1,0,0:0:0:0:
64,192,54470,1,0,0:0:0:0:
192,192,54470,128,2,54704:0:0:0:0:
448,192,54704,1,0,0:0:0:0:
64,192,54939,1,0,0:0:0:0:
192,192,54939,1,8,0:0:0:0:
320,192,55173,1,8,0:0:0:0:
448,192,55173,1,0,0:0:0:0:
64,192,55290,1,0,0:0:0:0:
192,192,55290,1,8,0:0:0:0:
320,192,55408,1,4,0:0:0:0:
448,192,55408,1,2,0:0:0:0:
64,192,55642,128,0,55876:0:0:0:0:
192,192,55876,1,8,0:0:0:0:
448,192,55876,1,8,0:0:0:0:
320,192,56111,128,0,56345:0:0:0:0:
192,192,56345,1,2,0:0:0:0:
64,192,56345,1,2,0:0:0:0:
448,192,56579,128,0,56814:0:0:0:0:
320,192,56814,1,8,0:0:0:0:
64,192,56814,1,8,0:0:0:0:
192,192,57048,128,0,57283:0:0:0:0:
320,192,57283,1,2,0:0:0:0:
448,192,57283,1,2,0:0:0:0:
192,192,57517,1,0,0:0:0:0:
64,192,57751,1,8,0:0:0:0:
448,192,57751,1,8,0:0:0:0:
320,192,57986,1,8,0:0:0:0:
448,192,58103,1,8,0:0:0:0:
192,192,58220,1,10,0:0:0:0:
320,192,58337,1,10,0:0:0:0:
64,192,58454,1,0,0:0:0:0:
192,192,58572,1,0,0:0:0:0:
320,192,58689,1,8,0:0:0:0:
448,192,58689,1,8,0:0:0:0:
192,192,58923,1,0,0:0:0:0:
320,192,58923,1,8,0:0:0:0:
192,192,59158,1,4,0:0:0:0:
64,192,59158,1,0,0:0:0:0:
448,192,59275,1,0,0:0:0:0:
320,192,59392,1,0,0:0:0:0:
192,192,59509,1,0,0:0:0:0:
64,192,59626,1,8,0:0:0:0:
448,192,59626,128,8,59861:0:0:0:0:
192,192,59861,128,8,60095:0:0:0:0:
448,192,60095,1,0,0:0:0:0:
320,192,60095,1,2,0:0:0:0:
64,192,60212,1,0,0:0:0:0:
192,192,60329,1,0,0:0:0:0:
320,192,60447,1,0,0:0:0:0:
64,192,60564,1,8,0:0:0:0:
448,192,60564,1,8,0:0:0:0:
64,192,60798,1,8,0:0:0:0:
192,192,60915,1,8,0:0:0:0:
320,192,61033,1,2,0:0:0:0:
448,192,61033,128,0,61267:0:0:0:0:
64,192,61267,1,0,0:0:0:0:
192,192,61501,1,8,0:0:0:0:
320,192,61501,128,8,61736:0:0:0:0:
448,192,61736,1,0,0:0:0:0:
64,192,61970,1,2,0:0:0:0:
192,192,61970,128,2,62204:0:0:0:0:
320,192,62204,1,0,0:0:0:0:
64,192,62439,1,8,0:0:0:0:
192,192,62439,1,2,0:0:0:0:
320,192,62673,1,0,0:0:0:0:
448,192,62673,128,12,64548:0:0:0:0:
64,192,63142,1,0,0:0:0:0:
192,192,63376,1,8,0:0:0:0:
320,192,63376,1,0,0:0:0:0:
64,192,63611,1,0,0:0:0:0:
192,192,63845,1,2,0:0:0:0:
320,192,64079,1,0,0:0:0:0:
192,192,64314,1,8,0:0:0:0:
64,192,64314,1,0,0:0:0:0:
320,192,64548,1,10,0:0:0:0:
64,192,65017,1,0,0:0:0:0:
192,192,65017,1,10,0:0:0:0:
448,192,65017,1,0,0:0:0:0:
448,192,65486,1,0,0:0:0:0:
320,192,65486,1,10,0:0:0:0:
64,192,65720,1,0,0:0:0:0:
192,192,65779,1,0,0:0:0:0:
320,192,65837,1,0,0:0:0:0:
448,192,65896,1,0,0:0:0:0:
192,192,65954,1,10,0:0:0:0:
64,192,65954,1,0,0:0:0:0:
320,192,66189,1,2,0:0:0:0:
64,192,66423,1,0,0:0:0:0:
192,192,66423,1,8,0:0:0:0:
448,192,66658,1,0,0:0:0:0:
320,192,66658,1,2,0:0:0:0:
192,192,66892,1,2,0:0:0:0:
64,192,67126,1,0,0:0:0:0:
192,192,67126,1,4,0:0:0:0:
448,192,67126,1,0,0:0:0:0:
320,192,67361,1,0,0:0:0:0:
192,192,67595,128,0,67829:0:0:0:0:
448,192,67595,1,2,0:0:0:0:
320,192,67829,128,0,68064:0:0:0:0:
192,192,68064,128,8,68298:0:0:0:0:
64,192,68298,1,8,0:0:0:0:
320,192,68533,1,2,0:0:0:0:
448,192,68533,1,0,0:0:0:0:
192,192,68767,128,0,69001:0:0:0:0:
320,192,69001,128,8,69236:0:0:0:0:
448,192,69236,128,0,69704:0:0:0:0:
192,192,69470,1,2,0:0:0:0:
64,192,69470,1,0,0:0:0:0:
320,192,69704,128,0,69939:0:0:0:0:
192,192,69939,128,8,70173:0:0:0:0:
448,192,70173,1,8,0:0:0:0:
320,192,70290,1,8,0:0:0:0:
192,192,70408,1,2,0:0:0:0:
64,192,70408,1,0,0:0:0:0:
320,192,70642,1,2,0:0:0:0:
64,192,70876,1,0,0:0:0:0:
448,192,70876,1,0,0:0:0:0:
192,192,70876,1,4,0:0:0:0:
320,192,71111,1,8,0:0:0:0:
192,192,71228,1,0,0:0:0:0:
64,192,71345,1,2,0:0:0:0:
448,192,71345,1,0,0:0:0:0:
320,192,71579,1,0,0:0:0:0:
192,192,71814,1,8,0:0:0:0:
64,192,71814,1,8,0:0:0:0:
448,192,72048,1,8,0:0:0:0:
320,192,72048,128,2,72283:0:0:0:0:
192,192,72283,1,8,0:0:0:0:
64,192,72283,1,0,0:0:0:0:
448,192,72517,1,8,0:0:0:0:
320,192,72517,128,2,72751:0:0:0:0:
64,192,72751,1,8,0:0:0:0:
192,192,72751,1,0,0:0:0:0:
320,192,72986,1,8,0:0:0:0:
448,192,72986,1,2,0:0:0:0:
64,192,73220,1,0,0:0:0:0:
192,192,73279,1,0,0:0:0:0:
320,192,73337,1,0,0:0:0:0:
448,192,73396,1,0,0:0:0:0:
192,192,73454,1,8,0:0:0:0:
64,192,73454,1,2,0:0:0:0:
320,192,73689,1,8,0:0:0:0:
64,192,73923,128,4,74392:0:0:0:0:
192,192,73923,1,10,0:0:0:0:
448,192,74392,1,0,0:0:0:0:
320,192,74450,1,0,0:0:0:0:
192,192,74509,1,0,0:0:0:0:
64,192,74568,1,0,0:0:0:0:
320,192,74626,128,4,79783:0:0:0:0:
448,192,74626,128,10,79783:0:0:0:0:
