osu file format v14

[General]
AudioFilename: audio.mp3
AudioLeadIn: 0
PreviewTime: 11023
Countdown: 0
SampleSet: Normal
StackLeniency: 0.7
Mode: 0
LetterboxInBreaks: 0
WidescreenStoryboard: 1

[Editor]
Bookmarks: 357,20356,21690,32356,41690,43023,52356,53690,64356,75023,85690,96356,101690,107023,117690
DistanceSpacing: 1.2
BeatDivisor: 4
GridSize: 8
TimelineZoom: 3.700004

[Metadata]
Title:AIR RAID FROM THA UNDAGROUND
TitleUnicode:AIR RAID FROM THA UNDAGROUND
Artist:GUHROOVY
ArtistUnicode:GUHROOVY
Creator:Matrix
Version:Hard
Source:beatmania IIDX 17 SIRIUS
Tags:konami jubeat bemani beatmania sirius hardcore speedcore niva theshadowofdark mithew emu1337
BeatmapID:2295639
BeatmapSetID:1067854

[Difficulty]
HPDrainRate:5
CircleSize:4
OverallDifficulty:7
ApproachRate:8
SliderMultiplier:1.5
SliderTickRate:1

[Events]
//Background and Video events
0,0,"AIR RAID FROM THA UNDAGROUND.jpg",0,0
Video,-722,"AIR RAID.avi"
//Break Periods
2,1056,2273
2,3723,4940
2,6390,7606
2,9057,10273
//Storyboard Layer 0 (Background)
//Storyboard Layer 1 (Fail)
//Storyboard Layer 2 (Pass)
//Storyboard Layer 3 (Foreground)
//Storyboard Layer 4 (Overlay)
//Storyboard Sound Samples

[TimingPoints]
357,333.333333333333,4,2,1,55,1,0
16356,-100,4,2,1,55,0,0
21690,-90.9090909090909,4,1,1,80,0,0
53690,-90.9090909090909,4,3,1,80,0,0
75023,-133.333333333333,4,1,1,80,0,0
85190,-111.111111111111,4,1,1,80,0,0
85690,-76.9230769230769,4,2,1,80,0,0
86190,-90.9090909090909,4,2,1,80,0,0
88190,-76.9230769230769,4,2,1,80,0,0
88690,-90.9090909090909,4,2,1,80,0,0
91023,-76.9230769230769,4,2,1,80,0,0
91523,-90.9090909090909,4,2,1,80,0,0
93690,-76.9230769230769,4,2,1,80,0,0
94190,-90.9090909090909,4,2,1,80,0,0
96356,-90.9090909090909,4,1,1,80,0,1
107023,-90.9090909090909,4,1,1,80,0,1
111523,-90.9090909090909,4,1,1,80,0,1
111690,-90.9090909090909,4,1,1,80,0,1
117690,-90.9090909090909,4,1,1,80,0,0

[Colours]
Combo1 : 0,64,128
Combo2 : 0,0,255
Combo3 : 0,128,128
Combo4 : 64,0,128

[HitObjects]
73,302,357,5,0,0:0:0:0:
146,286,523,1,0,0:0:0:0:
219,270,690,1,0,0:0:0:0:
273,320,856,1,0,0:0:0:0:
73,302,3023,5,0,0:0:0:0:
91,230,3190,1,0,0:0:0:0:
144,179,3356,1,0,0:0:0:0:
162,108,3523,1,0,0:0:0:0:
472,35,5690,5,0,0:0:0:0:
463,109,5856,1,0,0:0:0:0:
454,183,6023,1,0,0:0:0:0:
445,257,6190,1,0,0:0:0:0:
80,119,8356,5,0,0:0:0:0:
100,45,8523,1,0,0:0:0:0:
173,65,8690,1,0,0:0:0:0:
154,139,8857,1,0,0:0:0:0:
486,319,11023,6,0,B|438:271|438:271|342:303,1,150,2|0,1:0|0:0,0:0:0:0:
285,287,11523,2,0,L|269:367,2,75,0|0|2,0:0|0:0|0:0,0:0:0:0:
300,213,12023,1,0,0:0:0:0:
314,139,12190,1,2,0:0:0:0:
0,26,12690,5,0,0:0:0:0:
27,98,12856,2,0,L|47:151,2,37.5,0|0|0,0:0|0:0|0:0,0:0:0:0:
149,48,13190,2,0,L|74:37,2,75,2|0|2,0:0|0:0|0:0,0:0:0:0:
223,58,13690,5,0,0:0:0:0:
297,68,13856,1,0,0:0:0:0:
371,78,14023,1,0,0:0:0:0:
387,151,14190,2,0,L|397:198,2,37.5,0|0|0,0:0|0:0|0:0,0:0:0:0:
445,88,14523,5,2,0:0:0:0:
355,4,14690,2,0,L|371:78,2,75,0|2|0,0:0|0:0|0:0,0:0:0:0:
2,277,15356,5,0,0:0:0:0:
64,235,15523,2,0,L|56:196,2,37.5,0|0|0,0:0|0:0|0:0,0:0:0:0:
131,267,15856,2,0,L|199:316,2,75,2|0|2,0:0|0:0|0:0,0:0:0:0:
256,352,16356,6,0,B|298:303|298:303|401:332,1,150,0|0,0:0|0:0,0:0:0:0:
453,344,16856,2,0,L|509:322,2,37.5,0|0|0,0:0|0:0|0:0,0:0:0:0:
436,196,17190,2,0,L|430:270,2,75,2|0|2,0:0|0:0|0:0,0:0:0:0:
443,121,17690,6,0,B|480:95|480:95|355:69,1,150,0|0,0:0|0:0,0:0:0:0:
307,46,18190,2,0,L|332:-5,2,37.5,0|0|0,0:0|0:0|0:0,0:0:0:0:
317,120,18523,2,0,L|359:222,2,75,2|0|2,0:0|0:3|0:0,0:0:0:0:
246,92,19023,6,0,B|185:97|185:97|169:86|169:86|66:94,1,150,0|0,0:0|0:0,0:0:0:0:
24,96,19523,2,0,L|-10:47,2,37.5,0|0|0,0:0|0:0|0:0,0:0:0:0:
63,159,19856,2,0,L|28:247,2,75,2|0|2,0:0|0:0|0:0,0:0:0:0:
174,265,20356,5,2,0:1:0:0:
335,112,20690,1,2,0:1:0:0:
144,192,21023,1,2,0:1:0:0:
368,192,21357,1,2,0:1:0:0:
192,40,21690,6,0,L|232:136,1,82.5000025177003,4|0,0:0|0:0,0:0:0:0:
256,192,22023,1,8,0:0:0:0:
293,265,22190,1,0,0:0:0:0:
309,273,22273,1,0,0:0:0:0:
325,281,22356,1,0,0:0:0:0:
400,313,22523,2,0,L|504:357,2,82.5000025177003,2|8|2,0:0|0:0|0:0,0:0:0:0:
332,368,23023,2,0,L|256:335,1,82.5000025177003,0|0,0:0|0:0,0:0:0:0:
104,256,23356,5,8,0:0:0:0:
176,296,23523,1,0,0:0:0:0:
184,280,23606,1,0,0:0:0:0:
192,264,23690,1,0,0:0:0:0:
56,192,23856,2,0,B|24:216|24:216|24:272,1,82.5000025177003,8|8,0:0|0:0,0:0:0:0:
136,184,24190,1,8,0:0:0:0:
48,72,24356,6,0,B|88:112|88:112|208:80,1,165.000005035401,0|8,0:0|0:0,0:0:0:0:
272,72,24856,1,0,0:0:0:0:
280,88,24940,1,0,0:0:0:0:
288,104,25023,1,0,0:0:0:0:
336,168,25190,1,2,0:0:0:0:
416,144,25356,2,0,L|432:64,1,82.5000025177003,8|2,0:0|0:0,0:0:0:0:
456,256,25690,2,0,B|400:224|400:224|272:280,1,165.000005035401,0|8,0:0|0:0,0:0:0:0:
240,304,26190,1,0,0:0:0:0:
232,320,26273,1,0,0:0:0:0:
224,336,26356,1,0,0:0:0:0:
104,336,26523,6,0,B|144:320|144:320|168:264,1,82.5000025177003,8|8,0:0|0:0,0:0:0:0:
184,208,26856,1,8,0:0:0:0:
112,160,27023,2,0,B|80:136|80:136|232:112,1,165.000005035401,0|8,0:0|0:0,0:0:0:0:
285,105,27523,1,0,0:0:0:0:
293,121,27606,1,0,0:0:0:0:
301,137,27690,1,0,0:0:0:0:
341,209,27856,1,2,0:0:0:0:
381,281,28023,2,0,L|493:297,2,82.5000025177003,8|2|0,0:0|0:0|0:0,0:0:0:0:
307,17,28690,5,8,0:0:0:0:
267,89,28856,1,0,0:0:0:0:
259,105,28939,1,0,0:0:0:0:
251,121,29023,1,0,0:0:0:0:
259,217,29190,2,0,B|227:201|227:201|163:225,1,82.5000025177003,8|8,0:0|0:0,0:0:0:0:
107,193,29523,1,8,0:0:0:0:
48,304,29690,6,0,B|120:280|120:280|176:360,1,165.000005035401,0|8,0:0|0:0,0:0:0:0:
464,304,30356,2,0,B|392:280|392:280|336:360,1,165.000005035401,0|8,0:0|0:0,0:0:0:0:
40,90,31023,5,8,0:0:0:0:
71,167,31190,1,8,0:0:0:0:
104,243,31356,1,8,0:0:0:0:
48,304,31523,1,8,0:0:0:0:
104,243,31690,2,0,B|144:200|144:200|208:331,1,165.000005035401,2|0,0:3|0:0,0:0:0:0:
400,83,32356,6,0,B|436:101|436:101|444:143,1,82.5000025177003,4|0,0:0|0:0,0:0:0:0:
459,232,32690,2,0,B|467:274|467:274|440:304,2,82.5000025177003,8|0|0,0:0|0:0|0:0,0:0:0:0:
286,171,33190,6,0,B|278:129|278:129|305:99,2,82.5000025177003,2|8|2,0:0|0:0|0:0,0:0:0:0:
302,260,33690,2,0,B|309:301|309:301|345:319,1,82.5000025177003,0|0,0:0|0:0,0:0:0:0:
375,201,34023,5,8,0:0:0:0:
356,120,34190,1,0,0:0:0:0:
351,104,34273,1,0,0:0:0:0:
347,89,34356,1,0,0:0:0:0:
404,22,34523,2,0,L|499:66,2,82.5000025177003,8|8|8,0:0|0:0|0:0,0:0:0:0:
342,74,35023,6,0,B|400:104|400:104|280:168,1,165.000005035401,0|8,0:0|0:0,0:0:0:0:
237,187,35523,2,0,L|174:162,2,41.2500012588501,0|0|0,0:0|0:0|0:0,0:0:0:0:
306,234,35856,2,0,L|316:315,2,82.5000025177003,2|8|2,0:0|0:0|0:0,0:0:0:0:
231,271,36356,2,0,L|241:352,1,82.5000025177003,0|0,0:0|0:0,0:0:0:0:
123,341,36690,5,8,0:0:0:0:
63,280,36856,1,0,0:0:0:0:
58,264,36940,1,0,0:0:0:0:
54,249,37023,1,0,0:0:0:0:
105,176,37190,2,0,B|136:200|136:200|148:247,2,82.5000025177003,8|8|2,0:0|0:0|0:3,0:0:0:0:
32,125,37690,1,0,0:0:0:0:
185,52,38023,5,8,0:0:0:0:
105,36,38190,2,0,L|57:-20,2,41.2500012588501,0|0|0,0:0|0:0|0:0,0:0:0:0:
89,116,38523,2,0,L|25:168,1,82.5000025177003,2|8,0:0|0:0,0:0:0:0:
169,132,38856,1,2,0:0:0:0:
80,232,39023,2,0,B|120:200|120:200|240:264,1,165.000005035401,0|8,0:0|0:0,0:0:0:0:
297,283,39523,1,0,0:0:0:0:
305,267,39606,1,0,0:0:0:0:
313,251,39690,1,0,0:0:0:0:
374,170,39856,2,0,L|401:251,2,82.5000025177003,8|8|0,0:0|0:0|0:0,0:0:0:0:
328,53,40356,6,0,B|341:92|341:92|224:69,1,123.75000377655,0|0,0:0|0:0,0:0:0:0:
241,115,40690,2,0,L|119:89,1,123.75000377655,8|0,0:0|0:0,0:0:0:0:
96,126,41023,2,0,B|14:110|14:110|27:149,1,123.75000377655,8|8,0:0|0:0,0:0:0:0:
44,199,41356,2,0,L|166:225,1,123.75000377655,0|0,0:0|0:0,0:0:0:0:
210,235,41690,5,0,0:0:0:0:
466,215,42023,1,0,2:0:0:0:
348,352,42356,1,0,2:0:0:0:
328,98,42689,1,0,2:0:0:0:
484,45,43023,5,4,0:0:0:0:
465,153,43245,2,0,L|453:226,1,55.0000016784668,0|2,0:0|0:3,0:0:0:0:
439,321,43579,1,0,0:0:0:0:
439,321,43690,2,0,L|351:307,1,55.0000016784668,0|0,0:0|0:0,0:0:0:0:
327,303,43912,2,0,L|239:289,1,55.0000016784668,0|2,0:0|0:3,0:0:0:0:
167,313,44245,6,0,L|157:367,1,55.0000016784668,0|0,0:0|0:0,0:0:0:0:
180,234,44579,2,0,L|189:179,1,55.0000016784668,0|2,0:0|0:3,0:0:0:0:
88,16,44912,5,0,0:0:0:0:
88,16,45023,2,0,L|100:89,1,55.0000016784668,0|2,0:0|0:0,0:0:0:0:
112,152,45356,1,2,0:3:0:0:
242,200,45579,2,0,L|172:173,1,55.0000016784668,2|0,0:0|0:0,0:0:0:0:
5,240,45912,2,0,L|62:193,1,55.0000016784668,0|2,0:0|0:3,0:0:0:0:
142,270,46245,5,0,0:0:0:0:
142,270,46356,2,0,L|154:343,1,55.0000016784668,0|0,0:0|0:0,0:0:0:0:
256,352,46690,1,2,0:3:0:0:
361,324,46912,2,0,L|370:270,1,55.0000016784668,0|0,0:0|0:0,0:0:0:0:
256,208,47245,2,0,L|256:264,1,55.0000016784668,0|2,0:0|0:3,0:0:0:0:
256,120,47579,5,0,0:0:0:0:
256,120,47690,2,0,L|256:64,1,55.0000016784668,0|2,0:0|0:0,0:0:0:0:
152,32,48023,1,2,0:3:0:0:
48,64,48245,2,0,L|48:128,1,55.0000016784668,2|0,0:0|0:0,0:0:0:0:
152,176,48579,2,0,L|152:104,1,55.0000016784668,0|2,0:0|0:3,0:0:0:0:
104,262,48912,5,0,0:0:0:0:
104,262,49023,2,0,L|48:326,1,55.0000016784668,0|0,0:0|0:0,0:0:0:0:
208,262,49356,1,2,0:3:0:0:
312,262,49579,2,0,L|368:326,1,55.0000016784668,0|0,0:0|0:0,0:0:0:0:
259,176,49912,2,0,L|259:96,1,55.0000016784668,0|2,0:0|0:3,0:0:0:0:
329,37,50245,5,0,0:0:0:0:
329,37,50356,2,0,L|386:126,1,55.0000016784668,0|2,0:0|0:0,0:0:0:0:
423,172,50690,1,2,0:3:0:0:
493,262,50912,5,2,0:0:0:0:
493,262,51023,2,0,L|436:351,1,55.0000016784668,0|0,0:0|0:0,0:0:0:0:
413,318,51245,2,0,L|356:407,1,55.0000016784668,0|2,0:0|0:3,0:0:0:0:
237,326,51579,5,0,0:0:0:0:
237,326,51690,2,0,L|294:237,1,55.0000016784668,0|0,0:0|0:0,0:0:0:0:
317,270,51912,2,0,L|374:181,1,55.0000016784668,0|2,0:0|0:3,0:0:0:0:
412,135,52245,6,0,L|355:46,1,55.0000016784668,0|0,0:0|0:0,0:0:0:0:
87,43,53690,6,0,L|191:27,1,82.5000025177003,4|0,1:1|0:1,0:0:0:0:
121,118,54023,2,0,L|17:134,1,82.5000025177003,8|0,0:1|0:1,0:0:0:0:
200,107,54356,2,0,B|240:115|240:115|160:243,1,165.000005035401,0|8,0:1|0:1,0:0:0:0:
136,291,54856,1,0,0:1:0:0:
222,288,55023,6,0,B|290:240|290:240|360:289,1,165.000005035401,0|8,1:1|0:1,0:0:0:0:
476,360,55523,2,0,B|440:335|440:335|436:270,1,82.5000025177003,0|0,1:1|0:1,0:0:0:0:
433,213,55856,1,0,1:1:0:0:
366,164,56023,2,0,L|279:102,1,82.5000025177003,8|0,0:1|0:1,0:0:0:0:
192,79,56356,6,0,L|159:-35,2,82.5000025177003,0|0|8,1:1|0:1|0:1,0:0:0:0:
158,162,56856,2,0,L|98:104,2,82.5000025177003,0|0|0,0:1|0:1|1:1,0:0:0:0:
92,231,57356,2,0,L|172:250,1,82.5000025177003,8|0,0:1|0:1,0:0:0:0:
203,327,57690,6,0,B|248:363|248:363|339:289,1,165.000005035401,0|8,1:1|0:1,0:0:0:0:
355,221,58190,2,0,L|340:139,1,82.5000025177003,0|0,1:1|0:1,0:0:0:0:
409,284,58523,2,0,L|486:311,1,82.5000025177003,0|8,1:1|0:1,0:0:0:0:
373,21,59023,6,0,B|333:61|333:61|205:37,1,165.000005035401,0|8,1:1|0:1,0:0:0:0:
163,91,59523,2,0,L|187:203,1,82.5000025177003,0|0,0:1|0:1,0:0:0:0:
96,157,59856,2,0,L|120:269,1,82.5000025177003,0|8,1:1|0:1,0:0:0:0:
131,315,60190,1,0,0:1:0:0:
59,355,60356,2,0,B|107:331|107:331|227:363,1,165.000005035401,0|8,1:1|0:1,0:0:0:0:
279,308,60856,6,0,B|295:351|295:351|354:365,1,82.5000025177003,0|0,1:1|0:1,0:0:0:0:
412,373,61190,1,0,1:1:0:0:
466,311,61356,2,0,B|450:268|450:268|391:254,1,82.5000025177003,8|0,0:1|0:1,0:0:0:0:
354,155,61690,6,0,L|322:267,1,82.5000025177003,0|0,1:1|0:1,0:0:0:0:
276,136,62023,2,0,L|308:24,1,82.5000025177003,8|0,0:1|0:1,0:0:0:0:
372,80,62356,2,0,L|451:102,1,82.5000025177003,0|0,0:1|1:1,0:0:0:0:
252,208,62690,2,0,L|172:185,1,82.5000025177003,8|0,0:1|0:1,0:0:0:0:
99,223,63023,2,0,B|33:234|33:234|84:136,1,165.000005035401,0|8,1:1|0:1,0:0:0:0:
132,34,63523,2,0,B|114:75|114:75|237:52,1,165.000005035401,0|0,1:1|1:1,0:0:0:0:
314,41,64023,2,0,L|297:140,1,82.5000025177003,8|0,0:1|0:1,0:0:0:0:
369,167,64356,6,0,B|403:157|403:157|471:178,1,82.5000025177003,4|0,1:1|0:1,0:0:0:0:
295,204,64690,2,0,B|261:214|261:214|193:193,1,82.5000025177003,8|0,0:1|0:1,0:0:0:0:
138,171,65023,2,0,L|121:270,2,82.5000025177003,0|0|8,1:1|1:1|0:1,0:0:0:0:
149,89,65523,1,0,0:1:0:0:
80,42,65690,6,0,B|40:9|40:9|54:159,1,165.000005035401,2|8,1:1|0:1,0:0:0:0:
149,89,66190,2,0,B|203:78|203:78|221:61|221:61|309:43,1,165.000005035401,2|2,0:1|1:1,0:0:0:0:
384,24,66690,1,10,0:1:0:0:
433,190,67023,6,0,L|513:166,2,82.5000025177003,0|0|8,1:1|0:1|0:1,0:0:0:0:
369,243,67523,2,0,L|289:219,2,82.5000025177003,0|0|0,0:1|1:1|1:1,0:0:0:0:
447,272,68023,2,0,L|455:368,1,82.5000025177003,8|0,0:1|0:1,0:0:0:0:
351,360,68356,6,0,B|367:320|367:320|231:352,1,165.000005035401,2|8,1:1|0:1,0:0:0:0:
167,360,68856,2,0,B|127:320|127:320|167:208,1,165.000005035401,2|2,0:1|1:1,0:0:0:0:
50,137,69356,2,0,B|84:232|84:232,1,82.5000025177003,10|0,0:1|0:1,0:0:0:0:
30,280,69690,6,0,B|-4:375|-4:375,2,82.5000025177003,0|0|8,1:1|0:1|0:1,0:0:0:0:
166,359,70190,2,0,B|184:355|85:374,2,82.5000025177003,0|0|0,0:1|1:1|1:1,0:0:0:0:
182,245,70690,2,0,B|170:230|231:303,1,82.5000025177003,8|0,0:1|0:1,0:0:0:0:
292,359,71023,6,0,B|343:377|343:377|408:257,1,165.000005035401,2|8,1:1|0:1,0:0:0:0:
473,251,71523,2,0,B|422:269|422:269|357:149,1,165.000005035401,2|2,0:1|1:1,0:0:0:0:
393,92,72023,2,0,L|279:69,1,82.5000025177003,10|0,0:1|0:1,0:0:0:0:
241,119,72356,6,0,B|207:96|207:96|198:28,1,82.5000025177003,0|0,1:1|0:1,0:0:0:0:
119,39,72690,2,0,B|96:73|96:73|28:82,1,82.5000025177003,8|0,0:1|0:1,0:0:0:0:
41,159,73023,2,0,B|75:182|75:182|84:250,1,82.5000025177003,0|0,1:1|1:1,0:0:0:0:
163,239,73357,2,0,B|186:205|186:205|254:196,1,82.5000025177003,8|0,0:1|0:1,0:0:0:0:
309,193,73690,5,2,1:1:0:0:
416,320,74023,1,8,0:1:0:0:
492,289,74190,2,0,L|510:350,2,41.2500012588501,0|0|0,1:1|1:1|1:1,0:0:0:0:
425,239,74523,2,0,L|435:131,2,82.5000025177003,0|8|8,1:1|0:1|0:1,0:0:0:0:
416,320,75023,5,4,0:0:0:0:
288,360,75356,1,8,0:0:0:0:
160,320,75690,2,0,B|128:256|128:256|72:232,2,112.500004291535,0|8|0,0:0|0:0|0:0,0:0:0:0:
224,272,76523,2,0,L|216:200,1,56.2500021457673,0|8,0:0|0:0,0:0:0:0:
208,120,76940,5,0,0:0:0:0:
208,120,77023,1,0,0:0:0:0:
144,104,77190,1,0,0:0:0:0:
80,88,77356,1,8,0:0:0:0:
16,72,77523,2,0,L|21:45,2,28.1250010728836,8|8|8,0:0|0:0|0:0,0:0:0:0:
208,120,78023,5,8,0:0:0:0:
304,80,78273,1,0,0:0:0:0:
304,80,78356,1,0,0:0:0:0:
320,144,78523,1,0,0:0:0:0:
336,208,78689,1,8,0:0:0:0:
352,272,78856,1,0,0:0:0:0:
368,336,79023,1,0,0:0:0:0:
472,115,79356,6,0,B|480:43,2,56.2500021457673,8|0|0,0:0|0:0|0:0,0:0:0:0:
465,182,79856,1,0,0:0:0:0:
416,148,80023,1,8,0:0:0:0:
416,148,80106,1,8,0:0:0:0:
416,148,80190,2,0,L|368:140,2,28.1250010728836,8|8|0,0:0|0:0|0:0,0:0:0:0:
328,44,80690,5,8,0:0:0:0:
279,169,81023,1,0,0:0:0:0:
195,64,81356,2,0,B|149:63|149:63|125:53|125:53|60:52|60:52,2,112.500004291535,8|0|8,0:0|0:0|0:0,0:0:0:0:
148,154,82273,5,0,0:0:0:0:
148,154,82356,1,0,0:0:0:0:
131,219,82523,1,0,0:0:0:0:
114,284,82690,2,0,L|67:299,2,28.1250010728836,8|8|8,0:0|0:0|0:0,0:0:0:0:
179,268,83023,6,0,B|211:260|211:260|275:317,1,112.500004291535,0|8,0:0|0:0,0:0:0:0:
347,384,83606,1,0,0:0:0:0:
347,384,83690,1,0,0:0:0:0:
409,358,83856,2,0,L|455:364,4,28.1250010728836,0|0|8|0|0,0:0|0:0|0:0|0:0|0:0,0:0:0:0:
355,316,84356,5,0,0:0:0:0:
418,291,84523,1,0,0:0:0:0:
364,249,84690,1,8,0:0:0:0:
446,189,84940,1,0,0:0:0:0:
446,189,85023,1,0,0:0:0:0:
489,120,85190,2,0,B|442:129|442:129|426:120|426:120|350:134,1,134.999995880127,0|0,0:0|0:0,0:0:0:0:
248,90,85690,6,0,L|240:205,1,97.4999955368044,4|0,1:0|0:0,0:0:0:0:
241,228,85940,1,0,0:0:0:0:
241,228,86023,1,2,0:0:0:0:
277,327,86190,6,0,B|219:316|219:316|157:357,1,123.75000377655,0|0,0:0|0:0,0:0:0:0:
124,381,86523,2,0,B|138:294|53:272,1,123.75000377655,2|0,0:0|0:0,0:0:0:0:
26,267,86856,1,2,0:0:0:0:
2,161,87023,6,0,P|46:176|97:152,1,82.5000025177003,0|0,0:0|0:0,0:0:0:0:
126,146,87273,1,0,0:0:0:0:
126,146,87356,1,2,0:0:0:0:
184,224,87523,2,0,B|248:184|312:240,1,123.75000377655,0|0,0:0|0:0,0:0:0:0:
336,264,87856,2,0,B|336:232|336:232|392:184,1,82.5000025177003,0|2,0:0|0:0,0:0:0:0:
456,112,88190,6,0,L|472:232,1,97.4999955368044,0|4,1:2|1:0,0:0:0:0:
485,300,88523,1,0,0:0:0:0:
485,300,88606,1,0,0:0:0:0:
485,300,88690,1,2,0:0:0:0:
398,362,88856,6,0,B|359:300|279:338,1,123.75000377655,0|0,0:0|0:0,0:0:0:0:
257,371,89190,2,0,B|148:342,1,82.5000025177003,2|0,0:0|0:0,0:0:0:0:
100,286,89523,2,0,B|208:257,1,82.5000025177003,2|0,0:0|0:0,0:0:0:0:
275,237,89856,2,0,L|349:215,2,41.2500012588501,0|0|2,0:0|0:0|0:0,0:0:0:0:
408,200,90190,6,0,B|384:152|384:152|416:72,1,123.75000377655,0|0,0:0|0:0,0:0:0:0:
432,40,90523,1,2,0:0:0:0:
336,56,90690,2,0,L|272:24,3,41.2500012588501,2|2|2|2,1:2|0:0|0:0|0:0,0:0:0:0:
248,16,91023,6,0,L|216:152,1,97.4999955368044,0|0,1:0|0:0,0:0:0:0:
218,153,91273,1,0,0:0:0:0:
218,153,91356,1,2,0:0:0:0:
210,270,91523,6,0,B|223:331|223:331|177:384,1,123.75000377655,0|0,0:0|0:0,0:0:0:0:
135,366,91856,2,0,B|121:304|121:304|167:251,1,123.75000377655,2|0,0:0|0:0,0:0:0:0:
197,224,92190,1,2,0:0:0:0:
267,154,92356,1,0,0:0:0:0:
324,73,92523,2,0,L|303:37,2,41.2500012588501,0|0|2,0:0|0:0|0:0,0:0:0:0:
204,30,92856,6,0,P|195:74|140:116,1,82.5000025177003,0|0,0:0|0:0,0:0:0:0:
141,129,93106,1,0,0:0:0:0:
141,129,93190,1,0,0:0:0:0:
45,155,93356,2,0,B|67:192|67:192|62:253,1,82.5000025177003,4|0,0:0|0:0,0:0:0:0:
10,336,93690,6,0,L|134:303,1,97.4999955368044,0|0,1:0|0:0,0:0:0:0:
145,304,93940,1,0,0:0:0:0:
145,304,94023,1,2,0:0:0:0:
238,338,94190,6,0,B|283:270|374:321,1,123.75000377655,0|0,0:0|0:0,0:0:0:0:
385,338,94523,2,0,B|452:371|493:308,1,123.75000377655,2|0,0:0|0:0,0:0:0:0:
508,262,94856,2,0,L|482:164,1,82.5000025177003,2|0,0:0|0:0,0:0:0:0:
480,24,96356,5,12,0:0:0:0:
384,56,96523,1,8,0:0:0:0:
376,72,96606,1,0,0:0:0:0:
368,88,96690,1,8,0:0:0:0:
272,104,96856,2,0,L|260:203,1,82.5000025177003,8|8,0:0|0:0,0:0:0:0:
324,212,97190,2,0,L|390:261,1,82.5000025177003,8|8,0:0|0:0,0:0:0:0:
269,253,97523,2,0,L|193:285,1,82.5000025177003,8|8,0:0|0:0,0:0:0:0:
120,352,97856,5,8,0:0:0:0:
112,336,97940,1,0,0:0:0:0:
104,320,98023,1,8,0:0:0:0:
64,232,98190,2,0,B|40:184|40:184|83:81,1,165.000005035401,8|8,0:0|0:0,0:0:0:0:
160,16,98690,2,0,L|176:104,2,82.5000025177003,8|8|8,0:0|0:0|0:0,0:0:0:0:
264,48,99190,5,8,0:0:0:0:
280,40,99273,1,0,0:0:0:0:
296,32,99356,1,8,0:0:0:0:
392,40,99523,2,0,L|453:95,1,82.5000025177003,8|8,0:0|0:0,0:0:0:0:
368,152,99856,2,0,L|393:230,1,82.5000025177003,8|8,0:0|0:0,0:0:0:0:
293,234,100190,2,0,L|275:314,1,82.5000025177003,8|8,0:0|0:0,0:0:0:0:
373,330,100523,2,0,L|397:394,2,41.2500012588501,8|0|8,0:0|0:0|0:0,0:0:0:0:
274,314,100856,2,0,P|235:326|198:378,1,82.5000025177003,8|8,0:0|0:0,0:0:0:0:
40,215,101356,5,8,0:0:0:0:
44,199,101440,1,8,0:0:0:0:
48,184,101523,1,8,0:0:0:0:
52,168,101606,1,8,0:0:0:0:
56,152,101690,1,12,0:0:0:0:
153,136,101857,6,0,L|188:228,1,82.5000025177003,8|8,0:0|0:0,0:0:0:0:
250,140,102190,2,0,L|279:62,1,82.5000025177003,8|8,0:0|0:0,0:0:0:0:
297,29,102440,1,0,0:0:0:0:
297,29,102523,2,0,L|332:121,1,82.5000025177003,8|8,0:0|0:0,0:0:0:0:
402,170,102856,2,0,L|415:88,1,82.5000025177003,8|8,0:0|0:0,0:0:0:0:
499,192,103190,2,0,L|446:255,1,82.5000025177003,8|8,0:0|0:0,0:0:0:0:
454,353,103523,6,0,B|468:313|468:313|344:335,1,165.000005035401,8|8,0:0|0:0,0:0:0:0:
257,291,104023,2,0,L|233:369,2,82.5000025177003,8|8|8,0:0|0:0|0:0,0:0:0:0:
288,200,104523,1,8,0:0:0:0:
280,184,104606,1,0,0:0:0:0:
272,168,104690,1,8,0:0:0:0:
336,88,104856,2,0,B|368:96|368:96|392:138,1,82.5000025177003,8|8,0:0|0:0,0:0:0:0:
237,69,105190,2,0,B|205:61|205:61|173:5,1,82.5000025177003,8|8,0:0|0:0,0:0:0:0:
104,82,105523,2,0,L|80:202,1,82.5000025177003,8|8,0:0|0:0,0:0:0:0:
104,306,106023,6,0,L|112:354,3,41.2500012588501
76,274,106356,2,0,L|30:256,3,41.2500012588501,8|8|8|8,0:0|0:0|0:0|0:0,0:0:0:0:
118,266,106690,2,0,L|155:235,3,41.2500012588501,4|0|0|0,0:0|0:0|0:0|0:0,0:0:0:0:
187,206,107023,5,12,0:0:0:0:
280,232,107190,1,8,0:0:0:0:
288,248,107273,1,0,0:0:0:0:
296,264,107356,2,0,L|320:312,2,41.2500012588501,8|0|8,0:0|0:0|0:0,0:0:0:0:
384,224,107690,1,8,0:0:0:0:
393,209,107773,1,0,0:0:0:0:
403,194,107856,2,0,B|424:160|424:160|496:136,1,82.5000025177003,8|8,0:0|0:0,0:0:0:0:
464,56,108190,6,0,B|423:42|423:42|402:8,1,82.5000025177003,8|8,0:0|0:0,0:0:0:0:
312,56,108523,1,8,0:0:0:0:
304,72,108606,1,0,0:0:0:0:
296,88,108689,2,0,L|272:136,2,41.2500012588501,8|0|8,0:0|0:0|0:0,0:0:0:0:
218,25,109023,1,8,0:0:0:0:
178,115,109190,2,0,B|159:149|159:149|110:159,1,82.5000025177003,8|8,0:0|0:0,0:0:0:0:
72,172,109440,1,0,0:0:0:0:
72,172,109523,2,0,B|29:180|29:180|11:215,1,82.5000025177003,8|8,0:0|0:0,0:0:0:0:
66,297,109856,5,8,0:0:0:0:
68,315,109939,1,0,0:0:0:0:
70,333,110023,2,0,L|76:386,2,41.2500012588501,8|0|8,0:0|0:0|0:0,0:0:0:0:
168,315,110356,1,8,0:0:0:0:
265,298,110523,2,0,L|339:332,1,82.5000025177003,8|8,0:0|0:0,0:0:0:0:
308,208,110856,2,0,L|233:173,1,82.5000025177003,8|8,0:0|0:0,0:0:0:0:
144,120,111190,5,8,0:0:0:0:
136,104,111273,1,0,0:0:0:0:
128,88,111356,2,0,L|40:56,2,82.5000025177003,8|8|0,0:0|0:0|0:0,0:0:0:0:
472,330,112356,5,12,0:0:0:0:
512,242,112523,2,0,B|528:210|528:210|464:162,1,82.5000025177003,8|8,0:0|0:0,0:0:0:0:
393,203,112857,2,0,L|408:122,1,82.5000025177003,8|8,0:0|0:0,0:0:0:0:
320,266,113190,2,0,L|304:354,1,82.5000025177003,8|8,0:0|0:0,0:0:0:0:
256,192,113523,1,8,0:0:0:0:
256,176,113606,1,0,0:0:0:0:
256,160,113690,1,8,0:0:0:0:
192,266,113856,2,0,L|208:354,1,82.5000025177003,8|8,0:0|0:0,0:0:0:0:
118,203,114190,2,0,L|104:122,1,82.5000025177003,8|8,0:0|0:0,0:0:0:0:
0,242,114523,2,0,B|-16:210|-16:210|21:181,2,82.5000025177003,8|2|2,0:0|1:0|1:0,0:0:0:0:
40,330,115023,5,8,0:0:0:0:
136,306,115190,2,0,L|182:325,3,41.2500012588501,8|0|8|8,0:0|0:0|0:0|0:0,0:0:0:0:
222,335,115523,2,0,B|251:313|251:313|323:321,1,82.5000025177003,8|8,0:0|0:0,0:0:0:0:
349,328,115773,1,8,0:0:0:0:
349,328,115856,2,0,B|394:333|394:333|423:311,1,82.5000025177003,8|8,0:0|0:0,0:0:0:0:
496,243,116190,1,8,0:0:0:0:
401,213,116356,6,0,B|451:218|451:218|494:198|500:134|463:106|463:106|375:97|375:97|308:203|308:203|228:194|228:194|183:166|190:102|240:83|240:83|312:91,1,660.000020141602,8|4,0:0|0:0,0:0:0:0:
