osu file format v14

[General]
AudioFilename: audio.mp3
AudioLeadIn: 0
PreviewTime: 11023
Countdown: 0
SampleSet: Soft
StackLeniency: 0.4
Mode: 0
LetterboxInBreaks: 0
WidescreenStoryboard: 1

[Editor]
Bookmarks: 357,20356,21690,32356,41690,43023,52356,53690,64356,75023,85690,96356,101690,107023,117690
DistanceSpacing: 1.5
BeatDivisor: 4
GridSize: 8
TimelineZoom: 4.200004

[Metadata]
Title:AIR RAID FROM THA UNDAGROUND
TitleUnicode:AIR RAID FROM THA UNDAGROUND
Artist:GUHROOVY
ArtistUnicode:GUHROOVY
Creator:Matrix
Version:Extreme
Source:beatmania IIDX 17 SIRIUS
Tags:konami jubeat bemani beatmania sirius hardcore speedcore niva theshadowofdark mithew emu1337
BeatmapID:2272299
BeatmapSetID:1067854

[Difficulty]
HPDrainRate:5
CircleSize:5
OverallDifficulty:8
ApproachRate:9
SliderMultiplier:1.9
SliderTickRate:1

[Events]
//Background and Video events
0,0,"AIR RAID FROM THA UNDAGROUND.jpg",0,0
Video,-722,"AIR RAID.avi"
//Break Periods
2,1057,2423
2,3723,5090
2,6389,7756
2,9056,10423
//Storyboard Layer 0 (Background)
//Storyboard Layer 1 (Fail)
//Storyboard Layer 2 (Pass)
//Storyboard Layer 3 (Foreground)
//Storyboard Layer 4 (Overlay)
//Storyboard Sound Samples

[TimingPoints]
357,333.333333333333,4,2,1,55,1,0
11023,-111.111111111111,4,2,1,55,0,0
11690,-142.857142857143,4,2,1,55,0,0
16356,-111.111111111111,4,2,1,55,0,0
21690,-83.3333333333333,4,1,1,80,0,0
31690,-153.846153846153,4,1,1,80,0,0
32356,-83.3333333333333,4,1,1,80,0,0
40356,-71.4285714285714,4,1,1,80,0,0
40856,-83.3333333333333,4,1,1,80,0,0
43023,-100,4,1,1,80,0,0
53690,-100,4,3,1,80,0,0
64023,-66.6666666666667,4,3,1,80,0,0
64356,-100,4,3,1,80,0,0
75023,-100,4,1,1,80,0,0
77565,-100,4,1,1,60,0,0
77856,-100,4,1,1,80,0,0
85690,-62.5,4,2,1,80,0,0
86190,-71.4285714285714,4,2,1,80,0,0
88190,-62.5,4,2,1,80,0,0
88690,-71.4285714285714,4,2,1,80,0,0
91023,-62.5,4,2,1,80,0,0
91523,-71.4285714285714,4,2,1,80,0,0
93690,-62.5,4,2,1,80,0,0
94190,-71.4285714285714,4,2,1,80,0,0
96356,-71.4285714285714,4,1,1,80,0,1
107023,-76.9230769230769,4,1,1,80,0,1
111523,-58.8235294117647,4,1,1,80,0,1
111690,-76.9230769230769,4,1,1,80,0,1
117690,-166.666666666667,4,1,1,80,0,0

[Colours]
Combo1 : 0,64,128
Combo2 : 0,0,255
Combo3 : 0,128,128
Combo4 : 64,0,128

[HitObjects]
156,304,357,5,0,0:0:0:0:
176,312,524,1,0,0:0:0:0:
196,320,690,1,0,0:0:0:0:
80,272,857,1,0,0:0:0:0:
392,304,3023,5,0,0:0:0:0:
388,328,3190,1,0,0:0:0:0:
384,352,3356,1,0,0:0:0:0:
404,224,3523,1,0,0:0:0:0:
342,82,5690,5,0,0:0:0:0:
420,111,5856,1,0,0:0:0:0:
402,38,6023,1,0,0:0:0:0:
359,154,6189,1,0,0:0:0:0:
122,118,8356,5,0,0:0:0:0:
108,45,8523,1,0,0:0:0:0:
193,141,8690,1,0,0:0:0:0:
51,95,8856,1,0,0:0:0:0:
438,103,11023,6,0,B|367:99|367:99|346:106|346:106|267:101,1,170.999994781494,2|0,1:0|0:0,0:0:0:0:
256,32,11523,1,0,0:0:0:0:
256,32,11606,1,0,0:0:0:0:
256,32,11690,2,0,L|323:36,1,66.4999979705811,0|2,0:0|0:0,0:0:0:0:
455,174,12023,2,0,L|388:170,1,66.4999979705811,0|2,0:0|0:0,0:0:0:0:
64,267,12690,6,0,L|48:176,1,66.4999979705811
114,132,12940,1,0,0:0:0:0:
114,132,13023,2,0,L|125:197,1,66.4999979705811,0|2,0:0|0:0,0:0:0:0:
185,238,13356,2,0,B|168:263|168:263|217:308,1,66.4999979705811,0|2,0:0|0:0,0:0:0:0:
251,334,13690,1,0,0:0:0:0:
440,50,14023,5,0,0:0:0:0:
439,167,14190,1,0,0:0:0:0:
439,167,14273,1,0,0:0:0:0:
439,167,14356,2,0,B|469:134|469:134|455:86,1,66.4999979705811,0|2,0:0|0:0,0:0:0:0:
337,112,14690,2,0,B|350:69|350:69|399:57,2,66.4999979705811,0|2|0,0:0|0:0|0:0,0:0:0:0:
57,223,15356,6,0,B|96:203|96:203|121:219,1,66.4999979705811
167,258,15606,1,0,0:0:0:0:
167,258,15690,2,0,B|166:207|213:182,1,66.4999979705811,0|2,0:0|0:0,0:0:0:0:
285,237,16023,2,0,B|286:288|239:313,1,66.4999979705811,0|2,0:0|0:0,0:0:0:0:
193,332,16356,5,0,0:0:0:0:
256,164,16690,1,0,0:0:0:0:
365,230,16856,1,0,0:0:0:0:
373,254,16940,1,0,0:0:0:0:
381,278,17023,1,0,0:0:0:0:
257,313,17190,2,0,B|290:307|290:307|335:331,2,85.4999973907472,2|0|2,0:0|0:0|0:0,0:0:0:0:
128,347,17690,1,0,0:0:0:0:
8,56,18023,5,0,0:0:0:0:
0,144,18190,1,0,0:0:0:0:
34,149,18273,1,0,0:0:0:0:
64,133,18356,2,0,B|91:117|91:117|145:123,1,85.4999973907472,0|2,0:0|0:0,0:0:0:0:
156,48,18690,2,0,B|186:55|186:55|220:98,1,85.4999973907472,0|2,0:3|0:0,0:0:0:0:
256,164,19023,1,0,0:0:0:0:
433,63,19356,5,0,0:0:0:0:
400,176,19523,1,0,0:0:0:0:
416,184,19606,1,0,0:0:0:0:
432,192,19690,2,0,L|368:128,1,85.4999973907472,0|2,0:0|0:0,0:0:0:0:
408,312,20023,2,0,L|344:248,1,85.4999973907472,0|2,0:0|0:0,0:0:0:0:
256,352,20356,5,2,0:1:0:0:
480,192,20690,1,2,0:1:0:0:
256,32,21023,1,2,0:1:0:0:
32,192,21356,1,2,0:1:0:0:
43,352,21690,6,0,B|101:305|101:305|138:320,1,113.999996520996,4|0,0:0|0:0,0:0:0:0:
203,336,21940,1,0,0:0:0:0:
211,320,22023,1,8,0:0:0:0:
331,192,22190,1,0,0:0:0:0:
323,208,22273,1,0,0:0:0:0:
315,224,22356,1,0,0:0:0:0:
219,304,22523,5,2,0:0:0:0:
268,152,22690,1,8,0:0:0:0:
375,270,22856,1,2,0:0:0:0:
171,232,23023,2,0,B|135:216|135:216|123:116,1,113.999996520996
115,8,23356,5,8,0:0:0:0:
219,84,23523,1,0,0:0:0:0:
211,100,23606,1,0,0:0:0:0:
203,116,23689,1,0,0:0:0:0:
342,116,23856,5,8,0:0:0:0:
195,132,24023,1,8,0:0:0:0:
266,283,24190,1,8,0:0:0:0:
274,267,24273,1,8,0:0:0:0:
282,251,24356,2,0,B|162:298,1,113.999996520996
339,348,24690,5,8,0:0:0:0:
419,236,24856,1,0,0:0:0:0:
411,252,24939,1,0,0:0:0:0:
403,268,25023,2,0,B|523:221,1,113.999996520996,0|2,0:0|0:0,0:0:0:0:
330,77,25356,2,0,B|341:200,1,113.999996520996,8|2,0:0|0:0,0:0:0:0:
323,4,25690,5,0,0:0:0:0:
499,28,25856,2,0,B|460:52|460:52|393:40,1,113.999996520996,0|8,0:0|0:0,0:0:0:0:
203,80,26190,1,0,0:0:0:0:
211,104,26273,1,0,0:0:0:0:
219,128,26356,1,0,0:0:0:0:
197,1,26523,6,0,P|140:34|126:77,1,113.999996520996,8|8,0:0|0:0,0:0:0:0:
147,152,26773,1,8,0:0:0:0:
155,176,26856,1,8,0:0:0:0:
163,200,26940,1,8,0:0:0:0:
171,224,27023,6,0,L|144:352,1,113.999996520996
43,368,27356,1,8,0:0:0:0:
275,232,27523,1,0,0:0:0:0:
267,264,27607,1,0,0:0:0:0:
259,296,27690,1,0,0:0:0:0:
283,200,27856,5,2,0:0:0:0:
335,327,28023,1,8,0:0:0:0:
461,275,28190,1,2,0:0:0:0:
410,148,28356,2,0,L|371:300,1,113.999996520996
263,93,28690,5,8,0:0:0:0:
233,218,28857,1,0,0:0:0:0:
233,218,28940,1,0,0:0:0:0:
233,218,29023,1,0,0:0:0:0:
37,168,29190,5,8,0:0:0:0:
67,43,29356,1,8,0:0:0:0:
124,243,29523,1,8,0:0:0:0:
178,22,29690,2,0,L|148:144,1,113.999996520996
211,318,30023,5,8,0:0:0:0:
256,213,30190,1,0,0:0:0:0:
272,181,30273,1,0,0:0:0:0:
304,165,30356,1,0,0:0:0:0:
431,143,30523,1,0,0:0:0:0:
421,314,30690,1,8,0:0:0:0:
393,293,30773,1,0,0:0:0:0:
382,260,30856,1,0,0:0:0:0:
351,47,31024,5,8,0:0:0:0:
418,205,31190,1,8,0:0:0:0:
261,272,31356,1,8,0:0:0:0:
194,114,31523,1,8,0:0:0:0:
351,46,31690,6,0,B|349:87|349:87|343:103|343:103|338:189,1,123.499994346619,2|0,0:3|0:0,0:0:0:0:
87,62,32356,6,0,B|148:53|148:53|169:0,1,113.999996520996,4|0,0:0|0:0,0:0:0:0:
135,122,32690,2,0,L|5:139,1,113.999996520996,8|0,0:0|0:0,0:0:0:0:
103,194,32940,1,0,0:0:0:0:
103,194,33023,2,0,B|164:186|164:186|198:232,2,113.999996520996,0|2|8,0:0|0:0|0:0,0:0:0:0:
8,214,33523,1,2,0:0:0:0:
0,340,33690,2,0,B|75:355|111:278,1,113.999996520996
240,162,34023,5,8,0:0:0:0:
261,289,34190,1,0,0:0:0:0:
265,309,34273,1,0,0:0:0:0:
269,329,34356,1,0,0:0:0:0:
415,366,34523,2,0,B|402:316|402:316|330:300,1,113.999996520996,8|8,0:0|0:0,0:0:0:0:
240,162,34856,2,0,B|253:212|253:212|325:228,1,113.999996520996,8|0,0:0|0:0,0:0:0:0:
444,251,35190,1,0,0:0:0:0:
273,349,35356,1,8,0:0:0:0:
312,138,35523,5,0,0:0:0:0:
308,118,35606,1,0,0:0:0:0:
304,98,35689,1,0,0:0:0:0:
185,76,35856,2,0,B|225:92|225:92|245:186,1,113.999996520996,2|8,0:0|0:0,0:0:0:0:
341,268,36190,1,2,0:0:0:0:
385,132,36356,2,0,B|370:62|370:62|400:31,1,113.999996520996
312,138,36690,6,0,B|341:270,1,113.999996520996,8|0,0:0|0:0,0:0:0:0:
352,312,36940,1,0,0:0:0:0:
355,328,37023,1,0,0:0:0:0:
465,316,37190,6,0,B|489:252|428:207,1,113.999996520996,8|8,0:0|0:0,0:0:0:0:
227,264,37523,2,0,B|203:328|264:373,1,113.999996520996,2|0,0:3|0:0,0:0:0:0:
312,138,37856,5,0,0:0:0:0:
186,53,38023,1,8,0:0:0:0:
101,179,38190,1,0,0:0:0:0:
105,199,38273,1,0,0:0:0:0:
109,219,38356,1,0,0:0:0:0:
240,328,38523,1,2,0:0:0:0:
236,308,38606,1,0,0:0:0:0:
232,288,38689,1,8,0:0:0:0:
113,239,38856,2,0,B|98:291|98:291|25:327,2,113.999996520996,2|0|0,0:0|0:0|0:0,0:0:0:0:
140,120,39356,5,8,0:0:0:0:
264,74,39523,1,0,0:0:0:0:
264,74,39606,1,0,0:0:0:0:
264,74,39690,2,0,B|245:147|327:190,1,113.999996520996,0|8,0:0|0:0,0:0:0:0:
446,114,40024,2,0,B|465:41|383:-2,1,113.999996520996,8|8,0:0|0:0,0:0:0:0:
354,94,40356,6,0,B|407:242,1,132.999995941162
490,319,40690,2,0,B|434:273|356:306,1,132.999995941162,8|0,0:0|0:0,0:0:0:0:
264,358,41023,5,8,0:0:0:0:
235,361,41106,1,8,0:0:0:0:
207,358,41190,1,8,0:0:0:0:
180,348,41273,1,8,0:0:0:0:
157,333,41356,1,8,0:0:0:0:
137,312,41439,1,0,0:0:0:0:
123,287,41523,6,8,L|124:247,4,28.4999991302491
131,192,42023,1,0,2:0:0:0:
139,97,42356,1,0,2:0:0:0:
147,2,42690,1,0,2:0:0:0:
131,192,43023,5,4,0:0:0:0:
256,192,43245,1,0,0:0:0:0:
324,192,43356,1,2,0:3:0:0:
452,248,43579,5,0,0:0:0:0:
388,227,43690,1,0,0:0:0:0:
388,160,43801,1,0,0:0:0:0:
452,140,43912,1,0,0:0:0:0:
491,194,44023,1,2,0:3:0:0:
400,297,44245,5,0,0:0:0:0:
372,360,44356,1,0,0:0:0:0:
204,376,44579,5,0,0:0:0:0:
163,320,44690,1,2,0:3:0:0:
52,274,44912,5,0,0:0:0:0:
120,266,45023,1,0,0:0:0:0:
188,256,45134,2,0,L|240:279,1,31.6666666666667,2|2,0:0|2:0,0:0:0:0:
324,320,45356,5,2,0:3:0:0:
452,335,45579,1,2,0:0:0:0:
428,272,45690,1,0,0:0:0:0:
300,256,45912,1,0,0:0:0:0:
276,192,46023,1,2,0:3:0:0:
380,144,46245,5,0,0:0:0:0:
444,120,46356,1,0,0:0:0:0:
468,184,46468,1,0,0:0:0:0:
404,208,46579,1,0,0:0:0:0:
380,144,46690,1,2,0:3:0:0:
226,90,46912,5,0,0:0:0:0:
289,66,47023,1,0,0:0:0:0:
162,114,47245,5,0,0:0:0:0:
108,72,47356,1,2,0:3:0:0:
226,90,47579,5,0,0:0:0:0:
213,158,47690,1,0,0:0:0:0:
202,226,47801,2,0,L|194:276,1,31.6666666666667,2|0,0:0|2:0,0:0:0:0:
181,360,48023,5,2,0:3:0:0:
52,318,48245,1,2,0:0:0:0:
96,266,48356,1,0,0:0:0:0:
4,190,48579,1,0,0:0:0:0:
28,254,48690,1,2,0:3:0:0:
139,213,48913,5,0,0:0:0:0:
72,202,49023,1,0,0:0:0:0:
4,190,49134,1,0,0:0:0:0:
28,254,49245,1,0,0:0:0:0:
52,318,49356,1,2,0:3:0:0:
292,344,49579,5,0,0:0:0:0:
225,333,49689,1,0,0:0:0:0:
380,272,49912,1,0,0:0:0:0:
447,283,50022,1,2,0:3:0:0:
236,208,50245,5,0,0:0:0:0:
292,176,50356,1,0,0:0:0:0:
348,144,50468,2,0,L|316:112,1,31.6666666666667,2|0,0:0|2:0,0:0:0:0:
244,56,50690,5,2,0:3:0:0:
132,144,50912,1,2,0:0:0:0:
68,128,51023,1,0,0:0:0:0:
4,280,51245,1,0,0:0:0:0:
52,232,51356,1,2,0:3:0:0:
372,360,51579,5,0,0:0:0:0:
308,344,51690,1,0,0:0:0:0:
324,280,51801,1,0,0:0:0:0:
388,296,51912,1,0,0:0:0:0:
372,360,52023,1,2,0:3:0:0:
256,192,52245,5,0,0:0:0:0:
256,192,52356,1,0,0:0:0:0:
235,312,53690,5,4,1:1:0:0:
120,272,53856,1,0,0:1:0:0:
6,233,54023,1,8,0:1:0:0:
196,234,54190,5,0,0:1:0:0:
44,310,54356,1,0,0:1:0:0:
83,196,54523,5,0,1:1:0:0:
120,272,54690,1,8,0:1:0:0:
157,348,54857,1,0,0:1:0:0:
313,169,55023,5,0,1:1:0:0:
385,210,55189,1,0,0:1:0:0:
313,252,55356,1,8,0:1:0:0:
385,127,55523,6,0,B|507:127,1,95,0|0,1:1|0:1,0:1:0:0:
385,293,55856,1,0,1:1:0:0:
241,210,56023,2,0,B|119:210,1,95,8|0,0:1|0:1,0:1:0:0:
143,338,56356,5,0,1:1:0:0:
15,274,56523,1,0,0:1:0:0:
175,274,56690,1,8,0:1:0:0:
47,210,56856,1,0,0:1:0:0:
143,210,57023,5,0,0:1:0:0:
15,146,57190,1,0,1:1:0:0:
175,146,57356,5,8,0:1:0:0:
47,338,57522,1,0,0:1:0:0:
95,146,57690,5,0,1:1:0:0:
95,274,57856,1,0,0:1:0:0:
239,210,58023,1,8,0:1:0:0:
239,322,58190,1,0,1:1:0:0:
239,346,58273,1,0,0:1:0:0:
239,370,58356,1,0,0:1:0:0:
383,274,58523,1,0,1:1:0:0:
399,258,58606,1,0,0:1:0:0:
415,242,58689,1,8,0:1:0:0:
495,170,58856,1,0,0:1:0:0:
327,141,59023,5,0,1:1:0:0:
327,69,59190,1,0,0:1:0:0:
388,105,59356,1,8,0:1:0:0:
265,105,59523,1,0,0:1:0:0:
265,105,59606,1,0,0:1:0:0:
265,105,59690,1,0,0:1:0:0:
388,34,59856,1,0,1:1:0:0:
388,176,60022,1,8,0:1:0:0:
259,248,60190,1,0,0:1:0:0:
388,318,60356,2,0,B|436:334|436:334|468:390,2,95,0|0|8,1:1|0:1|0:1,0:1:0:0:
255,237,60856,5,0,1:1:0:0:
251,225,60940,1,0,0:1:0:0:
247,213,61023,2,0,L|151:189,1,95,0|0,0:1|1:1,0:1:0:0:
154,69,61356,2,0,L|246:45,1,95,8|0,0:1|0:1,0:1:0:0:
343,21,61690,5,0,1:1:0:0:
421,53,61856,1,0,0:1:0:0:
500,85,62023,1,8,0:1:0:0:
487,0,62190,1,0,0:1:0:0:
356,117,62356,5,0,0:1:0:0:
343,32,62523,1,0,1:1:0:0:
422,64,62690,1,8,0:1:0:0:
500,96,62856,1,0,0:1:0:0:
436,144,63023,1,0,1:1:0:0:
436,144,63106,1,0,0:1:0:0:
436,144,63190,2,0,L|452:260,1,95,0|8,0:1|0:1,0:1:0:0:
376,200,63523,1,0,1:1:0:0:
376,200,63606,1,0,0:1:0:0:
376,200,63690,2,0,L|388:294,1,95,0|0,0:1|1:1,0:1:0:0:
499,95,64023,2,0,L|513:208,2,71.2500027179719,8|0|0,0:1|0:1|0:1,0:1:0:0:
436,144,64356,6,0,L|345:111,1,95,4|0,1:1|0:1,0:1:0:0:
298,3,64606,1,0,0:1:0:0:
298,3,64690,2,0,B|264:37|264:37|267:110,1,95,8|0,0:1|0:1,0:1:0:0:
314,193,64940,1,0,0:1:0:0:
314,193,65023,2,0,B|347:158|347:158|344:85,1,95,0|0,1:1|1:1,0:1:0:0:
266,85,65356,2,0,L|153:43,1,95,8|0,0:1|0:1,0:1:0:0:
84,228,65690,5,2,1:1:0:0:
100,312,65856,1,0,0:1:0:0:
164,256,66023,1,8,0:1:0:0:
180,340,66190,5,2,0:1:0:0:
184,356,66273,1,0,0:1:0:0:
188,372,66356,1,0,1:1:0:0:
84,228,66524,1,2,1:1:0:0:
80,212,66607,1,0,0:1:0:0:
76,195,66690,1,10,0:1:0:0:
244,284,66856,1,0,0:1:0:0:
322,308,67023,6,0,L|398:224,1,95,0|0,1:1|0:1,0:1:0:0:
428,239,67273,1,0,0:1:0:0:
428,239,67356,2,0,P|391:198|397:136,1,95,8|0,0:1|0:1,0:1:0:0:
378,6,67606,1,0,0:1:0:0:
378,6,67690,2,0,P|389:60|353:110,1,95,0|0,1:1|1:1,0:1:0:0:
325,144,68023,2,0,P|273:163|217:137,1,95,8|0,0:1|0:1,0:1:0:0:
30,123,68356,1,2,1:1:0:0:
143,80,68523,1,0,0:1:0:0:
123,200,68690,1,8,0:1:0:0:
52,0,68856,5,2,0:1:0:0:
52,0,68940,1,0,0:1:0:0:
52,0,69023,1,0,1:1:0:0:
143,80,69190,1,2,1:1:0:0:
139,104,69274,1,0,0:1:0:0:
135,128,69357,1,10,0:1:0:0:
131,152,69440,1,0,0:1:0:0:
127,176,69523,1,0,0:1:0:0:
108,289,69690,6,0,L|239:304,1,95,0|0,1:1|0:1,0:1:0:0:
243,307,69940,1,0,0:1:0:0:
243,307,70023,1,8,0:1:0:0:
398,336,70190,1,0,0:1:0:0:
398,336,70273,1,0,0:1:0:0:
398,336,70356,2,0,P|334:320|293:280,1,95,0|0,1:1|1:1,0:1:0:0:
275,248,70606,1,0,0:1:0:0:
275,248,70689,2,0,P|266:183|290:131,1,95,8|0,0:1|0:1,0:1:0:0:
352,16,71023,5,2,1:1:0:0:
432,64,71190,1,0,0:1:0:0:
432,152,71356,1,8,0:1:0:0:
432,240,71523,1,2,0:1:0:0:
432,256,71606,1,0,0:1:0:0:
432,272,71690,1,0,1:1:0:0:
352,144,71856,1,2,1:1:0:0:
352,128,71940,1,0,0:1:0:0:
352,112,72023,1,10,0:1:0:0:
352,32,72190,1,0,0:1:0:0:
352,224,72356,6,0,B|413:336,1,95,0|0,1:1|0:1,0:1:0:0:
413,365,72606,1,0,0:1:0:0:
413,365,72690,2,0,P|434:314|497:289,1,95,8|0,0:1|0:1,0:1:0:0:
213,286,73023,2,0,L|197:398,1,95,0|0,1:1|1:1,0:1:0:0:
287,294,73273,1,0,0:1:0:0:
287,294,73356,2,0,B|285:230|217:211,1,95,8|0,0:1|0:1,0:1:0:0:
132,188,73690,1,2,1:1:0:0:
328,48,74023,1,8,0:1:0:0:
428,104,74190,5,0,1:1:0:0:
432,96,74273,1,0,1:1:0:0:
436,88,74356,2,0,L|452:160,1,47.5,0|0,1:1|0:1,0:1:0:0:
472,144,74523,2,0,L|488:216,1,47.5,0|0,1:1|0:1,0:1:0:0:
386,216,74690,2,0,L|370:288,1,47.5,8|8,0:1|0:1,0:1:0:0:
350,272,74857,2,0,L|334:344,1,47.5,8|8,0:1|0:1,0:1:0:0:
330,354,75023,5,4,0:0:0:0:
268,214,75190,1,0,0:2:0:0:
177,337,75356,1,8,0:0:0:0:
258,298,75606,5,0,0:0:0:0:
258,298,75690,1,0,0:0:0:0:
196,158,75856,1,0,0:0:0:0:
288,34,76023,1,8,0:0:0:0:
349,175,76190,1,0,0:0:0:0:
196,158,76356,5,0,0:0:0:0:
43,141,76523,1,0,0:0:0:0:
104,282,76690,1,8,0:0:0:0:
113,199,76940,5,0,0:0:0:0:
113,199,77023,1,0,0:0:0:0:
134,57,77190,1,0,0:0:0:0:
0,111,77356,1,8,0:0:0:0:
247,146,77523,2,0,L|257:177,4,23.75,8|8|8|8|0,0:0|0:0|0:0|0:0|0:0,0:0:0:0:
266,10,77856,5,0,0:0:0:0:
378,98,78023,1,8,0:0:0:0:
509,50,78273,5,0,0:0:0:0:
509,50,78356,1,0,0:0:0:0:
373,174,78522,1,0,0:0:0:0:
504,126,78690,1,8,0:0:0:0:
378,98,78856,1,0,0:0:0:0:
252,70,79023,5,0,0:0:0:0:
280,196,79190,1,0,0:0:0:0:
154,224,79356,1,8,0:0:0:0:
126,98,79523,1,0,0:0:0:0:
0,126,79856,5,0,0:0:0:0:
107,166,80023,1,8,0:0:0:0:
153,155,80106,1,8,0:0:0:0:
199,145,80189,1,8,0:0:0:0:
246,135,80272,1,8,0:0:0:0:
292,125,80356,5,0,0:0:0:0:
179,53,80523,1,0,0:0:0:0:
219,238,80690,1,8,0:0:0:0:
219,238,80940,5,0,0:0:0:0:
219,238,81023,1,0,0:0:0:0:
284,353,81190,1,0,0:0:0:0:
382,264,81356,1,8,0:0:0:0:
447,379,81523,1,0,0:0:0:0:
382,264,81690,5,0,0:0:0:0:
466,161,81856,1,0,0:0:0:0:
393,49,82023,1,8,0:0:0:0:
393,49,82273,5,0,0:0:0:0:
393,49,82356,1,0,0:0:0:0:
267,94,82523,1,0,0:0:0:0:
142,140,82690,1,8,0:0:0:0:
94,132,82773,1,8,0:0:0:0:
46,124,82856,1,8,0:0:0:0:
164,8,83023,5,0,0:0:0:0:
267,94,83190,1,0,0:0:0:0:
142,140,83356,1,8,0:0:0:0:
190,81,83606,5,0,0:0:0:0:
190,81,83690,1,0,0:0:0:0:
196,287,83856,1,0,0:0:0:0:
196,287,83940,1,0,0:0:0:0:
196,287,84023,1,8,0:0:0:0:
15,188,84190,1,0,0:0:0:0:
146,349,84356,5,0,0:0:0:0:
168,217,84523,1,0,0:0:0:0:
271,303,84689,1,8,0:0:0:0:
292,72,84940,5,0,0:0:0:0:
292,72,85023,1,0,0:0:0:0:
395,158,85190,1,0,0:0:0:0:
499,67,85356,2,0,B|409:94|387:5,1,142.5,8|0,0:0|0:0,0:0:0:0:
389,11,85690,6,0,B|400:63|400:63|385:109|385:109|400:180,1,152,4|0,1:0|0:0,0:0:0:0:
405,191,85940,1,0,0:0:0:0:
405,191,86023,1,2,0:0:0:0:
480,340,86190,2,0,B|412:224|280:324,1,199.499993911743
248,344,86523,2,0,B|142:411|78:307,1,199.499993911743,2|0,0:0|0:0,0:0:0:0:
58,240,86856,1,2,0:0:0:0:
218,71,87023,6,0,L|185:223,1,132.999995941162
175,268,87273,1,0,0:0:0:0:
175,268,87356,1,2,0:0:0:0:
47,64,87523,2,0,B|84:-6|169:34,1,132.999995941162
218,71,87773,1,0,0:0:0:0:
218,71,87856,1,0,0:0:0:0:
339,25,88023,1,2,0:0:0:0:
431,120,88190,6,0,B|424:168|424:168|392:199|392:199|381:257,1,152,0|4,1:2|1:0,0:0:0:0:
202,227,88523,1,0,0:0:0:0:
202,227,88606,1,0,0:0:0:0:
202,227,88690,1,2,0:0:0:0:
147,307,88856,2,0,B|262:346|299:226,1,199.499993911743
257,147,89190,2,0,B|141:108|104:227,1,199.499993911743,2|0,0:0|0:0,0:0:0:0:
74,291,89523,1,2,0:0:0:0:
394,379,89690,6,0,B|338:319|387:241,1,132.999995941162
421,200,89940,1,0,0:0:0:0:
421,200,90023,1,2,0:0:0:0:
501,42,90190,2,0,B|454:163|324:105,1,199.499993911743
279,77,90523,1,2,0:0:0:0:
455,344,90690,5,2,1:2:0:0:
457,339,90773,1,2,0:0:0:0:
459,334,90856,1,2,0:0:0:0:
461,329,90940,1,2,0:0:0:0:
463,324,91023,6,0,B|453:268|453:268|470:225|470:225|457:152,1,152,0|0,1:0|0:0,0:0:0:0:
458,145,91273,1,0,0:0:0:0:
458,145,91356,1,2,0:0:0:0:
465,24,91523,2,0,B|335:27|345:177,1,199.499993911743
329,246,91856,2,0,B|391:131|256:65,1,199.499993911743,2|0,0:0|0:0,0:0:0:0:
279,77,92190,2,0,B|230:91|230:91|215:124|215:124|140:147,1,132.999995941162,2|0,0:0|0:0,0:0:0:0:
60,106,92523,5,0,0:0:0:0:
54,104,92606,1,0,0:0:0:0:
48,102,92690,1,2,0:0:0:0:
90,221,92856,2,0,B|127:314|127:314|214:242,1,199.499993911743
243,336,93190,2,0,B|325:308|325:308|386:336,2,132.999995941162,0|4|0,0:0|0:0|0:0,0:0:0:0:
413,150,93690,6,0,B|438:200|438:200|429:244|429:244|459:304,1,152,0|0,1:0|0:0,0:0:0:0:
468,318,93940,1,0,0:0:0:0:
468,318,94023,1,2,0:0:0:0:
315,105,94190,2,0,B|386:3|504:86,1,199.499993911743
303,7,94523,2,0,B|232:109|114:26,1,199.499993911743,2|0,0:0|0:0,0:0:0:0:
315,105,94856,2,0,L|299:243,1,132.999995941162,2|0,0:0|0:0,0:0:0:0:
304,140,96356,5,12,0:0:0:0:
368,216,96523,1,8,0:0:0:0:
380,96,96690,1,8,0:0:0:0:
292,260,96856,1,8,0:0:0:0:
480,216,97023,1,8,0:0:0:0:
192,140,97190,1,8,0:0:0:0:
442,334,97356,1,8,0:0:0:0:
242,30,97523,5,8,0:0:0:0:
242,30,97606,1,0,0:0:0:0:
242,30,97690,1,8,0:0:0:0:
151,290,97856,1,8,0:0:0:0:
151,290,97940,1,0,0:0:0:0:
151,290,98023,5,8,0:0:0:0:
126,164,98190,1,8,0:0:0:0:
163,352,98356,1,8,0:0:0:0:
114,101,98523,1,8,0:0:0:0:
60,242,98690,1,8,0:0:0:0:
99,234,98773,1,0,0:0:0:0:
138,227,98856,1,8,0:0:0:0:
178,219,98940,1,0,0:0:0:0:
217,211,99023,1,8,0:0:0:0:
335,266,99190,5,8,0:0:0:0:
335,266,99273,1,0,0:0:0:0:
335,266,99356,1,8,0:0:0:0:
423,171,99523,1,8,0:0:0:0:
361,57,99689,1,8,0:0:0:0:
233,82,99856,1,8,0:0:0:0:
217,211,100023,1,8,0:0:0:0:
335,266,100189,1,8,0:0:0:0:
335,266,100273,1,0,0:0:0:0:
335,266,100356,5,8,0:0:0:0:
217,211,100523,1,8,0:0:0:0:
423,171,100689,1,8,0:0:0:0:
233,82,100856,1,8,0:0:0:0:
361,57,101023,1,8,0:0:0:0:
316,160,101356,5,8,0:0:0:0:
284,160,101440,1,8,0:0:0:0:
252,160,101523,1,8,0:0:0:0:
220,160,101606,1,8,0:0:0:0:
188,160,101690,5,12,0:0:0:0:
96,96,101856,1,8,0:0:0:0:
72,80,101939,1,0,0:0:0:0:
48,64,102023,1,8,0:0:0:0:
188,160,102190,5,8,0:0:0:0:
178,271,102356,1,8,0:0:0:0:
176,300,102439,1,0,0:0:0:0:
174,329,102523,1,8,0:0:0:0:
35,233,102689,5,8,0:0:0:0:
61,220,102773,1,0,0:0:0:0:
87,207,102856,1,8,0:0:0:0:
188,160,103023,1,8,0:0:0:0:
280,224,103190,1,8,0:0:0:0:
304,240,103273,1,0,0:0:0:0:
328,256,103356,2,8,B|362:276|362:276|265:337,1,132.999995941162
21,315,103690,5,8,0:0:0:0:
56,349,103773,1,0,0:0:0:0:
105,343,103856,1,8,0:0:0:0:
86,221,104023,2,8,B|26:248|26:248|19:330,2,132.999995941162
502,140,104523,5,8,0:0:0:0:
455,126,104606,1,0,0:0:0:0:
436,81,104689,1,8,0:0:0:0:
396,207,104856,1,8,0:0:0:0:
277,145,105023,5,8,0:0:0:0:
288,192,105106,1,0,0:0:0:0:
259,231,105189,1,8,0:0:0:0:
396,207,105356,1,8,0:0:0:0:
392,337,105523,5,8,0:0:0:0:
427,303,105606,1,0,0:0:0:0:
476,309,105689,1,8,0:0:0:0:
476,309,106023,5,0,0:0:0:0:
480,301,106106,1,0,0:0:0:0:
484,293,106190,1,0,0:0:0:0:
488,285,106273,1,0,0:0:0:0:
467,256,106356,5,8,0:0:0:0:
456,234,106440,1,8,0:0:0:0:
445,213,106523,1,8,0:0:0:0:
435,192,106606,1,8,0:0:0:0:
397,176,106690,5,4,0:0:0:0:
403,144,106773,1,0,0:0:0:0:
409,113,106856,1,0,0:0:0:0:
416,82,106940,1,0,0:0:0:0:
423,51,107023,6,0,L|360:66,1,61.7499971733095,12|0,0:0|0:0,0:0:0:0:
293,20,107190,2,0,L|230:35,1,61.7499971733095,8|0,0:0|0:0,0:0:0:0:
160,62,107356,5,8,0:0:0:0:
168,90,107440,1,0,0:0:0:0:
176,118,107523,2,0,L|146:202,1,61.7499971733095,8|0,0:0|0:0,0:0:0:0:
104,233,107690,1,8,0:0:0:0:
128,249,107774,1,0,0:0:0:0:
152,265,107857,2,0,L|221:236,1,61.7499971733095,8|0,0:0|0:0,0:0:0:0:
80,162,108023,1,8,0:0:0:0:
56,178,108106,1,0,0:0:0:0:
32,194,108190,2,0,L|13:269,1,61.7499971733095,8|0,0:0|0:0,0:0:0:0:
4,323,108356,5,8,0:0:0:0:
38,345,108440,1,0,0:0:0:0:
78,349,108523,1,8,0:0:0:0:
116,333,108606,1,0,0:0:0:0:
184,296,108690,5,8,0:0:0:0:
212,304,108773,1,0,0:0:0:0:
240,312,108856,2,0,L|257:374,1,61.7499971733095,8|0,0:0|0:0,0:0:0:0:
324,287,109023,1,8,0:0:0:0:
308,263,109106,1,0,0:0:0:0:
292,239,109189,2,0,L|230:221,1,61.7499971733095,8|0,0:0|0:0,0:0:0:0:
132,219,109356,5,8,0:0:0:0:
115,163,109439,1,0,0:0:0:0:
116,104,109522,2,0,L|63:148,1,61.7499971733095,8|0,0:0|0:0,0:0:0:0:
74,38,109690,1,8,0:0:0:0:
115,24,109773,1,0,0:0:0:0:
157,36,109856,1,8,0:0:0:0:
186,68,109940,1,0,0:0:0:0:
247,113,110023,5,8,0:0:0:0:
279,109,110106,1,0,0:0:0:0:
311,105,110190,2,0,L|343:37,1,61.7499971733095,8|0,0:0|0:0,0:0:0:0:
435,37,110356,1,8,0:0:0:0:
423,69,110439,1,0,0:0:0:0:
411,101,110523,2,0,L|453:164,1,61.7499971733095,8|0,0:0|0:0,0:0:0:0:
403,241,110690,1,8,0:0:0:0:
383,213,110773,1,0,0:0:0:0:
363,185,110857,2,0,L|287:191,1,61.7499971733095,8|0,0:0|0:0,0:0:0:0:
253,256,111023,2,0,L|178:262,1,61.7499971733095,8|0,0:0|0:0,0:0:0:0:
105,216,111190,5,8,0:0:0:0:
81,255,111273,1,0,0:0:0:0:
97,296,111356,1,8,0:0:0:0:
113,337,111440,1,0,0:0:0:0:
89,376,111523,2,0,L|108:193,1,161.500003080368,8|0,0:0|0:0,0:0:0:0:
225,29,112023,6,0,L|225:59,7,30.8749985866547
225,60,112356,6,0,L|225:136,1,61.7499971733095,12|0,0:0|0:0,0:0:0:0:
289,173,112523,2,0,L|289:252,1,61.7499971733095,8|0,0:0|0:0,0:0:0:0:
273,312,112690,1,8,0:0:0:0:
233,328,112773,1,0,0:0:0:0:
193,344,112857,2,0,L|154:289,1,61.7499971733095,8|0,0:0|0:0,0:0:0:0:
329,366,113023,1,8,0:0:0:0:
369,350,113106,1,0,0:0:0:0:
409,334,113190,2,0,L|447:388,1,61.7499971733095,8|0,0:0|0:0,0:0:0:0:
481,286,113356,5,8,0:0:0:0:
449,254,113440,1,0,0:0:0:0:
417,222,113523,2,0,L|417:145,1,61.7499971733095,8|0,0:0|0:0,0:0:0:0:
341,41,113690,2,0,L|341:105,1,61.7499971733095,8|0,0:0|0:0,0:0:0:0:
341,177,113856,1,8,0:0:0:0:
298,187,113940,1,0,0:0:0:0:
255,178,114023,1,8,0:0:0:0:
221,150,114106,1,0,0:0:0:0:
202,110,114190,2,0,L|177:181,1,61.7499971733095,8|0,0:0|0:0,0:0:0:0:
125,257,114356,5,8,0:0:0:0:
72,269,114440,1,0,0:0:0:0:
43,223,114523,1,8,0:0:0:0:
77,181,114606,1,0,0:0:0:0:
126,204,114690,2,0,B|46:224|46:224|-26:192,2,123.499994346619,2|2|10,1:0|1:0|1:0,0:0:0:0:
215,342,115190,6,8,L|275:327,1,61.7499971733095
348,309,115356,1,8,0:0:0:0:
388,299,115440,1,8,0:0:0:0:
428,289,115523,2,8,L|478:356,1,61.7499971733095
471,206,115690,1,8,0:0:0:0:
431,216,115774,1,8,0:0:0:0:
391,226,115856,2,8,L|341:159,1,61.7499971733095
369,47,116023,2,8,L|344:104,1,61.7499971733095
225,156,116190,2,8,L|287:149,1,61.7499971733095
328,143,116356,5,8,0:0:0:0:
376,137,116440,1,8,0:0:0:0:
424,132,116523,1,8,0:0:0:0:
473,126,116606,1,8,0:0:0:0:
467,78,116690,1,8,0:0:0:0:
419,83,116773,1,8,0:0:0:0:
424,132,116856,1,8,0:0:0:0:
430,180,116940,1,8,0:0:0:0:
435,228,117023,6,0,L|438:263,14,30.8749985866547
444,337,117690,5,4,0:0:0:0:
